#TITLE:MAKE IT BETTER (So-REAL Mix);
#SUBTITLE:;
#ARTIST:mitsu-O!SUMMER;
#TITLETRANSLIT:;
#SUBTITLETRANSLIT:;
#ARTISTTRANSLIT:;
#GENRE:;
#CREDIT:;
#BANNER:MAKE IT BETTER (So-REAL Mix).png;
#BACKGROUND:MAKE IT BETTER (So-REAL Mix)-bg.png;
#LYRICSPATH:MAKE IT BETTER (So-REAL Mix).lrc;
#CDTITLE:./CDTITLES/DANCE DANCE REVOLUTION 2NDMIX.PNG;
#MUSIC:MAKE IT BETTER (So-REAL Mix).mp3;
#OFFSET:-0.073;
#SAMPLESTART:0.020;
#SAMPLELENGTH:15.000;
#SELECTABLE:YES;
#DISPLAYBPM:118.000;
#BPMS:0.000=118.010
;
#STOPS:
;
#BGCHANGES:;
#KEYSOUNDS:;
#ATTACKS:;

//---------------dance-single - ----------------
#NOTES:
     dance-single:
     :
     Beginner:
     2:
     0.151,0.168,0.066,0.000,0.000,90.000,6.000,0.000,0.000,0.000,0.000,0.151,0.168,0.066,0.000,0.000,90.000,6.000,0.000,0.000,0.000,0.000:
0000
0000
0000
0000
,
0000
0000
0000
0000
,
0000
0000
0000
0000
,
0000
0000
0000
0000
,
0000
0000
0000
0000
,
0000
0000
0000
0000
,
0000
0000
0000
0000
,
0001
0001
0001
0000
,
0001
0000
0100
0100
,
0100
0100
0000
0000
,
0000
1000
1000
1000
,
0000
1000
0000
0100
,
0000
0010
0010
0010
,
0010
0010
0000
0000
,
0000
1000
1000
1000
,
1000
0000
0010
0000
,
0001
0000
0010
0010
,
0010
0010
0000
0100
,
0000
0100
0000
0000
,
0000
0001
0001
0001
,
0000
0010
0000
0001
,
0001
0001
0001
0000
,
0100
0000
0110
0000
,
0100
0100
0100
0100
,
0000
0010
0000
0001
,
0001
0001
0001
0000
,
0100
0000
0110
0000
,
0000
0001
0000
0001
,
0001
0000
0010
0010
,
0000
0100
0000
0100
,
0000
0001
0001
0001
,
0001
0000
0100
0000
,
0001
0000
0010
0010
,
0000
0100
0000
0100
,
0000
0010
0000
1000
,
0000
0100
0100
0100
,
0000
1001
0000
0100
,
0000
0001
0000
1000
,
0000
1001
0000
0010
,
0000
1000
0000
1000
,
0000
1001
0000
0100
,
0000
0001
0000
1000
,
0000
1001
0000
0010
,
0000
0100
0100
0100
;

//---------------dance-single - ----------------
#NOTES:
     dance-single:
     :
     Easy:
     7:
     0.295,0.337,0.319,0.000,0.000,159.000,29.000,0.000,0.000,0.000,0.000,0.295,0.337,0.319,0.000,0.000,159.000,29.000,0.000,0.000,0.000,0.000:
0000
0000
0000
0000
,
0000
0000
0000
0000
,
0000
0000
0000
0000
,
0000
0000
0000
0000
,
0000
0000
0000
0000
,
0000
0000
0000
0000
,
0000
0000
0000
0000
,
0001
1000
0100
0000
,
0001
1000
0100
0000
0100
1000
0100
0000
,
0100
0000
0100
0000
0000
1000
0100
0000
,
0000
1010
1001
1100
,
0001
1000
0100
0100
,
1000
0001
0010
0000
0010
0001
0010
0000
,
0010
0010
0000
0100
,
0000
0010
0100
0000
,
1000
0000
0001
0010
0010
0000
0000
0000
,
1000
0001
0010
0000
0010
0001
0010
0000
,
0010
0000
0010
0000
0000
0001
0100
0000
,
0000
0011
1001
0101
,
1000
0000
0001
0000
0010
0010
0010
0000
,
0000
1010
0110
0101
,
0001
0000
0001
0000
0001
0100
1000
0000
,
0100
0101
0110
1010
,
0100
0000
0100
0000
0100
0000
0100
1000
,
0010
1010
0110
0101
,
0001
0000
0001
0000
0001
0100
1000
0000
,
0100
0101
0110
1010
,
0000
0001
0000
0001
,
0001
1000
0100
0000
0010
1000
0010
0000
,
0100
0100
0000
0100
,
0000
0010
0100
0000
,
0001
0000
1000
0100
0100
0000
0000
0000
,
0001
1000
0100
0000
0010
1000
0010
0000
,
0100
0000
0100
0000
0000
1000
0100
0000
,
0000
1010
1001
1100
,
0001
0000
1000
0000
0100
0100
0100
0000
,
0010
0000
1001
0000
0010
1000
0100
0000
,
0001
0000
0001
0001
0100
1000
1000
0000
,
0100
0000
1001
0000
0100
0001
0010
0000
,
1100
1100
1001
1100
,
0010
0000
1001
0000
0010
1000
0100
0000
,
0001
0000
0001
0001
0100
1000
1000
0000
,
0100
0000
1001
0000
0100
0001
0010
0000
,
0100
0000
0100
0000
0100
0100
0100
0000
;

//---------------dance-single - ----------------
#NOTES:
     dance-single:
     :
     Medium:
     8:
     0.324,0.313,0.165,0.000,0.000,191.000,15.000,0.000,0.000,0.000,0.000,0.324,0.313,0.165,0.000,0.000,191.000,15.000,0.000,0.000,0.000,0.000:
0000
0000
0000
0000
,
0000
0000
0000
0000
,
0000
0000
0000
0000
,
0000
0000
0000
0000
,
0000
0000
0000
0000
,
0000
0000
0000
0000
,
0000
0000
0000
0000
,
0010
0000
0001
1000
0010
0000
0000
0000
,
1010
0000
0010
0100
0001
1000
0100
0000
,
0001
1000
0100
0000
0000
1000
0100
0000
,
1001
1010
1100
1000
,
0010
0000
0100
0000
0001
1000
0100
0000
,
0101
0000
0100
0010
1000
0001
0010
0000
,
1000
0001
0010
0000
0000
0000
0100
0000
,
0000
0000
0010
0010
0100
0100
0100
0000
,
0100
0010
1000
0001
0010
0000
0000
0000
,
0101
0000
0100
0010
1000
0001
0010
0000
,
1000
0001
0010
0000
0000
0001
0100
0000
,
1001
0101
0011
0001
,
0100
0000
0010
0000
1000
0001
0010
0000
,
0000
0000
1000
0010
0100
0010
0100
0001
,
0000
0000
1001
0000
0100
0100
1001
0000
,
0100
0000
0001
0100
0010
0100
0010
1000
,
0000
0000
1001
0000
0010
0010
1001
0000
,
0010
0000
1000
0010
0100
0010
0100
0001
,
0000
0000
1001
0000
0100
0100
1001
0000
,
0100
0000
0001
0100
0010
0100
0010
1000
,
0000
0000
0001
0001
0000
0000
0001
0001
,
0000
1000
0000
0001
0000
1000
0001
0100
,
0000
0100
0000
0100
0000
0000
0000
0010
,
0100
0010
0100
0010
,
0000
1000
0000
0001
0000
1000
0100
0100
,
0000
0001
0000
1000
0000
0001
1000
0100
,
0000
0100
0000
0100
0000
1000
0100
0000
,
1000
0001
1000
0010
1000
0100
1000
0000
,
0000
0001
0000
1000
0000
0001
0100
0000
,
0000
0000
1000
0010
0100
0001
0001
0100
,
0000
0001
0000
0100
0000
1000
1000
0100
,
0100
0000
0001
0100
0010
1000
1000
0010
,
0000
1000
0000
0001
0000
1000
0001
0100
,
0100
0000
1000
0010
0100
0001
0001
0100
,
0000
0001
0000
0100
0000
1000
1000
0100
,
0100
0000
0001
0100
0010
1000
1000
0010
,
0100
0000
0100
0000
1000
0100
1000
0000
;

//---------------dance-single - ----------------
#NOTES:
     dance-single:
     :
     Hard:
     10:
     0.405,0.601,0.550,0.000,0.000,208.000,50.000,0.000,0.000,0.000,0.000,0.405,0.601,0.550,0.000,0.000,208.000,50.000,0.000,0.000,0.000,0.000:
0000
0000
0000
0000
,
0000
0000
0000
0000
,
0000
0000
0000
0000
,
0000
0000
0000
0000
,
0000
0000
0000
0000
,
0000
0000
0000
0000
,
0000
0000
0000
0000
,
0010
0001
1000
0010
0001
0000
0000
0000
,
0100
0101
1100
0000
0000
0010
0000
0100
,
0000
0001
0100
1001
0000
1000
0100
0000
,
1000
1100
1010
1001
,
0100
0001
0100
1000
1000
0100
0100
0000
,
0010
1010
0011
0000
0000
0100
0000
0010
,
0000
1000
0010
1000
0000
0000
0100
0000
,
0010
0010
0010
0010
0100
0100
0100
0000
,
0100
1000
0001
1000
0100
0000
0000
0000
,
0010
0011
1010
0000
0000
0100
0000
0010
,
0000
0001
0010
1001
0000
0001
0100
0000
,
0001
0011
0101
1001
,
0100
0001
0100
1000
0001
0001
0100
0000
,
1000
0010
1000
0001
1000
0100
1000
0000
,
0000
0001
0000
0100
0000
1000
0000
0010
,
0001
0100
0001
1000
0001
0010
0001
0000
,
0000
0010
0000
1001
0000
0100
0000
1001
,
1000
0010
1000
0001
1000
0100
1000
0000
,
0000
0001
0000
0100
0000
1000
0000
0010
,
0001
0100
0001
1000
0001
0010
0001
0000
,
0000
0001
0000
0001
0000
0001
0000
0001
,
0010
0010
1001
1000
1010
1000
1100
0101
,
0001
1000
0100
0000
0000
0000
0100
0000
,
0010
0001
0001
0010
0100
1000
1000
0000
,
0100
0001
0001
1000
0100
0000
0000
0000
,
0010
0010
1001
1000
1010
1000
1100
0101
,
0001
1000
0100
0000
0000
1000
0100
0000
,
1000
1100
1010
1001
,
0100
0100
0001
0001
1000
1000
0100
0000
,
1001
0001
0101
0100
0110
0010
1010
0000
,
0000
0001
0000
1000
0000
0001
1000
0100
,
1001
0000
1010
0010
0110
0100
0101
0000
,
0000
1000
0000
0001
0000
1000
0001
0100
,
1001
0000
0101
0100
0110
0010
1010
0000
,
0000
0010
0000
0100
0000
0001
1000
0100
,
1001
1000
1010
0010
0110
0100
0101
0000
,
1010
1100
1010
1100
0011
0101
1001
0000
;

//---------------dance-double - ----------------
#NOTES:
     dance-double:
     :
     Easy:
     7:
     0.295,0.313,0.583,0.000,0.000,135.000,53.000,0.000,0.000,0.000,0.000,0.295,0.313,0.583,0.000,0.000,135.000,53.000,0.000,0.000,0.000,0.000:
00000000
00000000
00000000
00000000
,
00000000
00000000
00000000
00000000
,
00000000
00000000
00000000
00000000
,
00000000
00000000
00000000
00000000
,
00000000
00000000
00000000
00000000
,
00000000
00000000
00000000
00000000
,
00000000
00000000
00000000
00000000
,
00010000
00010000
00010000
00000000
,
00110000
00100000
00100000
00100000
,
01100000
00000000
01000000
00000000
00000000
10000000
01000000
00000000
,
00000000
10010000
00011000
00001001
,
00000100
00000100
00000100
00000100
,
00001100
00000100
00000100
00000100
,
00000110
00000010
00000000
00000100
,
00000000
00000010
00000100
00000000
,
00000100
00000000
00001000
00001000
00001000
00000000
00000000
00000000
,
00001100
00000100
00000100
00000100
,
00000110
00000000
00000010
00000000
00000000
00000001
00000100
00000000
,
00000000
00001001
00011000
10010000
,
00100000
00000000
00100000
00000000
00010000
00010000
00010000
00000000
,
10100000
00110000
00101000
00110000
,
00000000
01000000
00000000
01000000
,
10100000
00110000
00101000
00110000
,
00001000
00000100
00000001
00000100
,
00000011
00001010
00010010
00001010
,
00000000
00000100
00000000
00000100
,
00000011
00001010
00010010
00001010
,
00000000
00000001
00000000
00000001
,
00001100
00000100
00000110
00000010
,
00000011
00000010
00000000
00000100
,
00000000
00000010
00000100
00000000
,
00000100
00000000
00001000
00001000
00001000
00000000
00000000
00000000
,
00001100
00000100
00000110
00000010
,
00000011
00000000
00000010
00000000
00000000
00000001
00000100
00000000
,
00000000
00001001
00011000
10010000
,
00100000
00000000
00100000
00000000
00010000
00010000
00010000
00000000
,
00110000
01010000
01001000
01010000
,
00100000
00010000
00001000
00000100
,
00001010
00001100
00010100
00001100
,
00000010
00000100
00000001
00000100
,
00001010
00001100
00010100
00001100
,
00000010
00001000
00010000
01000000
,
00110000
01010000
01001000
01010000
,
00010000
00000000
00010000
00000000
00010000
00010000
00010000
00000000
;

//---------------dance-double - ----------------
#NOTES:
     dance-double:
     :
     Medium:
     9:
     0.335,0.385,0.308,0.000,0.000,185.000,28.000,0.000,0.000,0.000,0.000,0.335,0.385,0.308,0.000,0.000,185.000,28.000,0.000,0.000,0.000,0.000:
00000000
00000000
00000000
00000000
,
00000000
00000000
00000000
00000000
,
00000000
00000000
00000000
00000000
,
00000000
00000000
00000000
00000000
,
00000000
00000000
00000000
00000000
,
00000000
00000000
00000000
00000000
,
00000000
00000000
00000000
00000000
,
00010000
00000000
00010000
00010000
00010000
00000000
00000000
00000000
,
01000000
00010000
01000000
01000000
10000000
01000000
01000000
00100000
,
01000000
00100000
00100000
00000000
00000000
10000000
01000000
00000000
,
00000000
10010000
00011000
00001001
,
00000100
00000000
00000100
00000000
00001000
00001000
00000100
00000000
,
00000010
00001000
00000010
00000010
00000001
00000010
00000010
00000100
,
00000010
00000100
00000100
00000000
00000000
00000000
00000100
00000000
,
00000000
00000010
00000100
00000000
,
00000100
00001000
00000001
00000001
00000001
00000000
00000000
00000000
,
00000100
00001000
00000100
00000100
00000001
00000100
00000100
00000010
,
00000100
00000010
00000010
00000000
00000000
00000001
00000100
00000000
,
00000000
00001001
00011000
10010000
,
00100000
00000000
00100000
00000000
00010000
00010000
01000000
00000000
,
10000000
00100000
00010000
00100000
00010000
00001000
00010000
00100000
,
00000000
01000000
00000000
01000000
,
10000000
00100000
00010000
00100000
00010000
00001000
00010000
00001000
,
00000100
00000001
00000100
00001000
,
00000001
00000010
00001000
00000010
00001000
00010000
00001000
00000010
,
00000000
00000100
00000000
00000100
,
00000001
00000010
00001000
00000010
00001000
00010000
00001000
00000010
,
00000000
00000001
00000000
00000001
,
00000000
00001000
00000000
00000001
00000000
00001000
00010000
10000000
,
00000000
01010000
00000000
10010000
00000000
00000000
00000000
00100000
,
01000000
00100000
01000000
00000000
,
00000000
00100000
00000000
00010000
00000000
00001000
00000100
00000000
,
00000000
00000010
00000000
00000100
00000000
00001000
00010000
01000000
,
00000000
00001000
00000000
00000010
00000000
00000100
00000001
00000000
,
00000110
00001001
00011000
10010000
,
00000000
00010000
00000000
10000000
00000000
00100000
01000000
00000000
,
00110000
00010000
10010000
00000000
01001000
00000000
00010100
00000000
,
00001000
00001000
00000001
00001000
00000010
00000010
00000100
00000000
,
00001010
00001000
00001100
00000000
00010100
00000000
01001000
00000000
,
00100000
00100000
00100000
00100000
01000000
01000000
01000000
00000000
,
00110000
00010000
10010000
00000000
01001000
00000000
00010100
00000000
,
00001000
00001000
00000001
00001000
00000010
00000010
00000100
00000000
,
00001010
00001000
00001100
00000000
00010100
00000000
01001000
00000000
,
00010000
00000000
00010000
00000000
00010000
00010000
00010000
00000000
;

//---------------dance-double - ----------------
#NOTES:
     dance-double:
     :
     Hard:
     11:
     0.413,0.410,0.286,0.000,0.379,237.000,26.000,0.000,0.000,0.000,0.000,0.413,0.410,0.286,0.000,0.379,237.000,26.000,0.000,0.000,0.000,0.000:
00000000
00000000
00000000
00000000
,
00000000
00000000
00000000
00000000
,
00000000
00000000
00000000
00000000
,
00000000
00000000
00000000
00000000
,
00000000
00000000
00000000
00000000
,
00000000
00000000
00000000
00000000
,
00000000
00000000
00000000
00000000
,
10000000
00000000
01000000
00000000
00100000
00010000
00000000
01000000
00010000
00000000
00000000
00000000
00000000
00000000
00000000
00000000
,
00001000
00000000
00010000
00000000
00000100
00001000
00000000
00000000
00000001
00000000
00000100
00000000
00000010
00001000
00000000
00000000
,
00000100
00010000
00001000
00100000
00010000
00000000
11000000
00000000
,
00000000
00100000
00010000
01000000
00001000
00010000
00000100
00000000
,
00000010
00000001
00000000
00001000
00000000
00000100
00000000
00010000
00001000
00000000
00100000
00000000
00010000
00000000
10000000
00000000
,
01000000
00000000
00100000
00000000
00010000
00100000
00000000
00000000
00001000
00000000
00010000
00000000
00000100
00001000
00000000
00000000
,
00000001
00000100
00000010
00001000
,
00000100
00000000
00010000
00000000
00001000
00010000
00000000
00000000
00000010
00000000
00001000
00000000
00000100
00010000
00000000
00000000
,
00001000
00000000
00100000
00000000
00010000
00100000
00000000
01000000
10000000
00000000
00000000
00000000
00000000
00000000
00000000
00000000
,
00100000
00000000
00010000
00000000
01000000
00001000
00000000
00000000
00010000
00000000
00000100
00000000
00000010
00000001
00000000
00000000
,
00000100
00000010
00001000
00000100
,
00010000
00000000
00001000
00000000
00100000
00010000
00000000
00000000
10000000
00000000
01000000
00000000
00100000
00010000
00000000
00000000
,
10000000
00010000
00000000
01000000
00000000
00001000
00000000
00000000
00000000
00000000
00010000
00000000
00000100
00000000
00000010
00000000
,
00000000
00000000
00001001
00000000
00000000
00000000
00000000
00000000
00000010
00010000
00000010
00010000
00000010
00010000
00000000
00000000
,
00000000
01001000
00000000
00110000
00000000
00011000
00000000
00001010
,
00000000
00000000
00000000
00000000
00000101
00000000
00000000
00000000
00001000
00000100
00001000
00000100
00001000
00000100
00000000
00000000
,
00010000
00000000
00000000
00001000
00000000
00100000
00000000
00010000
00000000
10000000
00000000
01000000
00000000
00000000
00000000
00000000
,
00000000
00000000
00000000
00000000
01010000
00000000
00000000
00000000
10000000
00100000
10000000
00100000
10000000
00100000
00000000
00000000
,
00000000
01010000
00000000
00011000
00000000
00001010
00000000
00000101
,
00000000
00000000
00000000
00000000
00001100
00000000
00000000
00000000
00010000
00001000
00010000
00001000
00010000
00001000
00000000
00000000
,
00100000
00010000
10000000
01000000
00100000
00010000
01000000
00001000
,
00010000
00000100
00000100
00000000
00000010
00000001
00000001
00000000
,
00001000
00000100
00010000
01000000
10000000
00100000
01000000
00000000
,
00001000
00100000
00000000
01010000
00000000
00000000
00000000
00000000
00001000
00000000
00000000
00000000
00001000
00000000
00000000
00000000
,
00010000
00000000
00000100
00000000
00001000
00000001
00000000
00000100
00000010
00000000
00000000
00000000
00000000
00000000
00000000
00000000
,
00001000
00000100
00000100
00000000
00010000
00001000
00001000
00000000
,
00100000
01000000
10000000
00010000
01000000
00001000
00010000
00000000
,
00000000
00000001
00000000
00000100
00000000
00000010
00000000
00001000
,
00000100
00010000
00000000
00001000
00000000
00100000
00000000
00000000
00000000
00000000
01000000
00000000
10000000
00000000
00010000
00000000
,
00000000
00000000
00011000
00000000
00000000
00000000
00000000
00000000
00000100
00000010
00000100
00000010
00000100
00000010
00000000
00000000
,
00000000
00001001
00000000
00010100
00000000
00101000
00000000
10010000
,
00000000
00000000
00000000
00000000
01100000
00000000
00000000
00000000
00010000
01000000
00010000
01000000
00010000
01000000
00000000
00000000
,
00001000
00000000
00000000
00010000
00000000
00000100
00000000
00000010
00000000
00000001
00000000
00000100
00000000
00000000
00000000
00000000
,
00000000
00000000
00000000
00000000
00001100
00000000
00000000
00000000
00010000
00001000
00010000
00001000
00010000
00001000
00000000
00000000
,
00000000
00110000
00000000
11000000
00000000
01010000
00000000
00011000
,
00000000
00000000
00000000
00000000
00001001
00000000
00000000
00000000
00000010
00000100
00000010
00000100
00000010
00000100
00000000
00000000
,
00010000
00001000
00000000
00100000
00000000
00010000
00000000
10000000
00000000
01000000
00000000
00100000
00010000
00100000
00000000
00000000
;

//---------------dance-couple - ----------------
#NOTES:
     dance-couple:
     :
     Easy:
     5:
     0.265,0.337,0.319,0.000,0.000,140.000,29.000,0.000,0.000,0.000,0.000,0.265,0.337,0.319,0.000,0.000,140.000,29.000,0.000,0.000,0.000,0.000:
00000000
00000000
00000000
00000000
,
00000000
00000000
00000000
00000000
,
00000000
00000000
00000000
00000000
,
00000000
00000000
00000000
00000000
,
00000000
00000000
00000000
00000000
,
00000000
00000000
00000000
00000000
,
00000000
00000000
00000000
00000000
,
10000001
00011000
01000100
00000000
,
10000000
00010000
01000000
00000000
00000100
00001000
00000100
00000000
,
01000100
00000000
01000100
00000000
00000000
00011000
01000100
00000000
,
00000000
00111010
10011001
01011100
,
10000001
00011000
01000100
01000100
,
10000000
00010000
00100000
00000000
00000010
00001000
00000010
00000000
,
00100010
00100010
00000000
01000100
,
00000000
00100000
01000000
00000000
,
10000001
00000000
00011000
00100010
00100010
00000000
00000000
00000000
,
00001000
00000001
00000010
00000000
00100000
10000000
00100000
00000000
,
00100010
00000000
00100010
00000000
00000000
00000001
00000100
00000000
,
00000000
10100011
10011001
11000101
,
00011000
00000000
10000001
00000000
00100010
00100010
00100010
00000000
,
00000000
10100011
01100110
01011100
,
00011000
00000000
00011000
00000000
00011000
01000100
10000001
00000000
,
01000100
01011100
01100110
10100011
,
01000100
00000000
01000100
00000000
01000100
00000000
01000100
10000001
,
00100010
10100011
01100110
01011100
,
00011000
00000000
00011000
00000000
00011000
01000100
10000001
00000000
,
01000100
01011100
01100110
10100011
,
00000000
00011000
00000000
00011000
,
00000001
00001000
00000100
00000000
00100000
10000000
00100000
00000000
,
01000100
01000100
00000000
01000100
,
00000000
00000010
00000100
00000000
,
00010001
00000000
10001000
01000100
01000100
00000000
00000000
00000000
,
00010000
10000000
01000000
00000000
00000010
00001000
00000010
00000000
,
01000100
00000000
01000100
00000000
00000000
10000000
01000000
00000000
,
00000000
10101010
10011001
11001100
,
00010001
00000000
10001000
00000000
01000100
01000100
01000100
00000000
,
00100010
00000000
10011001
00000000
00100010
00011000
01000100
00000000
,
10000001
00000000
10000001
10000001
01000100
00011000
00011000
00000000
,
01000100
00000000
10011001
00000000
01000100
10000001
00100010
00000000
,
01011100
01011100
10011001
01011100
,
00100010
00000000
10011001
00000000
00100010
00011000
01000100
00000000
,
10000001
00000000
10000001
10000001
01000100
00011000
00011000
00000000
,
01000100
00000000
10011001
00000000
01000100
10000001
00100010
00000000
,
01000100
00000000
01000100
00000000
01000100
01000100
01000100
00000000
;

//---------------dance-couple - ----------------
#NOTES:
     dance-couple:
     :
     Medium:
     6:
     0.297,0.313,0.154,0.000,0.000,175.000,14.000,0.000,0.000,0.000,0.000,0.297,0.313,0.154,0.000,0.000,175.000,14.000,0.000,0.000,0.000,0.000:
00000000
00000000
00000000
00000000
,
00000000
00000000
00000000
00000000
,
00000000
00000000
00000000
00000000
,
00000000
00000000
00000000
00000000
,
00000000
00000000
00000000
00000000
,
00000000
00000000
00000000
00000000
,
00000000
00000000
00000000
00000000
,
00100010
00000000
00011000
10000001
00100010
00000000
00000000
00000000
,
10100011
00000000
00100010
01000100
00011000
10000001
01000100
00000000
,
00011000
10000001
01000100
00000000
00000000
10000001
01000100
00000000
,
10011001
10100011
11000101
10000001
,
00100010
00000000
01000100
00000000
00011000
10000001
01000100
00000000
,
01010000
00000000
00000100
00000010
00001000
00000001
00000010
00000000
,
10000000
00010000
00100000
00000000
00000000
00000000
01000100
00000000
,
00000000
00000000
00100010
00100010
01000100
01000100
01000100
00000000
,
01000100
00100010
10001000
00010001
00100010
00000000
00000000
00000000
,
00000101
00000000
01000000
00100000
10000000
00010000
00100000
00000000
,
00001000
00000001
00000010
00000000
00000000
00010001
01000100
00000000
,
10011001
01010101
00110011
00010001
,
01000100
00000000
00100010
00000000
10001000
00010001
00100010
00000000
,
00000000
00000000
10000001
00100010
01000100
00100010
01000100
00011000
,
00000000
00000000
10011001
00000000
01000100
01000100
10011001
00000000
,
01000100
00000000
00011000
01000100
00100010
01000100
00100010
10000001
,
00000000
00000000
10011001
00000000
00100010
00100010
10011001
00000000
,
00100010
00000000
00011000
00100010
01000100
00100010
01000100
10000001
,
00000000
00000000
10011001
00000000
01000100
01000100
10011001
00000000
,
01000100
00000000
10000001
01000100
00100010
01000100
00100010
00011000
,
00000000
00000000
10000001
10000001
00000000
00000000
10000001
10000001
,
00000000
10000000
00000000
00010000
00000000
00001000
00000001
00000100
,
00000000
01000000
00000000
01000000
00000000
00000000
00000000
00100010
,
01000100
00100010
01000100
00100010
,
00000000
10001000
00000000
00010001
00000000
10001000
01000100
01000100
,
00000000
00000001
00000000
00001000
00000000
00010000
10000000
01000000
,
00000000
00000100
00000000
00000100
00000000
10001000
01000100
00000000
,
10001000
00010001
10001000
00100010
10001000
01000100
10001000
00000000
,
00000000
00010001
00000000
10001000
00000000
00010001
01000100
00000000
,
00000000
00000000
10000001
00100010
01000100
00011000
00011000
01000100
,
00000000
00011000
00000000
01000100
00000000
10000001
10000001
01000100
,
01000100
00000000
00011000
01000100
00100010
10000001
10000001
00100010
,
00000000
10000001
00000000
00011000
00000000
10000001
00011000
01000100
,
01000100
00000000
10000001
00100010
01000100
00011000
00011000
01000100
,
00000000
00011000
00000000
01000100
00000000
10000001
10000001
01000100
,
01000100
00000000
00011000
01000100
00100010
10000001
10000001
00100010
,
01000100
00000000
01000100
00000000
10000001
01000100
10000001
00000000
;

//---------------dance-couple - ----------------
#NOTES:
     dance-couple:
     :
     Hard:
     8:
     0.377,0.601,0.495,0.000,0.000,195.000,45.000,0.000,0.000,0.000,0.000,0.377,0.601,0.495,0.000,0.000,195.000,45.000,0.000,0.000,0.000,0.000:
00000000
00000000
00000000
00000000
,
00000000
00000000
00000000
00000000
,
00000000
00000000
00000000
00000000
,
00000000
00000000
00000000
00000000
,
00000000
00000000
00000000
00000000
,
00000000
00000000
00000000
00000000
,
00000000
00000000
00000000
00000000
,
00100010
00011000
10000001
00100010
00011000
00000000
00000000
00000000
,
01000100
01011100
11000101
00000000
00000000
00100010
00000000
01000100
,
00000000
00011000
01000100
10011001
00000000
10000001
01000100
00000000
,
10000001
11000101
10100011
10011001
,
01000100
00011000
01000100
10000001
10000001
01000100
01000100
00000000
,
00100000
10100000
00110000
00000000
00000000
00000100
00000000
00000010
,
00000000
10000000
00100000
10010000
00000000
00000000
01000100
00000000
,
00100010
00100010
00100010
00100010
01000100
01000100
01000100
00000000
,
01000100
10001000
00010001
10001000
01000100
00000000
00000000
00000000
,
00000010
00000011
00001010
00000000
00000000
01000000
00000000
00100000
,
00000000
00000001
00000010
00001001
00000000
00010001
01000100
00000000
,
00010001
00110011
01010101
10011001
,
01000100
00010001
01000100
10001000
00010001
00010001
01000100
00000000
,
10000001
00100010
10000001
00011000
10000001
01000100
10000001
00000000
,
00000000
00011000
00000000
01000100
00000000
10000001
00000000
00100010
,
00011000
01000100
00011000
10000001
00011000
00100010
00011000
00000000
,
00000000
00100010
00000000
10011001
00000000
01000100
00000000
10011001
,
10000001
00100010
10000001
00011000
10000001
01000100
10000001
00000000
,
00000000
00011000
00000000
01000100
00000000
10000001
00000000
00100010
,
00011000
01000100
00011000
10000001
00011000
00100010
00011000
00000000
,
00000000
00011000
00000000
00011000
00000000
00011000
00000000
00011000
,
00100000
00100010
10010000
10001000
10100000
10001000
11000000
01010101
,
00010000
10001000
01000100
00000000
00000000
00000000
01000100
00000000
,
00100010
00010001
00010001
00100010
01000100
10001000
10001000
00000000
,
01000100
00010001
00010001
10001000
01000100
00000000
00000000
00000000
,
00000010
00100010
00001001
10001000
00001010
10001000
00001100
01010101
,
00000001
10001000
01000100
00000000
00000000
10001000
01000100
00000000
,
10001000
11001100
10101010
10011001
,
01000100
01000100
00010001
00010001
10001000
10001000
01000100
00000000
,
10011001
10000001
11000101
01000100
01100110
00100010
00111010
00000000
,
00000000
10000001
00000000
00011000
00000000
10000001
00011000
01000100
,
10011001
00000000
00111010
00100010
01100110
01000100
11000101
00000000
,
00000000
00011000
00000000
10000001
00000000
00011000
10000001
01000100
,
10011001
00000000
11000101
01000100
01100110
00100010
00111010
00000000
,
00000000
00100010
00000000
01000100
00000000
10000001
00011000
01000100
,
10011001
00011000
00111010
00100010
01100110
01000100
11000101
00000000
,
00111010
01011100
00111010
01011100
10100011
11000101
10011001
00000000
;

//---------------dance-couple - ----------------
#NOTES:
     dance-couple:
     :
     Challenge:
     5:
     0.245,0.313,0.121,0.000,0.000,145.000,11.000,0.000,0.000,0.000,0.000,0.245,0.337,0.121,0.000,0.000,145.000,11.000,0.000,0.000,0.000,0.000:
00000000
00000000
00000000
00000000
,
00000000
00000000
00000000
00000000
,
00000000
00000000
00000000
00000000
,
00000000
00000000
00000000
00000000
,
00000000
00000000
00000000
00000000
,
00000000
00000000
00000000
00000000
,
00000000
00000000
00000000
00000000
,
00100010
00000000
00010001
10001000
00100010
00000000
00000000
00000000
,
10100001
00000000
00100000
01000000
00010001
10000000
01000000
00000000
,
00010001
10000000
01000000
00000000
00000001
10000000
01000000
00000000
,
00000001
10100000
11000001
10000000
,
00100000
00000000
01000000
00000000
00010000
10000000
01000000
00000000
,
10001010
00000000
00000010
00000100
10000001
00001000
00000100
00000000
,
10000001
00001000
00000100
00000000
10000000
00001000
00000100
00000000
,
10000000
00001010
10001100
00001000
,
00000010
00000000
00000100
00000000
00000001
00001000
00000100
00000000
,
01011100
00000000
01000100
00100010
10000001
00011000
00100010
00000000
,
10000001
00011000
00100010
00000000
00000000
00011000
01000100
00000000
,
10011001
01011100
00111010
00011000
,
01000100
00000000
00100010
00000000
10000001
00011000
00100010
00000000
,
10000000
00100000
10000001
00010000
10000000
01000000
10000001
00000000
,
00000000
00010000
00000001
01000000
00000000
10000000
00000001
00100000
,
00010000
01000000
00010001
10000000
00010000
00100000
00010001
00000000
,
00000000
00100000
00000001
10010000
00000000
01000000
00000001
10010000
,
00001000
00000010
10001000
00000001
00001000
00000100
10001000
00000000
,
00000000
00000001
10000000
00000100
00000000
00001000
10000000
00000010
,
00000001
00000100
10000001
00001000
00000001
00000010
10000001
00000000
,
00000000
00000010
10000000
00001001
00000000
00000100
10000000
00001001
,
00000000
10000000
00000001
00010000
00000000
10000000
00010001
01000000
,
00000000
01000000
00000001
01000000
00000000
00000000
00000001
00100000
,
01000000
00100001
01000000
00100001
,
00000000
10000000
00000001
00010000
00000000
10000000
01000001
01000000
,
00000000
00001000
10000000
00000001
00000000
00001000
10000001
00000100
,
00000000
00000100
10000000
00000100
00000000
00000000
10000000
00000010
,
00000100
10000010
00000100
10000010
,
00000000
00001000
10000000
00000001
00000000
00001000
10000100
00000100
,
00100000
00000000
10010000
00000000
00100000
10000000
01000000
00000000
,
00010001
00000000
00010001
00010001
01000100
10001000
10001000
00000000
,
00000010
00000000
00001001
00000000
00000010
00001000
00000100
00000000
,
00010001
00010001
01000100
01000100
10001000
10001000
01000100
01000100
,
00100010
10001000
01000100
00000000
00100010
00010001
01000100
00000000
,
00011000
00000000
00011000
00011000
01000100
10000001
10000001
00000000
,
01000100
00000000
10011001
00000000
01000100
00011000
00100010
00000000
,
01000100
00000000
01000100
00000000
01000100
01000100
01000100
00000000
;

//---------------dance-solo - ----------------
#NOTES:
     dance-solo:
     :
     Easy:
     5:
     0.289,0.337,0.319,0.000,0.000,155.000,29.000,0.000,0.000,0.000,0.000,0.289,0.337,0.319,0.000,0.000,155.000,29.000,0.000,0.000,0.000,0.000:
000000
000000
000000
000000
,
000000
000000
000000
000000
,
000000
000000
000000
000000
,
000000
000000
000000
000000
,
000000
000000
000000
000000
,
000000
000000
000000
000000
,
000000
000000
000000
000000
,
000001
010000
001000
000000
,
000001
100000
001000
000000
001000
010000
001000
000000
,
001000
000000
001000
000000
000000
100000
001000
000000
,
000000
100010
100001
101000
,
000001
010000
001000
001000
,
100000
000001
000100
000000
010000
000001
010000
000000
,
000010
000010
000000
001000
,
000000
000100
001000
000000
,
010000
000000
000010
000100
000100
000000
000000
000000
,
100000
000001
000100
000000
010000
000001
010000
000000
,
000100
000000
000100
000000
000000
000001
001000
000000
,
000000
010001
100001
001001
,
100000
000010
010000
000000
,
000000
100100
001010
000101
,
000010
000000
000010
000000
000010
001000
100000
000000
,
001000
001010
001100
100100
,
001000
000000
001000
000000
001000
000000
001000
100000
,
000100
100010
001100
001001
,
000001
000000
000001
000000
000001
001000
010000
000000
,
001000
001001
001100
100010
,
000000
000001
000000
000010
,
000001
100000
001000
000000
000010
100000
000010
000000
,
001000
001000
000000
001000
,
000000
000010
001000
000000
,
000001
000000
010000
001000
001000
000000
000000
000000
,
000001
100000
001000
000000
000010
100000
000010
000000
,
001000
000000
001000
000000
000000
100000
001000
000000
,
000000
010100
100001
101000
,
000001
000000
010000
000000
001000
001000
001000
000000
,
000100
000000
100001
000000
000100
100000
001000
000000
,
000010
000000
000001
000001
001000
010000
000000
000000
,
001000
000000
100001
000000
001000
000001
000100
000000
,
101000
101000
010001
000110
,
001000
000000
100001
000000
000100
100000
001000
000000
,
000010
000000
000001
000001
001000
010000
000000
000000
,
001000
000000
100001
000000
001000
000001
000100
000000
,
001000
000000
001000
000000
001000
001000
001000
000000
;

//---------------dance-solo - ----------------
#NOTES:
     dance-solo:
     :
     Medium:
     6:
     0.324,0.313,0.165,0.000,0.000,191.000,15.000,0.000,0.000,0.000,0.000,0.324,0.313,0.165,0.000,0.000,191.000,15.000,0.000,0.000,0.000,0.000:
000000
000000
000000
000000
,
000000
000000
000000
000000
,
000000
000000
000000
000000
,
000000
000000
000000
000000
,
000000
000000
000000
000000
,
000000
000000
000000
000000
,
000000
000000
000000
000000
,
000100
000000
000001
100000
000010
000000
000000
000000
,
010100
000000
000100
001000
000001
100000
001000
000000
,
000001
010000
001000
000000
000000
100000
001000
000000
,
100001
010100
000110
100000
,
000100
000000
001000
000000
000001
100000
001000
000000
,
001010
000000
001000
000100
100000
000001
000100
000000
,
010000
000010
000100
000000
000000
000000
001000
000000
,
000000
000000
000100
000100
001000
001000
001000
000000
,
001000
000100
100000
000001
010000
000000
000000
000000
,
001010
000000
001000
000100
100000
000001
000100
000000
,
010000
000001
000100
000000
000000
000010
001000
000000
,
100001
001010
100100
000001
,
001000
000000
000010
000000
100000
000001
000100
000000
,
000000
000000
010000
000100
001000
000100
001000
000001
,
000000
000000
100010
000000
001000
001000
011000
000000
,
001000
000000
000010
001000
000100
001000
000100
100000
,
000000
000000
100001
000000
000100
000100
100001
000000
,
000100
000000
100000
000100
001000
000100
001000
000010
,
000000
000000
100001
000000
001000
001000
100001
000000
,
001000
000000
000001
001000
000100
001000
000100
010000
,
000000
000000
000001
000001
000000
000000
000001
000001
,
000000
010000
000000
000001
000000
100000
000001
001000
,
000000
001000
000000
001000
000000
000000
000000
000100
,
001000
000010
001000
000010
,
000000
100000
000000
000001
000000
100000
001000
001000
,
000000
000010
000000
100000
000000
000010
100000
001000
,
000000
001000
000000
001000
000000
100000
001000
000000
,
100000
000001
100000
000010
100000
000100
100000
000000
,
000000
000001
000000
100000
000000
000001
001000
000000
,
000000
000000
100000
000100
001000
000010
000001
001000
,
000000
000001
000000
001000
000000
100000
100000
001000
,
001000
000000
000010
001000
000100
100000
100000
000100
,
000000
100000
000000
000001
000000
100000
000001
001000
,
001000
000000
100000
000100
001000
000001
000001
001000
,
000000
000010
000000
001000
000000
100000
100000
001000
,
001000
000000
000001
001000
000100
100000
100000
000100
,
001000
000000
001000
000000
010000
001000
010000
000000
;

//---------------dance-solo - ----------------
#NOTES:
     dance-solo:
     :
     Hard:
     8:
     0.404,0.601,0.550,0.000,0.000,207.000,50.000,0.000,0.000,0.000,0.000,0.404,0.601,0.550,0.000,0.000,207.000,50.000,0.000,0.000,0.000,0.000:
000000
000000
000000
000000
,
000000
000000
000000
000000
,
000000
000000
000000
000000
,
000000
000000
000000
000000
,
000000
000000
000000
000000
,
000000
000000
000000
000000
,
000000
000000
000000
000000
,
000100
000010
100000
000100
000001
000000
000000
000000
,
001000
001001
101000
000000
000000
000100
000000
001000
,
000000
000001
001000
100010
000000
100000
001000
000000
,
100000
101000
100100
010001
,
001000
000001
001000
100000
100000
001000
001000
000000
,
000010
100100
010001
000000
000000
001000
000000
000100
,
000000
100000
000010
100000
000000
000000
001000
000000
,
000100
000100
000100
000100
001000
001000
001000
000000
,
001000
100000
000001
010000
001000
000000
000000
000000
,
010000
000101
100100
000000
000000
001000
000000
000100
,
000000
000001
000100
100001
000000
000010
001000
000000
,
000001
000101
011000
100001
,
001000
000001
001000
010000
000001
000001
001000
000000
,
100000
000100
100000
000010
100000
000001
100000
000000
,
000000
000001
000000
001000
000000
100000
000000
000100
,
000001
001000
000010
100000
000001
010000
000001
000000
,
000000
000100
000000
100001
000000
001000
000000
100001
,
010000
000100
100000
000010
100000
000001
100000
000000
,
000000
000001
000000
001000
000000
100000
000000
000100
,
000001
001000
000010
100000
000001
010000
000001
000000
,
000000
000010
000000
000010
000000
000010
000000
000010
,
000100
000100
100001
100000
100100
100000
101000
001001
,
000010
100000
001000
000000
000000
000000
001000
000000
,
000100
000001
000001
000100
001000
010000
000000
000000
,
001000
000001
000001
100000
001000
000000
000000
000000
,
000100
000100
100001
100000
010100
100000
100010
001001
,
000001
100000
001000
000000
000000
010000
001000
000000
,
100000
101000
100100
001010
,
001000
001000
000001
000001
100000
100000
001000
000000
,
100001
000001
001001
001000
001100
000100
100010
000000
,
000000
000001
000000
100000
000000
000001
100000
001000
,
100001
000000
010100
000100
001100
001000
001001
000000
,
000000
100000
000000
000001
000000
100000
000010
001000
,
100001
000000
001001
001000
001010
000100
100100
000000
,
000000
000100
000000
001000
000000
000001
100000
001000
,
100001
100000
100100
000100
001010
001000
001001
000000
,
100100
101000
100100
110000
000110
001001
100001
000000
;

//---------------dance-double - ----------------
#NOTES:
     dance-double:
     :
     Challenge:
     12:
     0.372,0.410,0.253,0.242,0.187,192.000,23.000,22.000,232.000,0.000,0.000,0.372,0.410,0.253,0.242,0.187,192.000,23.000,22.000,232.000,0.000,0.000:
00000000
00000000
00000000
00000000
,
00000000
00000000
00000000
00000000
,
00000000
00000000
00000000
00000000
,
00000000
00000000
00000000
00000000
,
00000000
00000000
00000000
00000000
,
00000000
00000000
00000000
00000000
,
00000000
00000000
00000000
00000000
,
00001000
00010000
00000000
00000010
00000000
00010000
00000000
00001000
00000000
00000000
00000000
00000000
MMMMMMMM
00000000
00000000
00000000
,
00010000
00001000
00000000
00010000
00000000
00000010
00000000
00000100
,
00001000
00010000
00000000
00001000
00000000
00010000
00000000
00100000
,
10000000
01000000
00000000
00010000
00000000
00001000
00000000
00000010
,
00001001
MMMMMMMM
00000110
00000000
00001100
MMMMMMMM
00011000
00000000
,
00002000
00100000
00000000
00100000
00000000
00010000
00003000
00010000
,
00000200
00000010
00000000
00000010
00000000
00010000
00000300
00010000
,
00002000
01000000
00000000
01000000
00000000
00100000
00003000
00100000
,
00020000
00001000
00000000
00001000
00000000
00100000
00030000
00100000
,
00002000
01000000
00000000
01000000
00000000
00010000
00003000
00010000
,
00000020
00000100
00000000
00000100
00000000
00010000
00000030
00010000
,
00002000
01000000
00000000
01000000
00000000
00100000
00003000
00100000
,
00110000
MMMMMMMM
01100000
00000000
01010000
MMMMMMMM
00011000
00000000
,
00000000
00000000
00002000
00000000
00000000
00000000
00000000
00000000
00003010
00000001
00000010
00000001
00000010
00000001
00000000
00000000
,
MMMMMMMM
00000010
MMMMMMMM
00100000
MMMMMMMM
00000010
00010000
00001000
,
00000000
00000000
00000000
00000000
20000000
00000000
00000000
00000000
30100000
01000000
00100000
01000000
00100000
01000000
00000000
00000000
,
01010000
MMMMMMMM
00011000
00000000
00001100
MMMMMMMM
00011000
00000000
,
00000000
00000000
00000000
00000000
02000000
00000000
00000000
00000000
03010000
00100000
00010000
00100000
00010000
00100000
00000000
00000000
,
MMMMMMMM
00000000
00100000
00000000
MMMMMMMM
00000000
00000010
00000000
MMMMMMMM
00000000
00100000
00001000
00000000
00010000
00000000
00000000
,
00000000
00000000
00000000
00000000
00000020
00000000
00000000
00000000
00000130
00000001
00000100
00000001
00000100
00000001
00000000
00000000
,
MMMMMMMM
MMMMMMMM
MMMMMMMM
MMMMMMMM
,
00020000
00000010
00000000
00000010
00000000
00001000
00030000
00001000
,
02000000
00100000
00000000
00100000
00000000
00001000
03000000
00001000
,
00020000
00000100
00000000
00000100
00000000
00000010
00030000
00000010
,
00002000
00010000
00000000
00010000
00000000
00000010
00003000
00000010
,
00020000
00000100
00000000
00000100
00000000
00001000
00030000
00001000
,
00200000
01000000
00000000
01000000
00000000
00001000
00300000
00001000
,
00020000
00000100
00000000
00000100
00000000
00000010
00030000
00000010
,
00001010
MMMMMMMM
00000110
00000000
00001100
MMMMMMMM
00011000
00000000
,
00000000
00000000
00020000
00000000
00000000
00000000
00000000
00000000
00130000
10000000
00100000
10000000
00100000
10000000
00000000
00000000
,
MMMMMMMM
00100000
MMMMMMMM
00000010
MMMMMMMM
00100000
00001000
00010000
,
00000000
00000000
00000000
00000000
00000002
00000000
00000000
00000000
00000013
00000100
00000010
00000100
00000010
00000100
00000000
00000000
,
00001100
MMMMMMMM
00011000
00000000
01010000
MMMMMMMM
00011000
00000000
,
00000000
00000000
00000000
00000000
00000200
00000000
00000000
00000000
00001300
00000010
00001000
00000010
00001000
00000010
00000000
00000000
,
MMMMMMMM
00000000
00000010
00000000
MMMMMMMM
00000000
00100000
00000000
MMMMMMMM
00000000
00000010
00010000
00000000
00001000
00000000
00000000
,
00000000
00000000
00000000
00000000
00200000
00000000
00000000
00000000
01300000
10000000
01000000
10000000
01000000
10000000
00000000
00000000
,
01100000
00000000
MMMMMMMM
00000000
00110000
00000000
MMMMMMMM
00000000
00011000
00000000
00000000
00001000
00010000
00001000
00000000
00000000
;

//---------------dance-single - ----------------
#NOTES:
     dance-single:
     :
     Edit:
     13:
     0.548,0.530,0.066,0.121,0.709,332.000,6.000,11.000,0.000,0.000,0.000,0.548,0.530,0.066,0.121,0.709,332.000,6.000,11.000,0.000,0.000,0.000: // measure 0
0000
0000
0000
0000
,  // measure 1
0000
0000
0000
0000
,  // measure 2
0000
0000
0000
0000
,  // measure 3
0000
0000
0000
0000
,  // measure 4
0000
0000
0000
0000
,  // measure 5
0000
0000
0000
0000
,  // measure 6
0000
0000
0000
0000
,  // measure 7
0010
0001
0000
0100
0000
1000
0000
0200
0000
0000
0010
0000
1300
0000
0010
0000
,  // measure 8
0001
0000
0100
0000
1000
0010
0000
0010
0100
0000
0001
0000
1000
0000
0001
0000
,  // measure 9
1000
0100
0000
1000
0000
0000
0010
0000
0000
0000
0100
0100
0001
0000
0100
0000
,  // measure 10
2000
0000
0000
0000
3001
0000
0010
0000
1000
0000
0100
0000
0000
0001
0000
0000
,  // measure 11
0010
1000
0000
0001
0000
0100
0000
1000
0001
0000
1000
0000
0100
0000
0010
0000
,  // measure 12
0100
0000
0001
0000
0010
0001
0000
0010
0100
0000
0001
0000
1000
0000
0100
0000
,  // measure 13
0001
0000
1000
0001
0000
0000
0001
1000
0000
0100
0001
0100
0010
0000
1000
0000
,  // measure 14
0100
0000
0001
0000
0100
0000
1000
0000
0001
0000
0010
0000
0000
0100
0000
0000
,  // measure 15
0010
0001
0000
1000
0000
0100
0000
0010
0000
0001
1000
0001
0010
0100
1000
0000
,  // measure 16
0001
0000
0100
0001
1000
0001
0000
0100
0010
0000
0001
0000
0010
0000
0100
0000
,  // measure 17
1000
0100
0000
1000
0000
0000
0001
0000
0010
0000
0100
0100
0001
0000
1000
0000
,  // measure 18
0001
0000
0100
0010
0001
0000
0100
0000
1000
0000
0010
0000
0000
0001
0000
0000
,  // measure 19
0010
1000
0000
0100
0000
1000
0000
0100
0000
0001
0010
0100
1000
0001
0000
0000
,  // measure 20
0010
0000
2000
0000
0001
0000
0000
0000
3010
0100
0001
0100
0010
1000
0000
0000
,  // measure 21
0100
0011
0000
1010
0000
1100
0000
0101
,  // measure 22
1000
0000
0001
0200
0001
0000
0000
0000
0310
1000
0100
0010
0001
0100
0000
0000
,  // measure 23
0100
0010
0000
1000
0000
0010
0000
0100
0000
0001
0000
0100
0010
1000
0001
0000
,  // measure 24
0100
0010
0100
0010
0200
0000
0000
0000
0310
0001
0010
0100
1000
0100
0000
0000
,  // measure 25
0100
0000
1100
0000
0000
0000
0101
0000
0000
0000
0001
1000
0000
0001
0000
0000
,  // measure 26
0010
0000
0100
0002
0100
0000
0000
0000
0103
0010
1000
0100
0010
0001
0000
0000
,  // measure 27
0000
0000
0100
0001
0000
0100
0010
0000
0000
0000
0010
1000
0000
0010
0100
0000
,  // measure 28
1000
0100
1000
0100
0010
0000
1000
0000
0001
0000
0010
0000
0001
0000
0010
0000
,  // measure 29
0100
0000
0001
0000
0100
0000
1000
0000
0000
1000
0000
1000
0001
0000
0010
0000
,  // measure 30
1000
0001
1000
0001
0010
0000
0100
0000
0001
0000
1000
0000
0000
0001
0000
0000
,  // measure 31
0010
0001
0000
0100
0000
0001
0000
1000
0000
0001
0000
1000
0200
0000
0010
0000
,  // measure 32
0301
0000
0010
0000
0001
0100
0000
0001
0010
0000
0100
0000
1000
0000
0100
0000
,  // measure 33
0010
0000
0001
0010
0000
0000
1000
0000
0010
0000
0100
0100
0001
0000
0010
0000
,  // measure 34
1000
0000
0001
0000
0010
0000
0100
0000
1000
0000
0001
0000
0000
1000
0000
0000
,  // measure 35
0010
1000
0000
0001
0000
0010
0000
1000
0000
0100
0001
0010
0001
1000
0000
0000
,  // measure 36
0100
0000
0020
0000
0100
0000
0000
0000
1030
0010
0100
0001
0100
0010
0000
0000
,  // measure 37
0001
0001
1000
1000
0010
0010
0100
0100
,  // measure 38
0001
0000
1000
0020
1000
0000
0000
0000
0031
0010
0001
0010
0100
1000
0000
0000
,  // measure 39
0010
0100
0000
1000
0000
0001
0000
0010
0000
0001
1000
0100
1000
0010
0100
0000
,  // measure 40
0001
1000
0001
2000
0100
0000
0000
0000
3100
1000
0100
0001
0010
0001
0000
0000
,  // measure 41
1000
0000
1000
0000
0010
0000
0010
0000
0100
0000
0100
0001
0000
0001
1000
0000
,  // measure 42
1000
0000
0010
0002
0100
0000
0000
0000
1003
0001
0010
0100
1000
0001
0000
0000
,  // measure 43
0010
1000
0000
0100
0000
0001
0000
0010
0000
0001
1000
0001
1000
0001
0000
0000
;

//---------------dance-single - Blank----------------
#NOTES:
     dance-single:
     :
     Challenge:
     12:
     0.388,0.482,0.000,0.110,0.379,237.000,0.000,10.000,116.000,0.000,0.000,0.388,0.482,0.000,0.110,0.379,237.000,0.000,10.000,116.000,0.000,0.000:
0000
0000
0000
0000
,
0000
0000
0000
0000
,
0000
0000
0000
0000
,
0000
0000
0000
0000
,
0000
0000
0000
0000
,
0000
0000
0000
0000
,
0000
0000
0000
0000
,
0001
1000
0000
0010
0000
0100
0000
0001
0000
0000
0000
0000
0000
0000
0000
0000
,
MMMM
0001
0000
1000
0000
0100
0000
0010
,
MMMM
1000
0000
0001
0000
0100
0000
0010
,
MMMM
0001
0000
1000
0000
0001
0000
0100
,
0010
0100
0000
0001
0000
1000
0000
0100
0010
0000
0001
0000
1000
0000
0001
0000
,
MMMM
0010
1000
0100
0000
0010
0001
1000
,
MMMM
0010
0001
1000
0000
0001
1000
0100
,
MMMM
0001
0100
1000
0000
0100
0010
0100
,
MMMM
1000
0100
0010
0000
0001
0100
0010
,
MMMM
0001
0010
1000
0000
0010
0100
0010
,
MMMM
1000
0100
0001
0000
0100
0001
0100
,
MMMM
0001
1000
0010
0000
0100
0001
1000
,
0001
0010
0000
0100
0000
0010
0000
0001
0000
1000
0100
1000
0100
1000
0000
0000
,
0000
0000
0200
0000
0000
0000
0000
0000
0310
0001
0010
0001
0010
0001
0000
0000
,
0000
0010
MMMM
0100
MMMM
0010
0001
1000
,
0000
0000
0000
0000
0020
0000
0000
0000
1030
0100
1000
0100
1000
0100
0000
0000
,
0010
0100
0000
0010
0000
0001
0000
0010
0000
0100
0000
1000
0001
0010
0001
0020
,
0000
0000
0000
0000
0230
0000
0000
0000
1300
0001
1000
0001
1000
0001
0000
0000
,
0000
1000
MMMM
0100
MMMM
1000
0001
0100
,
0000
0000
0000
0000
0020
0000
0000
0000
0130
0001
0100
0001
0100
0001
0000
0000
,
MMMM
MMMM
MMMM
MMMM
,
MMMM
0100
0001
0010
0000
0100
1000
0001
,
MMMM
0100
1000
0001
0000
1000
0001
0010
,
MMMM
1000
0010
0001
0000
0010
0100
0010
,
MMMM
0001
0010
0100
0000
1000
0010
0100
,
MMMM
1000
0100
0001
0000
0100
0010
0100
,
MMMM
0001
0010
1000
0000
0010
1000
0010
,
MMMM
1000
0001
0100
0000
0010
1000
0001
,
1000
0100
0000
0010
0000
0100
0000
1000
0000
0001
0010
0001
0010
0001
0000
0000
,
0000
0000
0020
0000
0000
0000
0000
0000
0130
1000
0100
1000
0100
1000
0000
0000
,
0000
0100
MMMM
0010
MMMM
0100
1000
0001
,
0000
0000
0000
0000
0200
0000
0000
0000
0301
0010
0001
0010
0001
0010
0000
0000
,
0100
0010
0000
0100
0000
1000
0000
0100
0000
0010
0000
0001
1000
0100
1000
0200
,
0000
0000
0000
0000
0320
0000
0000
0000
0031
1000
0001
1000
0001
1000
0000
0000
,
0000
0001
MMMM
0010
MMMM
0001
1000
0010
,
0000
0000
0000
0000
0200
0000
0000
0000
0310
1000
0010
1000
0010
1000
0000
0000
,
0001
1000
0000
0100
0000
0010
0000
0001
0000
1000
0000
0010
0100
0010
0000
0000
;
