#VERSION:0.81;
#TITLE:London EVOLVED ver.B;
#SUBTITLE:;
#ARTIST:TAG underground;
#TITLETRANSLIT:;
#SUBTITLETRANSLIT:;
#ARTISTTRANSLIT:;
#GENRE:;
#ORIGIN:;
#CREDIT:;
#BANNER:London EVOLVED ver.B.png;
#BACKGROUND:London EVOLVED ver.B-bg.png;
#PREVIEWVID:;
#JACKET:London EVOLVED ver.B-jacket.png;
#CDIMAGE:;
#DISCIMAGE:;
#LYRICSPATH:;
#CDTITLE:./CDTITLES/DanceDanceRevolution II.png;
#MUSIC:London EVOLVED ver.B.ogg;
#OFFSET:0.000;
#SAMPLESTART:11.280;
#SAMPLELENGTH:15.000;
#SELECTABLE:YES;
#DISPLAYBPM:170.000:340.000;
#BPMS:0.000=169.990,
36.000=340.024,
228.000=170.012,
260.000=340.024,
324.000=169.811,
325.000=209.913,
341.000=420.060,
435.000=419.945;
#STOPS:324.000=2.473,
435.000=0.140;
#DELAYS:;
#WARPS:;
#TIMESIGNATURES:0.000=4=4;
#TICKCOUNTS:0.000=4;
#COMBOS:0.000=1;
#SPEEDS:0.000=1.000=0.000=0;
#SCROLLS:0.000=1.000;
#FAKES:;
#LABELS:0.000=Song Start;
#BGCHANGES:;
#KEYSOUNDS:;
#ATTACKS:
;

//---------------dance-single - ----------------
#NOTEDATA:;
#CHARTNAME:;
#STEPSTYPE:dance-single;
#DESCRIPTION:;
#CHARTSTYLE:;
#DIFFICULTY:Beginner;
#METER:5;
#RADARVALUES:0.225,0.314,0.134,0.045,0.000,156.000,15.000,5.000,0.000,0.000,0.000,0.000,0.000,0.225,0.314,0.134,0.045,0.000,156.000,15.000,5.000,0.000,0.000,0.000,0.000,0.000;
#CREDIT:;
#OFFSET:0.000;
#BPMS:0.000=169.990
,36.000=340.024
,228.000=170.012
,260.000=340.024
,324.000=169.811
,325.000=209.913
,341.000=420.060
,435.000=419.945
;
#STOPS:324.000=2.473
,435.000=0.140
;
#DELAYS:;
#WARPS:;
#TIMESIGNATURES:0.000=4=4
;
#TICKCOUNTS:0.000=4
;
#COMBOS:0.000=1
;
#SPEEDS:0.000=1.000=0.000=0
;
#SCROLLS:0.000=1.000
;
#FAKES:;
#LABELS:0.000=Song Start
;
#DISPLAYBPM:170.000:340.000;
#NOTES:
0000
0000
0000
0000
,
0000
0000
0000
0000
,
0000
0000
0000
0000
,
0000
0000
0000
0000
,
0000
0000
0000
0000
,
0000
0000
0000
0000
,
0000
0000
0000
0000
,
0001
0000
0001
0000
,
1000
0000
1000
0000
,
1001
0000
0000
0000
,
0010
0000
0000
0000
,
0100
0000
0000
0000
,
0001
0000
0000
0000
,
1000
0000
0000
0000
,
0001
0000
0000
0000
,
0010
0000
0000
0000
,
1000
0000
1000
0000
,
1000
0000
0000
0000
,
0001
0000
0000
0000
,
1000
0000
0000
0000
,
0001
0000
0000
0000
,
1000
0000
0001
0000
,
1000
0000
0001
0000
,
0010
0000
0010
0000
,
0010
0000
0000
0000
,
1001
0000
0000
0000
,
0000
0000
0000
0000
,
2000
0000
3000
0000
,
0002
0000
0003
0000
,
0001
0000
0000
0000
,
0100
0000
0000
0000
,
2000
0000
3000
0000
,
0001
0000
0001
0000
,
0001
0000
0000
0000
,
0010
0000
0000
0000
,
2000
0000
3000
0000
,
0002
0000
0003
0000
,
0001
0000
0000
0000
,
0100
0000
0000
0000
,
0010
0000
0010
0000
,
0100
0000
0000
0000
,
1001
0000
0000
0000
,
0000
0000
0000
0000
,
1000
0000
1000
0000
,
1000
0000
0000
0000
,
0001
0000
0000
0000
,
0100
0000
0000
0000
,
0010
0000
0000
0000
,
0001
0000
0001
0000
,
0001
0000
0000
0000
,
0010
0000
0000
0000
,
1000
0000
1000
0000
,
1000
0000
0000
0000
,
1001
0000
0000
0000
,
1001
0000
0000
0000
,
0010
0000
0010
0000
,
0010
0000
0010
0000
,
0001
0000
0001
0000
,
0100
0100
0100
0000
,
1000
0000
1000
0000
,
0100
0100
0100
0000
,
0010
0000
0010
0000
,
0001
0001
0001
0000
,
0010
0000
0010
0000
,
1000
1000
1000
1000
,
1000
0000
0000
0000
,
0001
0000
0000
0000
,
1000
0000
0000
0000
,
0100
0000
0000
0000
,
0001
0000
0000
0000
,
0010
0000
0000
0000
,
1000
0000
0000
0000
,
0010
0000
0000
0000
,
1000
0000
1000
0000
,
1000
0000
0000
0000
,
0001
0000
0001
0000
,
0001
0000
0000
0000
,
0010
0000
0000
0000
,
0010
0000
0000
0000
,
0100
0000
0100
0000
,
0100
0000
0100
0000
,
0100
0100
0000
0000
,
0000
0001
0000
0001
,
0000
1000
0000
0000
,
0000
0010
0000
0010
,
0000
0001
0000
0000
,
0000
0010
0000
0000
,
0000
0001
0000
0000
,
0000
1000
0000
0000
,
0000
0001
0000
0000
,
0000
0100
0000
0000
,
0000
0001
0000
0000
,
0000
1000
0000
0000
,
0000
1001
0000
0000
,
0000
0000
0000
1001
,
0000
0000
0000
0000
,
0000
0010
0000
0010
,
0000
1001
0000
0000
,
0000
0000
0000
1001
,
0000
0000
0000
0000
,
0000
0100
0000
0100
,
0000
1001
0000
0000
,
0000
0000
0000
1001
,
0000
0000
0000
0000
,
0000
0010
0000
0010
,
0000
1001
0000
0000
,
0000
0000
0000
1001
,
0000
0000
0000
0000
,
0000
0110
0000
0000
,
0001
0000
0000
0000
,
0001
0000
0000
0000
,
1000
0000
0000
0000
,
0001
0000
0000
0000
,
0010
0000
0000
0000
,
1000
0000
0000
0000
,
0100
0000
0000
0000
,
0001
0000
0000
0000
,
1000
0000
0000
0000
,
1000
0000
0000
0000
,
0001
0000
0000
0000
,
1000
0000
0000
0000
,
0010
0000
0000
0000
,
0001
0000
0000
0000
,
0100
0000
0000
0000
,
1000
0000
0000
0000
,
1001
0000
0000
0000
,
0000
0000
0000
0000
,
0000
0000
0000
0000
,
0000
0000
0100
0000
,
0100
0000
0000
0000
,
0000
0000
0000
0000
,
0000
0000
0000
0000
,
0000
0000
0001
0000
,
0001
0000
0000
0000
,
0000
0000
0000
0000
,
0000
0000
0000
0000
,
0000
0000
1000
0000
,
1000
0000
0000
0000
,
0000
0000
0000
0000
,
0000
0000
0000
0000
,
0000
0000
0010
0000
,
;

//---------------dance-single - ----------------
#NOTEDATA:;
#CHARTNAME:;
#STEPSTYPE:dance-single;
#DESCRIPTION:;
#CHARTSTYLE:;
#DIFFICULTY:Easy;
#METER:8;
#RADARVALUES:0.389,0.565,0.134,0.080,0.000,281.000,15.000,9.000,0.000,0.000,0.000,0.000,0.000,0.389,0.565,0.134,0.080,0.000,281.000,15.000,9.000,0.000,0.000,0.000,0.000,0.000;
#CREDIT:;
#OFFSET:0.000;
#BPMS:0.000=169.990
,36.000=340.024
,228.000=170.012
,260.000=340.024
,324.000=169.811
,325.000=209.913
,341.000=420.060
,435.000=419.945
;
#STOPS:324.000=2.473
,435.000=0.140
;
#DELAYS:;
#WARPS:;
#TIMESIGNATURES:0.000=4=4
;
#TICKCOUNTS:0.000=4
;
#COMBOS:0.000=1
;
#SPEEDS:0.000=1.000=0.000=0
;
#SCROLLS:0.000=1.000
;
#FAKES:;
#LABELS:0.000=Song Start
;
#DISPLAYBPM:170.000:340.000;
#NOTES:
0000
0000
0000
0000
,
0000
0000
0000
0000
,
0000
0000
0000
0000
,
0000
0000
0000
0000
,
0000
0000
0000
0000
,
0000
0000
0000
0000
,
0000
0000
0000
0000
,
0010
0000
0100
0000
,
1000
0001
0010
0100
,
1001
0000
0000
0000
,
0001
0000
1000
0000
,
0100
0000
0000
0000
,
1000
0000
0001
0000
,
0100
0000
0000
0000
,
0001
0000
0010
0000
,
1000
0000
0001
0000
,
1000
0000
0010
0000
,
0001
0000
0001
0000
,
1000
0000
1000
0000
,
0010
0000
0010
0000
,
0100
0000
0100
0000
,
0001
0000
1000
0000
,
0001
0000
1000
0000
,
0001
1000
0001
1000
,
0001
0000
0100
0000
,
0010
0000
0000
0000
,
0100
0010
0100
0000
,
2000
0000
3100
0000
,
0002
0000
0103
0000
,
0010
0000
0000
0000
,
0100
0010
0100
0000
,
2000
0000
3100
0000
,
0011
0000
0011
0000
,
0100
0000
0000
0000
,
0010
0100
0010
0000
,
2000
0000
3100
0000
,
0002
0000
0103
0000
,
0010
0000
0000
0000
,
0100
0010
0100
0000
,
1000
1000
1000
0000
,
0001
0100
0001
0000
,
1000
0000
0000
0010
,
0100
0010
0100
0000
,
1000
0000
1000
0000
,
0001
0000
1000
0000
,
0001
0000
0000
0010
,
0100
0010
0100
0000
,
1000
0000
1000
0000
,
0011
0000
0011
0000
,
1000
0000
0000
0100
,
0010
0100
0010
0000
,
1000
0000
1000
0000
,
0001
0000
0100
0000
,
0010
0000
1010
0000
,
0100
0000
0101
0000
,
1000
0000
1000
0000
,
0001
0000
1001
0000
,
2000
0001
0100
3001
,
0010
0001
1000
1000
,
0002
1000
0100
1003
,
0010
1000
0001
0001
,
0020
0100
0001
0130
,
1000
0010
0100
0100
,
0020
0100
1000
0130
,
0001
0001
1000
1000
,
0001
0000
0100
0000
,
1000
0000
0010
0000
,
0100
0000
0001
0000
,
1000
0000
1000
0000
,
0001
0000
0010
0000
,
1000
0000
0100
0000
,
0010
0000
0001
0000
,
1000
0000
0001
0100
,
0001
0000
0100
0000
,
1000
0000
0010
0000
,
0100
0000
0001
0000
,
1000
0000
1000
0010
,
1000
0000
0010
0000
,
0001
0000
0100
0000
,
0010
0001
0010
0001
,
1000
0100
1000
0100
,
0001
1000
0001
0100
,
0000
0100
0000
0010
,
0010
0001
1000
0100
,
0000
0010
0000
0100
,
0100
1000
0000
0001
,
0000
1000
0000
0001
,
0000
0100
0000
0001
,
0000
0100
0000
0100
,
0000
0010
0000
1000
,
0000
0010
0000
1000
,
0000
0001
0000
1000
,
0000
0100
0000
1000
,
0000
1001
0000
0000
,
0100
0000
0000
1001
,
0000
0000
1000
0000
,
0000
0001
0000
0001
,
0000
0110
0000
0000
,
1000
0000
0000
0001
,
0000
0000
0100
0000
,
0000
0010
0000
0010
,
0000
1001
0000
0000
,
0010
0000
0000
1001
,
0000
0000
1000
0000
,
0000
0001
0000
0001
,
0000
0110
0000
0000
,
1000
0000
0000
0001
,
0000
0000
0010
0000
,
0000
0100
0000
0100
,
1000
0000
0001
0000
,
1000
0000
0100
0000
,
1000
0000
0100
0000
,
0010
0000
0001
0000
,
0001
0000
1000
0000
,
0001
0000
0100
0000
,
0001
0000
0100
0000
,
0010
0000
1000
0000
,
1000
0000
0100
0000
,
1000
0000
0001
0000
,
1000
0000
0001
0000
,
0100
0000
0010
0000
,
0010
0000
0100
0000
,
0001
0000
1000
0000
,
0001
0000
1000
0000
,
0100
0000
1000
0000
,
1001
0000
0000
0000
,
0001
0000
0000
0000
,
0010
0000
0000
0000
,
0001
0000
0001
0000
,
0100
0000
0000
0000
,
1000
0000
0000
0000
,
0010
0000
0000
0000
,
1000
0000
1000
0000
,
0001
0000
0000
0000
,
0010
0000
0000
0000
,
0100
0000
0000
0000
,
0001
0000
0001
0000
,
1000
0000
0000
0000
,
0010
0000
0000
0000
,
0100
0000
0000
0000
,
1000
0000
1000
0000
,
;

//---------------dance-single - ----------------
#NOTEDATA:;
#CHARTNAME:;
#STEPSTYPE:dance-single;
#DESCRIPTION:;
#CHARTSTYLE:;
#DIFFICULTY:Medium;
#METER:11;
#RADARVALUES:0.528,0.754,0.268,0.071,0.000,376.000,30.000,8.000,0.000,0.000,0.000,0.000,0.000,0.528,0.754,0.268,0.071,0.000,376.000,30.000,8.000,0.000,0.000,0.000,0.000,0.000;
#CREDIT:;
#OFFSET:0.000;
#BPMS:0.000=169.990
,36.000=340.024
,228.000=170.012
,260.000=340.024
,324.000=169.811
,325.000=209.913
,341.000=420.060
,435.000=419.945
;
#STOPS:324.000=2.473
,435.000=0.140
;
#DELAYS:;
#WARPS:;
#TIMESIGNATURES:0.000=4=4
;
#TICKCOUNTS:0.000=4
;
#COMBOS:0.000=1
;
#SPEEDS:0.000=1.000=0.000=0
;
#SCROLLS:0.000=1.000
;
#FAKES:;
#LABELS:0.000=Song Start
;
#DISPLAYBPM:170.000:340.000;
#NOTES:
0000
0000
0000
0000
,
0000
0000
0000
0000
,
0000
0000
0000
0000
,
0000
0000
0000
0000
,
0000
0000
0000
0000
,
0000
0000
0000
0000
,
0000
0000
0000
0000
,
0001
0010
1000
0100
,
0001
1000
0010
1000
0001
0000
0110
0000
,
1001
0000
0100
0000
,
0001
0000
1000
0100
,
1000
0000
1001
0000
,
0010
0000
0001
0100
,
0001
0000
1010
0000
,
0001
0000
0010
0100
,
0010
0000
1100
0000
,
0001
0000
0100
0010
,
0100
0000
0100
0001
,
0100
0000
0100
1000
,
0100
0000
0100
0010
,
0100
0000
0100
0001
,
1000
0001
1000
0001
,
0010
0001
0010
0001
,
1000
0100
1000
0100
,
1000
0000
1001
0000
,
0010
0000
0000
1000
0000
0000
0100
0000
,
0000
0001
0100
0000
,
1000
1000
0010
0000
,
0001
0001
0100
0000
,
0010
0000
0000
0001
0000
0000
1000
0000
,
0000
0100
0010
0000
,
1000
0001
0000
1001
,
0100
0000
0000
0010
0000
0000
0100
0000
,
0010
0000
0000
1000
0000
0000
0100
0000
,
0000
0001
0100
0000
,
1000
1000
0010
0000
,
0001
0001
0100
0000
,
0010
0000
0000
0001
0000
0000
1000
0000
,
0000
0100
0010
0000
,
1000
1000
0001
0100
,
0110
0000
1001
0000
,
0010
0000
0000
1000
0000
0000
0100
0000
,
0000
0001
0100
0001
,
1000
0100
1000
0000
,
0110
0000
0001
0000
,
0010
0000
0000
0001
0000
0000
1000
0000
,
0000
0100
0010
0100
,
1001
0000
1010
0000
,
0100
0000
0000
0001
0000
0000
0100
0000
,
0010
0000
0000
1000
0000
0000
0100
0000
,
0000
0001
0100
0001
,
1000
0100
1000
0000
,
0110
0000
0001
0000
,
0010
0000
0000
0001
0000
0000
1000
0000
,
0010
0000
0000
1000
0000
0000
0001
0000
,
1001
0000
1100
0000
,
0101
0000
1010
0000
,
0100
0001
0100
0001
0010
0000
0100
0000
,
1000
0010
1000
0010
0100
0000
0010
0000
,
0001
0010
0001
0010
1000
0000
0001
0000
,
1000
0100
1000
0100
0001
0000
1000
0000
,
0001
0100
0010
0100
0001
0000
0010
0000
,
1000
0100
0001
0100
1000
0000
0010
0000
,
0100
0001
1000
0001
0100
0000
0010
0000
,
1000
0100
0010
0000
1000
0100
0010
0000
,
1000
0001
0100
0001
,
0100
0010
0100
0001
,
1000
0000
1100
0000
,
0001
0000
0101
0000
,
0010
1000
0001
1000
,
0001
0010
0001
1000
,
0100
0000
1100
0000
,
0010
0000
0001
0100
,
0001
1000
0100
1000
,
0100
0010
0100
1000
,
0001
0100
0101
0000
,
0010
0100
0110
0000
,
1000
0100
1000
0001
,
0100
0001
0100
0010
,
0100
0001
1000
0001
,
0100
0010
1000
0010
,
0100
0001
0001
0010
,
0001
1000
1000
0010
,
1000
0000
0001
1000
0001
0000
0100
0000
,
0100
0000
0010
0000
0000
0000
1000
0001
,
1000
0001
0000
0100
,
0000
0001
0000
0010
,
0001
1000
0000
0100
,
0000
1000
0000
0010
,
1000
0001
0000
0010
,
0000
1000
0000
0100
,
0000
0001
0100
0001
,
0100
0010
0100
0001
,
0100
0001
0000
0000
,
1010
0000
0000
0100
,
0000
0000
1010
0000
,
0000
0001
0100
0001
,
0000
1000
0000
0000
,
0011
0000
0000
0100
,
0000
0000
0011
0000
,
0000
1000
0100
1000
,
0100
1000
0000
0000
,
0101
0000
0000
0010
,
0000
0000
0101
0000
,
0000
1000
0010
1000
,
0000
0001
0000
0000
,
1100
0000
0000
0010
,
0000
0000
1100
0000
,
0000
0001
0010
0001
,
1000
0000
0010
0000
,
0100
0000
0001
0000
,
1000
0000
0100
0000
,
0100
1000
0010
1000
,
0001
0000
0010
0000
,
0100
0000
1000
0000
,
0001
0000
0100
0000
,
0100
0001
0010
0001
,
1000
0000
0010
0000
,
0100
0000
0001
0000
,
1000
0000
0100
0000
,
0010
0001
1000
0000
,
0001
0000
0010
0000
,
0100
0000
1000
0000
,
0010
0100
0010
0100
,
0010
1000
0010
1000
,
0002
0000
0000
0000
,
1000
0000
0000
0000
,
0100
0000
0000
0000
,
0010
0000
0100
0003
,
2000
0000
0000
0000
,
0001
0000
0000
0000
,
0100
0000
0000
0000
,
0010
0000
0100
3000
,
0002
0000
0000
0000
,
0020
0000
0000
0003
,
0200
0000
0000
0030
,
1000
0000
0001
0300
,
2000
0000
0000
0000
,
0020
0000
0000
3000
,
0200
0000
0000
0030
,
0001
0000
1000
0300
,
;

//---------------dance-single - ----------------
#NOTEDATA:;
#CHARTNAME:;
#STEPSTYPE:dance-single;
#DESCRIPTION:;
#CHARTSTYLE:;
#DIFFICULTY:Hard;
#METER:14;
#RADARVALUES:0.691,0.880,0.250,0.313,0.004,479.000,28.000,35.000,0.000,0.000,0.000,0.000,0.000,0.691,0.880,0.250,0.313,0.004,479.000,28.000,35.000,0.000,0.000,0.000,0.000,0.000;
#CREDIT:;
#OFFSET:0.000;
#BPMS:0.000=169.990
,36.000=340.024
,228.000=170.012
,260.000=340.024
,324.000=169.811
,325.000=209.913
,341.000=420.060
,435.000=419.945
;
#STOPS:324.000=2.473
,435.000=0.140
;
#DELAYS:;
#WARPS:;
#TIMESIGNATURES:0.000=4=4
;
#TICKCOUNTS:0.000=4
;
#COMBOS:0.000=1
;
#SPEEDS:0.000=1.000=0.000=0
;
#SCROLLS:0.000=1.000
;
#FAKES:;
#LABELS:0.000=Song Start
;
#DISPLAYBPM:170.000:340.000;
#NOTES:
0000
0000
0000
0000
,
0000
0000
0000
0000
,
0000
0000
0000
0000
,
0000
0000
0000
0000
,
0000
0000
0000
0000
,
0000
0001
0000
0010
0000
0001
0000
1000
,
0000
0010
0000
0100
0000
0010
0000
1000
,
0010
0001
1000
0001
0010
0001
1000
0100
,
0010
0000
0100
0000
0010
0000
0001
0000
1000
0000
0000
1010
0000
0000
0100
0000
,
0001
1000
0100
0000
,
1000
0100
0010
0000
,
1000
0010
1000
0000
,
0010
0100
0001
0000
,
0001
1000
0010
0000
,
0100
0001
1000
0000
,
0100
1000
0001
0000
,
1000
0010
1000
0001
,
1000
0000
0010
1000
,
0100
0000
0010
0001
,
0100
0000
0010
1000
,
0100
0000
0010
0001
,
0100
0010
0100
0001
,
1000
0001
1000
0100
,
0010
0100
1000
0001
,
1000
0000
0000
1010
0000
0000
0101
0000
,
0001
0000
0000
1000
0000
0000
0010
0000
,
0000
1001
0010
0001
,
1000
0100
1000
1000
,
0001
0100
0001
0001
,
1000
0000
0000
0001
0000
0000
0010
0000
,
0000
1001
0010
1000
,
1000
0100
1000
1001
,
0100
0000
0000
0001
0000
0000
0010
0000
,
0100
0000
0000
1000
0000
0000
0001
0000
,
0000
1001
0010
0100
,
1000
0100
1000
1000
,
0001
0100
0001
0001
,
0100
0000
0000
0001
0000
0000
1000
0000
,
0000
1001
0010
0100
,
0010
0001
1000
1001
,
0001
0000
0000
0100
0000
0000
0010
0000
,
0001
0000
0000
1000
0000
0000
0010
0000
,
0000
0100
0010
1000
,
0100
0001
0100
0010
,
0001
0000
1000
0001
0100
0000
0010
0000
,
1000
0000
0000
0001
0000
0000
0010
0000
,
0000
0001
0100
1000
,
0001
0010
1000
0100
,
0001
0000
0000
0110
0000
0000
1000
0000
,
0001
0000
0000
1000
0000
0000
0010
0000
,
0000
0100
0010
1000
,
0100
0001
0100
0010
,
0001
0000
1000
0001
0100
0000
0010
0000
,
1000
0000
0000
0101
0000
0000
0010
0000
,
0001
0000
0000
1100
0000
0000
0010
0000
,
0100
0000
0001
1000
0001
0000
0010
0000
,
0001
0100
1000
0000
,
0010
1000
0010
0100
0001
1000
0100
0000
,
0010
1000
0001
0100
2000
0000
3100
0000
,
0001
1000
0100
1000
0010
0100
0001
0000
,
1000
0001
0100
0001
0020
0000
1030
0000
,
0010
0001
0010
0100
1000
0001
0100
0000
,
0010
0001
1000
0100
0002
0000
0103
0000
,
1000
0001
0100
0001
0010
0100
1000
0000
,
0001
1000
0010
0100
0010
0001
0010
0000
,
1000
0010
1000
0100
,
1000
0000
0001
0000
0100
0010
0100
0000
,
0001
0010
0001
0100
,
0001
0000
1000
0000
0100
0010
0100
0000
,
1000
0001
0100
0010
,
1000
0000
0100
0000
0001
0100
0001
0000
,
1000
0001
0010
0100
,
1000
0000
0000
0010
0100
0000
0001
0000
,
0010
1000
0010
0001
,
0100
0000
0010
0000
0100
0001
0100
0000
,
0010
1000
0010
0100
,
1000
0000
0010
1000
0010
0000
1000
0100
,
1000
0001
0010
1000
,
0010
0000
0001
0000
1000
0010
1000
0000
,
0001
1000
0100
0001
,
1000
0010
0001
0100
,
1000
0001
1000
0010
,
1000
0000
0001
0000
0100
0000
1000
0100
,
0001
0000
0100
0100
0000
0000
0000
0000
,
0000
0000
0000
0000
0000
0000
0000
0100
,
0001
1000
0100
1000
,
0100
0010
0001
1000
,
0001
0100
0010
0100
,
0010
1000
0100
0010
,
0100
1000
0001
0010
,
0001
1000
0010
0100
,
0001
1000
0100
1000
,
0001
0100
0010
1000
,
0100
1000
0000
0000
,
0011
0000
0000
1100
,
0000
0000
1010
0000
,
0000
1001
0000
0110
,
0000
0001
0000
0000
,
1010
0000
0000
0101
,
0000
0000
0011
0000
,
0000
1000
0100
0010
,
0100
1000
0000
0000
,
0011
0000
0000
1100
,
0000
0000
1010
0000
,
0000
1001
0000
0110
,
0000
0001
0000
0000
,
1010
0000
0000
0101
,
0000
0000
0011
0000
,
0000
1000
0100
0001
,
1000
0100
0100
1000
,
0010
0010
0100
0001
,
0001
0010
0100
0100
,
1000
0010
1000
0010
,
0100
0001
0001
0100
,
1000
1000
0100
0010
,
0010
1000
0001
0001
,
0010
0100
0010
0100
,
1000
0100
0100
1000
,
0010
0010
0100
0001
,
0001
0010
0100
0100
,
1000
0010
1000
0010
,
0100
0001
1000
0001
,
1000
0100
1000
0010
,
0100
0010
0100
0001
,
0010
0001
0010
0100
,
2000
0000
0020
3000
,
0200
0030
0002
0300
,
2000
0003
0200
3000
,
0020
0300
2000
0030
,
0020
3000
0002
0030
,
2000
0003
0002
3000
,
0200
0003
0020
0300
,
2000
0030
0002
3000
,
0020
0003
0200
0030
,
2000
0300
0002
3000
,
2000
0003
0020
3000
,
0002
0030
2000
0003
,
0200
3000
0002
0300
,
0020
0003
2000
0030
,
0200
3000
0020
0300
,
0002
0030
0200
0303
;

//---------------dance-single - ----------------
#NOTEDATA:;
#CHARTNAME:;
#STEPSTYPE:dance-single;
#DESCRIPTION:;
#CHARTSTYLE:;
#DIFFICULTY:Challenge;
#METER:17;
#RADARVALUES:1.000,1.000,0.598,0.634,0.107,652.000,67.000,71.000,0.000,0.000,0.000,0.000,0.000,1.000,1.000,0.598,0.634,0.107,652.000,67.000,71.000,0.000,0.000,0.000,0.000,0.000;
#CREDIT:;
#OFFSET:0.000;
#BPMS:0.000=169.990
,36.000=340.024
,228.000=170.012
,260.000=340.024
,324.000=169.811
,325.000=209.913
,341.000=420.060
,435.000=419.945
;
#STOPS:324.000=2.473
,435.000=0.140
;
#DELAYS:;
#WARPS:;
#TIMESIGNATURES:0.000=4=4
;
#TICKCOUNTS:0.000=4
;
#COMBOS:0.000=1
;
#SPEEDS:0.000=1.000=0.000=0
;
#SCROLLS:0.000=1.000
;
#FAKES:;
#LABELS:0.000=Song Start
;
#DISPLAYBPM:170.000:340.000;
#NOTES:
0000
0000
0000
0000
,
0000
0000
0000
0000
,
0000
0000
0000
0000
,
0000
0000
0000
0000
,
0000
0000
0000
0000
0000
0000
0000
0010
,
1000
0100
0000
0010
0001
0100
0000
0010
,
1000
0100
0000
0010
0001
0100
0000
0010
,
1000
0100
0001
0100
0010
0001
0100
0010
,
1000
0000
0100
0000
1000
0000
0001
0000
1001
0000
0000
0011
0000
0000
1100
0000
,
1000
0001
0100
0000
0010
0000
1000
0000
,
0001
0010
0100
0000
0010
0000
0001
0000
,
1000
0001
0100
0000
0010
0000
0100
0000
,
0001
1000
0100
0000
1000
0000
0001
0000
,
0010
0100
1000
0000
0010
0000
0100
0000
,
0001
1000
0010
0000
0100
0000
0001
0000
,
1000
0100
0010
0000
0001
0000
0100
0000
,
0010
0000
0100
0001
0000
1000
0100
0010
,
0001
0000
1000
0100
0000
0010
0001
0100
,
0010
0000
1000
0001
0000
0010
0100
1000
,
0001
0000
0100
0010
0000
0100
0001
1000
,
0100
0000
0001
0100
0000
1000
0001
0010
,
0100
1000
0100
1000
0001
0100
0001
0100
,
0010
1000
0010
1000
0001
0010
0001
0010
,
0100
1000
0010
0100
0001
0010
0100
1000
,
0110
0000
0000
0011
0000
0000
1000
0000
,
1001
0000
0010
1000
0001
0000
0011
0000
,
1001
0000
1100
0000
0100
0000
0010
0001
,
1000
0000
0001
0100
0001
0000
0100
0001
,
0010
0000
0001
1000
0010
0000
0100
0000
,
0110
0000
0001
0100
0010
0000
1010
0000
,
0110
0000
0101
0000
1000
0001
0100
0001
,
1000
0000
0000
1001
,
0110
0000
0010
0100
0010
0000
0001
0000
,
0101
0000
0001
1000
0100
0000
0110
0000
,
0011
0000
1001
0000
1000
0000
0001
1000
,
0100
0000
0010
0001
0100
0000
0010
1000
,
0100
0000
0010
0100
0010
0000
0001
0000
,
1100
0000
1000
0001
0010
0000
0011
0000
,
0110
0000
1100
0000
0010
0000
0100
1000
,
0010
0000
0100
0001
1000
0100
0010
0001
,
1000
0000
0110
0000
,
1000
0000
0001
0010
0100
0000
1100
0000
,
1001
0101
0110
1010
,
1100
0110
1001
0000
,
0100
0001
1000
0100
0010
0001
0100
0010
,
1000
0000
0001
1000
0001
0000
1010
0000
,
0110
0101
1100
0110
,
0011
0000
0000
0000
0000
0000
0100
1000
,
0001
0000
0100
0001
1000
0100
1000
0100
,
0010
0000
0001
1000
0010
0000
1010
0000
,
1001
0101
0011
1100
,
0101
0110
1001
0000
,
0100
1000
0010
1000
0100
0010
0001
0100
,
0010
0000
1000
0100
1000
0000
0110
0000
,
0010
0000
0001
0100
0001
0000
0110
0000
,
0010
0000
1000
0010
1000
0001
0010
0001
,
1000
0000
0110
0000
,
0001
0000
0010
0001
0000
1000
0100
0000
0010
0000
0100
0000
0010
0000
0000
0000
,
0001
0000
0100
0010
0000
0100
0001
1000
0100
0000
0010
0000
0001
0000
0000
0000
,
1000
0000
0010
1000
0000
0001
0100
0000
0010
0000
0100
0000
0010
0000
0000
0000
,
1000
0000
0100
0010
0000
0100
1000
0001
0100
0000
0010
0000
1000
0000
0000
0000
,
0010
0000
0100
0001
0000
0010
0001
0000
1000
0000
0010
0000
0100
0000
0000
0000
,
0001
0000
1000
0100
0000
0010
0100
1000
0001
0000
0100
0000
0010
0000
0000
0000
,
1000
0000
0001
0100
0000
0001
1000
0000
0100
0000
0010
0000
0001
0000
1000
0000
,
0001
0010
0000
0100
1000
0000
0001
0100
0000
0010
1000
0000
0010
0100
0010
0100
,
0001
0000
0010
0000
0001
0100
0010
0000
,
1000
0000
0010
0000
0100
0001
1000
0000
,
0100
0000
1000
0000
0100
0010
0001
0000
,
1000
0000
0001
0000
0100
0010
1000
0010
,
0100
0000
0010
0000
1000
0100
0010
0000
,
0001
0000
1000
0000
0010
0100
0001
0000
,
1000
0000
0100
0000
0010
0001
0100
0000
,
0001
0000
0000
0010
0100
0000
1000
0000
,
0010
1000
0100
0000
0010
0001
1000
0000
,
0100
1000
0001
0000
0100
1000
0100
0000
,
0010
1000
0001
0000
0010
0001
0100
0000
,
0001
1000
0010
0100
0001
0000
0010
0100
,
0010
0100
1000
0100
0010
0000
0100
1000
,
0001
1000
0100
0000
0010
0000
0100
1000
,
0001
0010
0100
1000
0001
0100
1000
0100
,
0010
1000
0010
0100
0001
0010
0100
1000
,
0002
0003
0000
0000
0000
0000
0000
0000
1000
0000
0000
0000
0010
0000
0000
0000
0100
0000
0000
0000
0001
0000
0000
0000
0010
0000
0000
0000
0100
0000
0000
0000
,
1000
0010
0100
0001
0010
0100
1000
0010
,
0100
0010
0100
0100
0000
0000
0000
0000
,
0000
0000
0000
0000
0000
0000
0000
0100
,
1000
0001
0100
0010
,
1000
0001
0010
0100
,
1000
0001
0100
0010
,
1000
0001
0010
0100
,
1000
0001
1000
0010
,
1000
0001
0010
0100
,
1000
0000
0001
0100
0001
0100
0010
1000
,
0010
1000
0100
1000
0100
1000
0001
0100
,
0001
0100
0002
0000
0000
0000
0003
0000
,
2020
0000
3030
0202
,
0000
0303
0022
0000
,
0033
2002
3003
0220
,
0330
2002
0000
3003
,
0022
0000
0033
2200
,
0000
3300
2020
0000
,
3030
0001
0100
0010
,
0100
0001
0200
0000
0000
0000
0300
0000
,
2020
0000
3030
0202
,
0000
0303
0022
0000
,
0033
2002
3003
0220
,
0330
2002
0000
3003
,
0022
0000
0033
2200
,
0000
3300
2020
0000
,
3030
0001
1000
0100
,
0001
0100
0100
0001
,
0010
0010
0100
1000
,
1000
0010
0100
0100
,
0001
0000
0010
0000
0001
0000
1000
0010
,
1000
0100
0100
1000
,
0010
0010
0100
0010
,
0010
1000
0001
0001
,
0010
0000
0100
1000
0100
0000
1000
0001
,
1000
0000
0010
0100
0010
0000
0100
0000
,
0001
1000
0001
0000
1000
0000
0100
0010
,
0100
0000
0010
0000
0100
0010
0100
0000
,
1000
0000
0010
1000
0010
0000
0100
0000
,
0010
1000
0010
1000
0010
1000
0010
1000
,
0001
0010
0001
0010
0001
0010
0001
0010
,
0100
0010
0100
0010
0001
0100
0001
0100
,
0010
1000
0010
1000
0100
1000
0100
1000
,
0002
0000
0020
0003
,
0200
0030
2000
0300
,
3002
0000
0200
0003
,
0020
0300
0002
0030
,
0020
0003
2000
0030
,
0002
3000
2000
0003
,
0200
3000
0020
0300
,
0002
0030
2000
0003
,
0020
3000
0200
0030
,
0002
0300
2000
0003
,
0002
3000
0020
0003
,
2000
0030
0002
3000
,
0200
0003
2000
0300
,
0020
3000
0002
0030
,
0200
0003
0020
0300
,
2000
0030
0200
3300
;

//---------------dance-double - ----------------
#NOTEDATA:;
#CHARTNAME:;
#STEPSTYPE:dance-double;
#DESCRIPTION:;
#CHARTSTYLE:;
#DIFFICULTY:Easy;
#METER:8;
#RADARVALUES:0.388,0.503,0.188,0.313,0.000,248.000,21.000,35.000,0.000,0.000,0.000,0.000,0.000,0.388,0.503,0.188,0.313,0.000,248.000,21.000,35.000,0.000,0.000,0.000,0.000,0.000;
#CREDIT:;
#OFFSET:0.000;
#BPMS:0.000=169.990
,36.000=340.024
,228.000=170.012
,260.000=340.024
,324.000=169.811
,325.000=209.913
,341.000=420.060
,435.000=419.945
;
#STOPS:324.000=2.473
,435.000=0.140
;
#DELAYS:;
#WARPS:;
#TIMESIGNATURES:0.000=4=4
;
#TICKCOUNTS:0.000=4
;
#COMBOS:0.000=1
;
#SPEEDS:0.000=1.000=0.000=0
;
#SCROLLS:0.000=1.000
;
#FAKES:;
#LABELS:0.000=Song Start
;
#DISPLAYBPM:170.000:340.000;
#NOTES:
00000000
00000000
00000000
00000000
,
00000000
00000000
00000000
00000000
,
00000000
00000000
00000000
00000000
,
00000000
00000000
00000000
00000000
,
00000000
00000000
00000000
00000000
,
00000010
00000000
00000001
00000000
,
00001000
00000000
00000100
00000000
,
00000010
00000000
00001000
00000000
,
00010000
00100000
00010000
00100000
,
00110000
00000000
00110000
00000000
,
01000000
00000000
01000000
00000000
,
10010000
00000000
10010000
00000000
,
01000000
00000000
01000000
00000000
,
01010000
00000000
01010000
00000000
,
00001000
00000000
00000010
00000000
,
00001010
00000000
00001010
00000000
,
00000010
00000000
00000001
00000000
,
00001000
00000000
00000100
00000000
,
00000001
00000000
00000001
00000000
,
00000010
00000000
00001000
00000000
,
00010000
00000000
00010000
00000000
,
00100000
00010000
00100000
00000000
,
01000000
10000000
01000000
00000000
,
00100000
00010000
00100000
00010000
,
00001000
00000000
00001000
00000000
,
00001000
00000000
00000010
00000000
,
00000001
00000000
00000100
00000000
,
00000020
00000000
00010000
00000030
,
00000020
00000000
00000100
00000030
,
00001000
00000000
00010000
00000000
,
00100000
00000000
10000000
00000000
,
02000000
00000000
00100000
03000000
,
02000000
00000000
00010000
03000000
,
00001000
00000000
00000010
00000000
,
00000001
00000000
00000100
00000000
,
00002000
00000000
00010000
00003000
,
00002000
00000000
00100000
00003000
,
00010000
00000000
00100000
00000000
,
10000000
00000000
01000000
00000000
,
10000000
00000000
00010000
00000000
,
10010000
00000000
00000000
00000000
,
01000000
00001000
00000000
00010000
,
00000010
00010000
00000000
00000100
,
00000010
00000000
00000001
00000000
,
00001000
00000000
00000100
00000000
,
00010000
00001000
00000000
00100000
,
00010000
00100000
00000000
01000000
,
10000000
00000000
00100000
00000000
,
10000000
00000000
01000000
00000000
,
10000000
00010000
00000000
01000000
,
00001000
01000000
00000000
00001000
,
00010000
00000000
00000010
00000000
,
00001000
00000000
00000001
00000000
,
00000010
00000000
00000100
00001000
,
00000100
00000000
00010000
00001000
,
00010000
00000000
00100000
00000000
,
10000000
00000000
01000000
00000000
,
00200000
00000000
00010000
00300000
,
00002000
00000000
00000100
00003000
,
00000020
00000000
00000000
00000030
,
00000002
00000000
00000200
00000303
,
00002000
00000000
00000100
00003000
,
00020000
00000000
00001000
00030000
,
00200000
00000000
00000000
00300000
,
20000000
00000000
00020000
30030000
,
00220000
00000000
00000000
00330000
,
22000000
00000000
00000000
33000000
,
20000000
00000000
00100000
30000000
,
02000000
00000000
00010000
03000000
,
00002000
00000000
00000000
00003000
,
00000200
00000000
00000000
00000300
,
00000002
00000000
00000010
00000003
,
00000200
00000000
00001000
00000300
,
00000020
00000000
00000100
00000030
,
00002000
00000000
00010000
00003000
,
00200000
00000000
10000000
00300000
,
02000000
00000000
00100000
03000000
,
00010000
00000000
01000000
00000000
,
00001000
00000000
00010000
00000000
,
00000010
00001000
00000010
00000000
,
00000100
00000001
00000100
00000000
,
00001001
00000001
00000000
00000100
,
00000000
00001000
00000000
00010000
,
00010000
00100000
00000000
10000000
,
00000000
00010000
00000000
01000000
,
01000000
00010000
00000000
10000000
,
00000000
00100000
00000000
01000000
,
00000000
00001000
00000000
00010000
,
00000000
00000100
00000000
00001000
,
00000000
00000010
00000000
00000001
,
00000000
00001000
00000000
00000100
,
00000000
00001000
00000000
00000001
,
00000000
00000100
00000000
00000001
,
00000000
00001001
00000000
00000000
,
00000100
00000000
00000000
00001001
,
00000000
00000000
00000010
00000000
,
00000000
00010000
00000000
00001000
,
00000000
00011000
00000000
00000000
,
00000010
00000000
00000000
00011000
,
00000000
00000000
00100000
00000000
,
00000000
01000000
00000000
01000000
,
00000000
10010000
00000000
00000000
,
00100000
00000000
00000000
10010000
,
00000000
00000000
01000000
00000000
,
00000000
00001000
00000000
00010000
,
00000000
00011000
00000000
00000000
,
00100000
00000000
00000000
00011000
,
00000000
00000000
00000010
00000000
,
00000000
00000100
00000000
00000100
,
00000001
00000000
00001000
00000000
,
00000001
00000000
00000100
00000000
,
00000010
00000000
00010000
00000000
,
00001000
00000000
00100000
00000000
,
00010000
00000000
10000000
00000000
,
00100000
00000000
01000000
00000000
,
00100000
00000000
10000000
00000000
,
01000000
00000000
00010000
00000000
,
00001000
00000000
00001000
00000000
,
00000010
00000000
00000010
00000000
,
00000001
00000000
00000001
00000000
,
00001000
00000000
00001000
00000000
,
00000010
00000000
00000100
00000000
,
00000010
00000000
00010000
00000000
,
00001000
00000000
01000000
00000000
,
00010000
00000000
10000000
00000000
,
20020000
00000000
00000000
00000000
,
00000000
00000000
00000000
00000000
,
00000000
00000000
00000000
00000000
,
00000000
00000000
00000000
30030000
,
00200000
00000000
00000000
00000000
,
00000000
00000000
00000000
00000000
,
00000000
00000000
00000000
00000000
,
00000000
00000000
00000000
00300000
,
02000000
00000000
00000000
00000000
,
00000000
00000000
00000000
00000000
,
00000000
00000000
00000000
00000000
,
00000000
00000000
00000000
03000000
,
00020000
00000000
00000000
00000000
,
00000000
00000000
00000000
00000000
,
00000000
00000000
00000000
00000000
,
00000000
00000000
00000000
00030000
,
;

//---------------dance-double - ----------------
#NOTEDATA:;
#CHARTNAME:;
#STEPSTYPE:dance-double;
#DESCRIPTION:;
#CHARTSTYLE:;
#DIFFICULTY:Medium;
#METER:11;
#RADARVALUES:0.494,0.690,0.161,0.268,0.040,339.000,18.000,30.000,0.000,0.000,0.000,0.000,0.000,0.494,0.690,0.161,0.268,0.040,339.000,18.000,30.000,0.000,0.000,0.000,0.000,0.000;
#CREDIT:;
#OFFSET:0.000;
#BPMS:0.000=169.990
,36.000=340.024
,228.000=170.012
,260.000=340.024
,324.000=169.811
,325.000=209.913
,341.000=420.060
,435.000=419.945
;
#STOPS:324.000=2.473
,435.000=0.140
;
#DELAYS:;
#WARPS:;
#TIMESIGNATURES:0.000=4=4
;
#TICKCOUNTS:0.000=4
;
#COMBOS:0.000=1
;
#SPEEDS:0.000=1.000=0.000=0
;
#SCROLLS:0.000=1.000
;
#FAKES:;
#LABELS:0.000=Song Start
;
#DISPLAYBPM:170.000:340.000;
#NOTES:
00000000
00000000
00000000
00000000
,
00000000
00000000
00000000
00000000
,
00000000
00000000
00000000
00000000
,
00000000
00000000
00000000
00000000
,
00000000
00000000
00000000
00000000
,
00000001
00000000
00000010
00000000
,
00001000
00000000
00010000
00000000
,
00100000
00000000
10000000
00000000
,
01000000
00010000
00001000
00011000
,
00002000
00000000
00023000
00000000
,
00032000
00000000
00203000
00000000
,
00302000
00000000
02003000
00000000
,
03002000
00000000
00023000
00000000
,
00030200
00000000
00020300
00000000
,
00030020
00000000
00020030
00000000
,
00032000
00000000
00023000
00000000
,
00031000
00000000
00000000
00000100
00000000
00000000
00000001
00000000
,
00000010
00000001
00000100
00000000
,
00000010
00001000
00000100
00000000
,
00010000
00001000
00100000
00000000
,
01000000
10000000
00010000
00000000
,
10000000
00100000
10000000
00100000
,
01000000
00001000
01000000
00001000
,
00010000
00000100
00010000
00000100
,
00001000
00000000
00000000
00000010
00000000
00000000
00000100
00000000
,
00000001
00000000
00000000
00000010
00000000
00000000
00000100
00000000
,
00000010
00000001
00000100
00000000
,
00001000
00010000
00001000
00000000
,
00100000
00010000
00100000
00000000
,
01000000
00000000
00000000
10000000
00000000
00000000
00100000
00000000
,
01000000
00100000
01000000
00000000
,
00001000
00000000
00010000
00000000
,
00001000
00000000
00000000
00000100
00000000
00000000
00000001
00000000
,
00000010
00000000
00000000
00000001
00000000
00000000
00001000
00000000
,
00000010
00001000
00000100
00000000
,
00010000
00001000
00010000
00000000
,
00001000
00100000
00001000
00000000
,
00010000
00000000
00000000
00100000
00000000
00000000
01000000
00000000
,
00100000
10000000
01000000
00000000
,
20000000
00000000
00000000
30010000
,
00100000
00000000
00000000
00100000
00000000
00000000
00100000
00000000
,
01000000
00000000
00000000
01000000
00000000
00000000
00010000
00000000
,
00001000
00010000
00001000
00000000
,
00000010
00000100
00001000
00000000
,
00000010
00000100
00000001
00000000
,
00001000
00000000
00000000
00001000
00000000
00000000
00000010
00000000
,
00010000
00001000
00100000
00010000
,
10000000
00000000
00000000
00010000
,
01000000
00000000
00000000
00100000
00000000
00000000
01000000
00000000
,
00100000
00000000
00000000
00100000
00000000
00000000
10000000
00000000
,
01000000
00100000
01000000
00000000
,
00100000
00001000
00010000
00000000
,
00000010
00010000
00001000
00000000
,
00010000
00000000
00000000
00001000
00000000
00000000
00000100
00000000
,
00000010
00000000
00000000
00001000
00000000
00000000
00000100
00000000
,
00010000
00001000
01000000
00010000
,
10000000
00000000
01100000
00000000
,
10000000
00000000
00000000
01000000
00000000
00000000
10000000
00000000
00110000
00000000
00000000
00000000
00010000
00000000
00000000
00000000
,
01000000
00000000
00000000
00001000
00000000
00000000
00010000
00000000
00011000
00000000
00000000
00000000
00000000
00000000
00000000
00000000
,
00001000
00000000
00000000
00000100
00000000
00000000
00000010
00000000
00000110
00000000
00000000
00000000
00000010
00000000
00000000
00000000
,
00010000
00000000
00000000
00001000
00000000
00000000
00100000
00000000
00110000
00000000
00000000
00000000
00000000
00000000
00000000
00000000
,
00010000
00000000
00000000
01000000
00000000
00000000
10000000
00000000
10100000
00000000
00000000
00000000
00010000
00000000
00000000
00000000
,
00001000
00000000
00000000
00000100
00000000
00000000
00001000
00000000
00001100
00000000
00000000
00000000
00000000
00000000
00000000
00000000
,
00000001
00000000
00000000
00000010
00000000
00000000
00001000
00000000
00001010
00000000
00000000
00000000
00000100
00000000
00000000
00000000
,
00000010
00000000
00000000
00010000
00000000
00000000
00001000
00000000
00000000
00100000
00000000
00000000
01000000
00000000
10000000
00000000
,
00200000
00000000
00000000
00000000
,
20000000
00000000
00000000
30300000
,
01000000
10000000
01000000
00000000
,
00100000
00010000
00100000
00000000
,
00002000
00000000
00000000
00000000
,
00020000
00000000
00000000
00033000
,
00000010
00001000
00000010
00000000
,
00000100
00000001
00000100
00000000
,
00002000
00000000
00000000
00000000
,
00000200
00000000
00000000
00003300
,
00001000
00010000
00001000
00000000
,
01000000
00100000
01000000
00000000
,
00200000
00000000
00000000
00000000
,
20000000
00000000
00000000
30300000
,
00100000
10000000
00010000
01000000
,
00001000
00010000
00000010
00001000
,
00000101
00001000
00001000
00000010
,
00001000
00000001
00000001
00000100
,
00001000
00000000
00010000
00001000
00010000
00000000
00100000
00000000
,
00100000
00000000
10000000
00000000
00010000
00000000
10000000
01000000
,
10000000
00100000
00000000
10000000
,
00000000
00010000
00000000
01000000
,
00001000
00010000
00000000
00000100
,
00000000
00000010
00000000
00000001
,
00000100
00000010
00000000
00001000
,
00000000
00000010
00000000
00000100
,
00000000
00001000
00000100
00001000
,
00000100
00001000
00010000
00001000
,
00010000
00001000
00000000
00000000
,
00110000
00000000
00000000
00100000
,
00000000
00000000
10100000
00000000
,
00000000
01000000
10000000
01000000
,
00000000
00010000
00000000
00000000
,
00011000
00000000
00000000
00000100
,
00000000
00000000
00000110
00000000
,
00000000
00000001
00000100
00000001
,
00000000
00000010
00000000
00000000
,
00001100
00000000
00000000
00000010
,
00000000
00000000
00000101
00000000
,
00000000
00000010
00001000
00000010
,
00000000
00001000
00000000
00000000
,
00011000
00000000
00000000
00010000
,
00000000
00000000
00011000
00000000
,
00000000
00100000
00010000
00100000
,
01000000
00000000
10000000
00000000
,
01000000
00000000
00100000
00000000
,
00010000
00000000
01000000
00000000
,
00001000
00010000
00000010
00001000
,
00000100
00000000
00000010
00000000
,
00000100
00000000
00001000
00000000
,
00000001
00000000
00000100
00000000
,
00000010
00010000
00001000
00100000
,
00010000
00000000
10000000
00000000
,
00100000
00000000
01000000
00000000
,
00010000
00000000
00100000
00000000
,
01000000
10000000
00010000
01000000
,
00001000
00000000
00010000
00000000
,
00000100
00000000
00001000
00000000
,
00000010
00000100
00000010
00000100
,
00000010
00001000
00000010
00001000
,
00000002
00000000
00000000
00000000
,
00000000
00000000
00000000
00000000
,
00000000
00000000
00000000
00000000
,
00000000
00000000
00002003
00000000
,
00003020
00000000
00000000
00000000
,
00000000
00000000
00000000
00000000
,
00000000
00000000
00000000
00000000
,
00000000
00000000
00020030
00000000
,
00032000
00000000
00000000
00000000
,
00000000
00000000
00000000
00000000
,
00000000
00000000
00000000
00000000
,
00000000
00000000
00203000
00000000
,
02300000
00000000
00000000
00000000
,
00000000
00000000
00000000
00000000
,
00000000
00000000
00000000
00000000
,
00000000
00000000
03100000
00000000
,
;

//---------------dance-double - ----------------
#NOTEDATA:;
#CHARTNAME:;
#STEPSTYPE:dance-double;
#DESCRIPTION:;
#CHARTSTYLE:;
#DIFFICULTY:Hard;
#METER:14;
#RADARVALUES:0.671,0.817,0.161,0.339,0.045,470.000,18.000,38.000,0.000,0.000,0.000,0.000,0.000,0.671,0.817,0.161,0.339,0.045,470.000,18.000,38.000,0.000,0.000,0.000,0.000,0.000;
#CREDIT:;
#OFFSET:0.000;
#BPMS:0.000=169.990
,36.000=340.024
,228.000=170.012
,260.000=340.024
,324.000=169.811
,325.000=209.913
,341.000=420.060
,435.000=419.945
;
#STOPS:324.000=2.473
,435.000=0.140
;
#DELAYS:;
#WARPS:;
#TIMESIGNATURES:0.000=4=4
;
#TICKCOUNTS:0.000=4
;
#COMBOS:0.000=1
;
#SPEEDS:0.000=1.000=0.000=0
;
#SCROLLS:0.000=1.000
;
#FAKES:;
#LABELS:0.000=Song Start
;
#DISPLAYBPM:170.000:340.000;
#NOTES:
00000000
00000000
00000000
00000000
,
00000000
00000000
00000000
00000000
,
00000000
00000000
00000000
00000000
,
00000000
00000000
00000000
00000000
,
00000000
00000000
00000000
00000000
,
20000000
30000000
02000000
03000000
,
00020000
00030000
00002000
00003000
,
00000200
00000300
00000002
00000003
,
00000100
00000000
00000001
00000000
00001000
00000000
00000100
00000000
00010000
00000000
00000000
00001000
00000000
00000000
00100000
00000000
,
00010000
00100000
01000000
00000000
,
10000000
00010000
01000000
00000000
,
00100000
10000000
01000000
00000000
,
00010000
00001000
00010000
00000000
,
00000010
00010000
00001000
00000000
,
00000100
00000010
00001000
00000000
,
00000001
00000010
00000100
00000000
,
00010000
00001000
00010000
00000000
,
00100000
01000000
00010000
00000000
,
00100000
01000000
10000000
00000000
,
00100000
10000000
01000000
00000000
,
00100000
00010000
01000000
00000000
,
00100000
10000000
00010000
01000000
,
00001000
00010000
00000100
00001000
,
00000001
00000010
00000100
00001000
,
00000010
00000000
00000000
00000010
00000000
00000000
00000100
00000000
,
00000010
00000000
00000000
00010000
00001000
00000000
00100000
00000000
,
00010000
10000000
00100000
00000000
,
01000000
00010000
10000000
01000000
,
00100000
01000000
10000000
00000000
,
00010000
00000000
00000000
00100000
00001000
00000000
00010000
00000000
,
00000010
00001000
00000100
00000000
,
00000010
00000100
00010000
00000010
,
00000100
00000000
00000000
00000010
00000100
00000000
00000010
00000000
,
00001000
00000000
00000000
00000001
00000010
00000000
00000100
00000000
,
00010000
00001000
01000000
00000000
,
00100000
01000000
00010000
10000000
,
01000000
00100000
01000000
00000000
,
10000000
00000000
00000000
00010000
00100000
00000000
00001000
00000000
,
00010000
00000100
00001000
00000000
,
00000010
00000000
00000100
00000000
00000001
00000000
00001000
00000100
,
00001000
00000000
00000110
00000000
,
00000001
00000000
00000000
00000010
00000100
00000000
00000010
00000000
,
00000100
00010000
00001000
00100000
,
00010000
01000000
00100000
00000000
,
01000000
00000000
00100000
10000000
00100000
00000000
01000000
00000000
,
00010000
00000000
00000000
00100000
00001000
00000000
00010000
00000000
,
01000000
10000000
00100000
01000000
,
00100000
00000000
01000000
00001000
,
00010000
00000000
00000000
00000010
00001000
00000000
00000001
00000000
,
00001000
00000000
00000000
00000100
00000010
00000000
00000100
00000000
,
00000010
00000001
00000100
00000001
,
00001000
00000100
00010000
00000000
,
00001000
00000000
00100000
00010000
00100000
00000000
01000000
00000000
,
10000000
00000000
00000000
00100000
01000000
00000000
00010000
00000000
,
00100000
00000000
00000000
01000000
10000000
00000000
00100000
00000000
,
01000000
00000000
00100000
00000000
00010000
00000000
00001000
00010000
,
00001000
00000000
00011000
00000000
,
00001000
00000000
00000000
00000010
00000100
00000000
00000010
00000000
00000001
00000000
00000000
00000000
00001000
00000000
00000000
00000000
,
00000010
00000000
00000000
00000100
00000010
00000000
00000100
00000000
00001000
00000000
00010000
00000000
00100000
00000000
00000000
00000000
,
10000000
00000000
00000000
00010000
00100000
00000000
01000000
00000000
10000000
00000000
00000000
00000000
00010000
00000000
00000000
00000000
,
01000000
00000000
00000000
00100000
10000000
00000000
01000000
00000000
00100000
00000000
01000000
00000000
10000000
00000000
00000000
00000000
,
00010000
00000000
00000000
01000000
00001000
00000000
00010000
00000000
00000100
00000000
00000000
00000000
00000010
00000000
00000000
00000000
,
00000001
00000000
00000000
00001000
00000100
00000000
00000010
00000000
00000001
00000000
00000100
00000000
00000010
00000000
00000000
00000000
,
00001000
00000000
00000000
00000001
00000100
00000000
00001000
00000000
00010000
00000000
00000000
00000000
00001000
00000000
00000000
00000000
,
00010000
00000000
00000000
00100000
00000000
00000000
10000000
00000000
00000000
01000000
00000000
00000000
00100000
00000000
01000000
00000000
,
00100000
00010000
01000000
00000000
,
00100000
10000000
01000000
00000000
,
00100000
00001000
00010000
00000010
,
00001000
00000001
00000010
00000100
,
00000010
00000001
00001000
00000000
,
00000010
00001000
00000001
00000000
,
00001000
00000010
00000100
00000010
,
00001000
00000000
00000000
00000001
00000100
00000000
00000010
00000000
,
00010000
00001000
00010000
00001000
,
00100000
00010000
00100000
00010000
,
10000000
00100000
10000000
00100000
,
01000000
00010000
01000000
00010000
,
00100000
00001000
00100000
00001000
,
00010000
00000100
00010000
00000100
,
00000010
00000100
00000010
00000100
00000010
00000100
00000010
00000100
,
00001000
00000001
00001000
00000001
00001000
00000001
00001000
00000001
,
00000100
00000001
00001000
00000010
,
00001000
00000001
00000100
00001000
,
00010000
00000000
00001000
00001000
00000000
00000000
00000000
00000000
,
00000000
00000000
00000000
00000000
00000000
00000000
00000000
00010000
,
00010000
00100000
10000000
01000000
,
10000000
00010000
01000000
00001000
,
00010000
00000100
00000010
00000001
,
00000010
00000001
00001000
00000010
,
00000100
00000010
00010000
00001000
,
00100000
00010000
00100000
01000000
,
10000000
00100000
10000000
00100000
,
01000000
00100000
00010000
00100000
,
01000000
00010000
00000000
00000000
,
00011000
00000000
00000000
00000110
,
00000000
00000000
00001001
00000000
,
00000000
00001100
00000000
00000101
,
00000000
00000010
00000000
00000000
,
00011000
00000000
00000000
00110000
,
00000000
00000000
11000000
00000000
,
00000000
00100000
10000000
00010000
,
10000000
00100000
00000000
00000000
,
11000000
00000000
00000000
01010000
,
00000000
00000000
00011000
00000000
,
00000000
00001010
00000000
00000110
,
00000000
00001000
00000000
00000000
,
00000011
00000000
00000000
00001100
,
00000000
00000000
00001010
00000000
,
00000000
00000001
00001000
00000100
,
00000010
00000001
00001000
00000100
,
00010000
00001000
00100000
00010000
,
10000000
00100000
01000000
00010000
,
10000000
01000000
00010000
00001000
,
00100000
00001000
00010000
00000010
,
00001000
00000001
00000100
00000010
,
00001000
00000001
00000010
00000100
,
00010000
00001000
00010000
00001000
,
00100000
00010000
01000000
00100000
,
10000000
01000000
00100000
00001000
,
01000000
00100000
00010000
00001000
,
00000100
00000001
00001000
00000100
,
00000010
00000100
00001000
00000010
,
00000100
00000001
00001000
00000100
,
00010000
00001000
00100000
00010000
,
10000000
00100000
01000000
00010000
,
20000000
00000000
02000000
30000000
,
00200000
03000000
00020000
00300000
,
00002000
00030000
00000200
00003000
,
00000020
00000300
00000002
00000030
,
00002000
00000003
00000020
00003000
,
00000200
00000030
00000002
00000300
,
00000020
00000003
00002000
00000030
,
00020000
00003000
02000000
00030000
,
20000000
03000000
02000000
30000000
,
00200000
03000000
02000000
00300000
,
00020000
03000000
02000000
00030000
,
00200000
03000000
02000000
00300000
,
00200000
03000000
00020000
00300000
,
00002000
00030000
00000200
00003000
,
00000020
00000300
00000002
00000030
,
00002000
00000003
00000020
00003030
;

//---------------dance-single - ----------------
#NOTEDATA:;
#CHARTNAME:;
#STEPSTYPE:dance-single;
#DESCRIPTION:;
#CHARTSTYLE:;
#DIFFICULTY:Edit;
#METER:18;
#RADARVALUES:1.000,1.000,0.482,0.830,0.237,719.000,54.000,93.000,0.000,0.000,0.000,0.000,0.000,1.000,1.000,0.482,0.830,0.237,719.000,54.000,93.000,0.000,0.000,0.000,0.000,0.000;
#CREDIT:;
#OFFSET:0.000;
#BPMS:0.000=169.990
,36.000=340.024
,228.000=170.012
,260.000=340.024
,324.000=169.811
,325.000=209.913
,341.000=420.060
,435.000=419.945
;
#STOPS:324.000=2.473
,435.000=0.140
;
#DELAYS:;
#WARPS:;
#TIMESIGNATURES:0.000=4=4
;
#TICKCOUNTS:0.000=4
;
#COMBOS:0.000=1
;
#SPEEDS:0.000=1.000=0.000=0
;
#SCROLLS:0.000=1.000
;
#FAKES:;
#LABELS:0.000=Song Start
;
#DISPLAYBPM:170.000:340.000;
#NOTES:
0000
0000
0000
0000
,
0000
0000
0000
0000
,
0000
0000
0000
0000
,
0000
0000
0000
0000
,
0000
0000
0000
0000
0000
0000
0000
0010
,
1000
0100
0000
0000
0000
0000
0010
0000
0001
0100
0000
0000
0000
0000
0010
0000
,
1000
0100
0000
0000
0000
0000
0010
0000
0001
0100
0000
0000
0000
0000
0010
0000
,
0001
0010
1000
0100
0010
0001
0100
1000
0100
0001
0010
0100
1000
0001
0010
1000
,
0010
0001
0100
0001
0010
1000
0010
0001
0100
1000
0100
0001
0020
0000
0130
0000
,
1000
0010
0001
0000
1000
0000
0100
0000
,
0001
0010
1000
0000
0010
0000
1000
0000
,
0001
1000
0010
0000
0001
0000
1000
0000
,
0010
0100
0001
0000
0010
0000
1000
0000
,
0001
1000
0100
0000
0001
0000
0010
0000
,
1000
0100
0001
0000
0010
0000
0001
0000
,
0010
1000
0100
0000
1000
0000
0001
0000
,
1000
0010
0001
0010
0000
0001
1000
0010
,
0100
0000
0001
0100
0000
0010
0001
1000
,
0010
0000
1000
0001
0000
0010
1000
0001
,
0010
0000
0001
1000
0000
0010
0001
1000
,
0010
0000
0001
0100
0000
1000
0001
0010
,
1000
0100
0010
0100
1000
0001
0100
0010
,
1000
0010
0001
1000
0100
0001
0100
0010
,
0100
1000
0010
0001
0010
0100
1000
0001
,
0010
0000
0000
1010
0000
0000
0011
0000
,
1001
0000
0100
0001
0010
0000
0001
0100
,
1000
0000
0010
0001
0100
0000
0010
0001
,
1000
0000
0001
0100
0001
0000
0100
0001
,
0010
0000
0001
1000
0010
0000
0100
0000
,
1001
0000
0001
0100
0010
0000
1000
0010
,
0100
0000
0001
0010
1000
0001
0100
0001
,
2000
0000
3001
1001
,
0110
0000
1000
0001
0000
0001
0010
0000
,
0101
0000
0001
1000
0100
0000
0001
0000
,
0010
1000
0100
0000
0001
0000
0010
0100
,
0001
0000
0010
0100
1000
0000
0100
0010
,
0001
0000
0100
0010
1000
0000
1000
0000
,
0110
0000
0001
1000
0100
0000
0101
0000
,
1100
0101
0001
1000
,
0001
0010
0100
1000
0001
1000
0010
0001
,
0200
0000
0000
0010
0000
0000
0001
0000
,
1300
0000
0001
0010
0100
0000
1100
0000
,
0001
0010
0001
0000
1000
0100
1000
0000
,
0011
0110
2200
3300
,
0001
0010
0001
0010
0100
1000
0100
1000
,
0001
0000
0100
1000
0001
0000
1000
0000
,
0001
0010
0100
0000
0010
0001
1000
0000
,
0022
0000
0000
0000
0033
0000
0200
1000
,
0320
0000
0000
0001
0000
0000
1030
0000
,
0100
0000
1000
0100
0001
0000
0011
0000
,
1010
0000
1100
0000
0101
0000
1000
0100
,
0001
1010
0220
0330
,
0001
0100
0001
0010
0001
1000
0001
0000
,
1000
0010
1000
0100
1000
0001
0010
0100
,
0010
1000
0001
0100
0001
0010
1000
0100
,
0010
0001
1000
0010
1000
0001
0010
0001
,
0000
0110
2002
3003
,
0100
0000
1000
0100
0000
0001
1000
0010
0001
0000
0100
0000
1000
0000
0100
0000
,
0001
0000
0010
0100
0000
0001
0010
0001
1000
0000
0010
0000
1000
0100
0001
0000
,
0100
0000
0010
1000
0000
0001
1000
0100
0010
0000
0001
0000
0100
0000
0010
0000
,
1000
0000
0001
0100
0000
1000
0100
0010
1000
0000
0001
0000
0010
0100
1000
0000
,
0001
0000
0100
0001
0000
0010
0001
0100
1000
0000
0010
0000
0100
0000
0010
0000
,
0001
0000
0100
1000
0000
0010
1000
0100
0001
0000
0100
0000
0010
1000
0001
0000
,
0010
0100
0010
0100
0001
1000
0001
1000
0100
0010
0100
1000
0010
0100
0010
1000
,
0001
0100
0000
1000
0100
0000
0001
0010
0000
1000
0010
0000
0001
1000
0010
0100
,
0010
0000
1000
0000
0010
0001
0100
0010
,
0100
0000
0010
0000
0100
0001
1000
0100
,
1000
0000
0010
0000
0100
0010
0001
0010
,
1000
0000
0001
0000
0100
0010
1000
0010
,
0100
0000
0001
0000
0010
0100
0010
1000
,
0001
0000
0010
0000
1000
0100
0010
1000
,
0001
0000
0100
0000
0010
0001
0100
1000
,
0001
0000
0000
0010
1000
0000
1000
0000
,
0001
0010
1000
0000
1000
0100
0001
0000
,
0001
0100
0010
0000
1000
0100
0001
0000
,
0010
0000
0001
0010
0002
0000
1003
0010
,
2000
0000
3001
0100
0002
0000
1003
0100
,
2000
0000
3002
0100
1003
0000
2000
0100
,
3001
0000
0002
0010
1003
0000
2000
0010
,
3001
1000
0100
0010
0001
0100
0010
0001
,
0100
0010
0100
1000
0001
0010
1000
0010
,
0200
0300
0000
0000
0000
0000
0000
0000
0001
0000
0000
0000
0010
0000
0000
0000
0001
0000
0000
0000
0100
0000
0000
0000
0010
0000
0000
0000
1000
0000
0000
0000
,
0100
0001
0100
1000
0100
0010
0001
1000
,
0100
0000
1001
0101
0000
0000
0000
0000
,
0000
0000
0000
0000
0000
0000
0000
0001
,
2000
0000
0000
3000
1001
0000
0000
0000
0010
0000
0000
0000
1000
0000
0000
0000
,
0101
1000
0100
0011
,
0100
0001
1010
0001
,
1000
0110
0001
0010
,
0101
1000
0010
0100
,
1001
0001
0010
1100
,
0010
0000
1000
0100
0010
0001
1000
0100
,
0010
0001
0100
0010
1000
0001
0100
0010
,
1000
0001
0020
0000
0000
0000
0030
0000
,
0022
0000
0033
0220
,
0000
0330
2002
0000
,
3003
0202
0303
2200
,
3300
0220
0000
0330
,
0022
0000
0033
2200
,
0000
3300
2020
0000
,
3030
0001
0010
0100
,
1000
0100
2000
0000
0000
0000
3000
0000
,
0022
0000
0033
0202
,
0000
0303
2200
0000
,
3300
2020
3030
0022
,
0033
0220
0000
0330
,
2002
0000
3003
0220
,
0000
0330
2200
0000
,
3300
0011
0110
0010
,
0001
0000
1000
0000
0010
0100
0010
0100
,
0010
0000
1000
0000
0001
0100
0001
0100
,
0001
0000
0010
0000
0100
1000
0100
1000
,
0100
0000
1000
0000
0010
0100
0010
0100
,
0010
0000
1000
0000
0001
0010
0001
0010
,
0001
0000
0100
0000
0010
1000
0010
1000
,
0010
0000
0100
0000
0001
1000
0001
1000
,
0001
0000
0010
0000
0100
1000
0100
1000
,
0100
0000
1000
0000
0001
0010
0001
1000
,
0001
0000
0100
0000
0010
0100
1000
0100
,
0010
0000
1000
0000
0100
0010
0100
1000
,
0100
0000
0010
0000
0001
0010
0001
0000
,
1000
0001
0100
0010
1000
0100
1000
0100
,
0010
0001
0010
0001
1000
0010
1000
0010
,
0100
0001
0100
0001
0010
0100
1000
0001
,
0010
0100
1000
0001
0100
0010
1000
0001
,
0200
0000
2000
0300
,
0002
3000
0200
0003
,
0002
0300
0020
0003
,
2000
0030
0200
3000
,
2000
0300
0200
3000
,
0020
0300
0002
0030
,
0200
0003
0020
0300
,
2000
0030
0200
3000
,
0002
0300
2000
0003
,
0020
3000
0002
0030
,
0200
0003
0020
0300
,
2000
0030
0200
3000
,
0002
0300
0020
0003
,
2000
0030
0002
3000
,
0200
0003
0020
0300
,
2000
0030
0002
3003
;

//---------------dance-double - ----------------
#NOTEDATA:;
#CHARTNAME:;
#STEPSTYPE:dance-double;
#DESCRIPTION:;
#CHARTSTYLE:;
#DIFFICULTY:Edit;
#METER:19;
#RADARVALUES:1.000,1.000,0.277,0.643,0.196,716.000,31.000,72.000,0.000,0.000,0.000,0.000,0.000,1.000,1.000,0.277,0.643,0.196,716.000,31.000,72.000,0.000,0.000,0.000,0.000,0.000;
#CREDIT:;
#OFFSET:0.000;
#BPMS:0.000=169.990
,36.000=340.024
,228.000=170.012
,260.000=340.024
,324.000=169.811
,325.000=209.913
,341.000=420.060
,435.000=419.945
;
#STOPS:324.000=2.473
,435.000=0.140
;
#DELAYS:;
#WARPS:;
#TIMESIGNATURES:0.000=4=4
;
#TICKCOUNTS:0.000=4
;
#COMBOS:0.000=1
;
#SPEEDS:0.000=1.000=0.000=0
;
#SCROLLS:0.000=1.000
;
#FAKES:;
#LABELS:0.000=Song Start
;
#DISPLAYBPM:170.000:340.000;
#NOTES:
// measure 0
00000000
00000000
00000000
00000000
,  // measure 1
00000000
00000000
00000000
00000000
,  // measure 2
00000000
00000000
00000000
00000000
,  // measure 3
00000000
00000000
00000000
00000000
,  // measure 4
00000000
00000000
00000000
00000000
00000000
00000000
00000000
00000010
,  // measure 5
00001000
00010000
00000000
00000000
00000000
00000000
01000000
00000000
00010000
00001000
00000000
00000000
00000000
00000000
00000010
00000000
,  // measure 6
00001000
00010000
00000000
00000000
00000000
00000000
01000000
00000000
00010000
00001000
00000000
00000000
00000000
00000000
00100000
00000000
,  // measure 7
10000000
01000000
00010000
00001000
00000010
00001000
00010000
01000000
00010000
00001000
00000010
00000001
00001000
00000100
00000010
00000100
,  // measure 8
00001000
00000001
00000010
00001000
00010000
00001000
01000000
00100000
10000000
01000000
00010000
00001000
00000100
00000001
00001000
00000000
,  // measure 9
00010000
00100000
00010000
00000000
10000000
00000000
00100000
00000000
,  // measure 10
10000000
01000000
10000000
00000000
00100000
00000000
00010000
00000000
,  // measure 11
00000010
00000100
00000010
00000000
00001000
00000000
00010000
00000000
,  // measure 12
00001000
01000000
00001000
00000000
00010000
00000000
00000010
00000000
,  // measure 13
00000001
00001000
00000001
00000000
00000100
00000000
00001000
00000000
,  // measure 14
00100000
00001000
00100000
00000000
01000000
00000000
00010000
00000000
,  // measure 15
10000000
00010000
10000000
00000000
00010000
00000000
00100000
00000000
,  // measure 16
00000100
00000000
00001000
00010000
00000000
00100000
00010000
00001000
,  // measure 17
00000010
00000000
00000001
00000100
00000000
00000010
00001000
00010000
,  // measure 18
00100000
00000000
10000000
00100000
00000000
01000000
00010000
00001000
,  // measure 19
00000100
00000000
00000010
00000100
00000000
00000010
00001000
00010000
,  // measure 20
00100000
00000000
10000000
01000000
00000000
10000000
01000000
00100000
,  // measure 21
01000000
00010000
00001000
00000010
00001000
00010000
00001000
00100000
,  // measure 22
00001000
00010000
00000010
00001000
00000100
00000001
00000100
00001000
,  // measure 23
00000010
00010000
00001000
01000000
00100000
00010000
10000000
01000000
,  // measure 24
00100000
00001000
00010000
00000100
00010000
00000010
00000100
00001000
,  // measure 25
00000001
00000000
00000001
00000010
00001000
00000000
00000100
00000000
,  // measure 26
00010000
00000000
01000000
00100000
10000000
00000000
00100000
00000000
,  // measure 27
10000000
00000000
00100000
01000000
00010000
00000000
00000100
00000000
,  // measure 28
00001000
00000000
00000010
00001000
00000100
00000000
00000001
00000000
,  // measure 29
00000010
00000000
00000100
00000001
00000010
00000000
00000100
00000000
,  // measure 30
00001000
00000000
00010000
00000000
10000000
00010000
01000000
00100000
,  // measure 31
10000000
00000000
00010000
00000000
10000000
00000000
00100000
00001000
,  // measure 32
00010000
00000000
00001000
00010000
00001000
00000000
00000000
00000000
,  // measure 33
00000100
00000000
00001000
01000000
00010000
00000000
00100000
00000000
,  // measure 34
01000000
00010000
00001000
00000000
00000010
00000000
00000100
00010000
,  // measure 35
00001000
00000000
00100000
00010000
00001000
00000000
00000100
00010000
,  // measure 36
00001000
00000010
00000100
00010000
,  // measure 37
00001000
00000000
01000000
00100000
00010000
00000000
00001000
00000000
,  // measure 38
01000000
00100000
10000000
00100000
,  // measure 39
00010000
00001000
00000010
00001000
00010000
00001000
00100000
00001000
,  // measure 40
00010000
00000000
00000010
00000100
00000000
00000000
00000000
00000000
,  // measure 41
00001000
00000000
00000001
00000100
00001000
00000000
00100000
00000000
,  // measure 42
01000000
00100000
10000000
00000000
00100000
01000000
00010000
00000000
,  // measure 43
00001000
00000010
00000100
00000000
,  // measure 44
00000001
00000100
00000010
00001000
00100000
00001000
00010000
00100000
,  // measure 45
10000000
00000000
00010000
01000000
00100000
00000000
00010000
00000000
,  // measure 46
10000000
00100000
00010000
00000000
00001000
00000100
00000001
00000000
,  // measure 47
00000100
00000000
00000000
00000000
00000000
00000000
00000100
00001000
,  // measure 48
00000100
00000000
00000000
00001000
00000000
00000000
00010000
00000000
,  // measure 49
00100000
00000000
00010000
10000000
01000000
00000000
00010000
00000000
,  // measure 50
00100000
00001000
00000100
00001000
,  // measure 51
00000001
00000000
00000010
00001000
00000001
00000100
00000000
00000000
,  // measure 52
00000001
00000010
00000100
00001000
00000100
00000010
00000001
00001000
,  // measure 53
00000010
00000001
00000100
00000010
00001000
00000001
00000010
00001000
,  // measure 54
00010000
10000000
00100000
01000000
00010000
00100000
10000000
00100000
,  // measure 55
00001000
00000100
00000001
00000010
00000100
00001000
00000001
00000001
,  // measure 56
00000000
00000000
00011000
00000000
,  // measure 57
01000000
00000000
10000000
01000000
00000000
00010000
01000000
00000000
00100000
00000000
00010000
00000000
00100000
00000000
00000000
00000000
,  // measure 58
00001000
00000000
00000010
00000100
00000000
00001000
00000100
00001000
00010000
00000000
00000100
00000000
00001001
00000000
00000000
00000000
,  // measure 59
00000010
00000000
00001000
00000100
00000000
00010000
00001000
00000000
00100000
00000000
00010000
00000000
10000000
00000000
00000000
00000000
,  // measure 60
00010000
00000000
10000000
00100000
00000000
01000000
00100000
01000000
00010000
00000000
00001000
00000000
00000110
00000000
00000000
00000000
,  // measure 61
00001000
00000000
00100000
00010000
00000000
00100000
01000000
00000000
00010000
00000000
00001000
00000000
00000100
00000000
00000000
00000000
,  // measure 62
00100000
00000000
00010000
01000000
00000000
10000000
01000000
00100000
01000000
00000000
00010000
00000000
00001010
00000000
00000000
00000000
,  // measure 63
00000001
00000100
00000010
00001000
00000001
00000010
00001000
00000000
00010000
00100000
00001000
00100000
00010000
01000000
00100000
00000000
,  // measure 64
10100000
00000000
00000000
00110000
00000000
00000000
00011000
00000000
00000000
00010010
00000000
00000000
00001010
00000000
00000001
00000000
,  // measure 65
00000100
00000000
00001000
00000000
00100000
00010000
01000000
00100000
,  // measure 66
01000000
00000000
00100000
01000000
00000000
00010000
01000000
00100000
,  // measure 67
00001000
00000000
00000010
00000000
00000001
00001000
00000100
00001000
,  // measure 68
00000001
00000000
00000010
00000100
00000000
00000010
00001000
00000010
,  // measure 69
00000100
00000000
00010000
00000000
00001000
00100000
01000000
00010000
,  // measure 70
00001000
00000000
00100000
10000000
00000000
00010000
00000100
00000010
,  // measure 71
00000001
00000000
00001000
00000000
00000010
00000001
00000100
00000000
,  // measure 72
00010000
00000100
00000000
00001000
00000100
00000000
00000010
00000000
,  // measure 73
00000001
00000010
00001000
00000000
00010000
01000000
10000000
00000000
,  // measure 74
10000000
00100000
00010000
00000000
00001000
00000100
00000001
00000000
,  // measure 75
00000001
00000010
00001000
00000000
00010000
01000000
10000000
00000000
,  // measure 76
00010000
00100000
00001000
00010000
00000100
00001000
00000010
00000000
,  // measure 77
00000001
00001000
00000010
00001000
00010000
01000000
00010000
00001000
,  // measure 78
00000100
00000001
00000100
00001000
00000100
00000010
00000001
00001000
,  // measure 79
00010000
00100000
01000000
00100000
00010000
10000000
00100000
01000000
,  // measure 80
00001000
00010000
00000010
00010000
00001000
00000100
00000010
00000001
,  // measure 81
00002000
00003000
00000000
00000000
00000000
00000000
00000000
00000000
00000001
00000000
00000000
00000000
00000100
00000000
00000000
00000000
00001000
00000000
00000000
00000000
00010000
00000000
00000000
00000000
00100000
00000000
00000000
00000000
10000000
00000000
00000000
00000000
,  // measure 82
01000000
00010000
00001000
00000010
00010000
00100000
00010000
01000000
,  // measure 83
00001000
00000000
00000100
00000100
00000000
00000000
00000000
00000000
,  // measure 84
00000000
00000000
00000000
00000000
00000000
00000000
00000000
00001000
,  // measure 85
00001000
00010000
00100000
01000000
10000000
00000000
00000000
00000000
00100000
00000000
00000000
00000000
01000000
00000000
00000000
00000000
,  // measure 86
00010000
00001000
00010000
00000010
,  // measure 87
00000100
00001000
00010000
00100000
,  // measure 88
01000000
00001000
00100000
00001000
,  // measure 89
00000010
00000000
00000001
00001000
00000010
00000100
00000010
00001000
,  // measure 90
00010000
00100000
00010000
00001000
01000000
00010000
00100000
00001000
,  // measure 91
00010000
00000100
00000010
00000001
00000100
00000010
00001000
00010000
,  // measure 92
00001000
00100000
00010000
10000000
00100000
01000000
00001000
00100000
,  // measure 93
00010000
01000000
22000000
00000000
00000000
00000000
33000000
00000000
,  // measure 94
20020000
00000000
30030000
00220000
,  // measure 95
00000000
00330000
00022000
00000000
,  // measure 96
00033000
00002200
00003300
00000202
,  // measure 97
00000303
00000022
00000000
00000033
,  // measure 98
00002020
00000000
00003030
00022000
,  // measure 99
00000000
00033000
00220000
00000000
,  // measure 100
00330000
00010000
00100000
01000000
,  // measure 101
10000000
01000000
20000000
00000000
00000000
00000000
30000000
00000000
,  // measure 102
02020000
00000000
03030000
00022000
,  // measure 103
00000000
00033000
02002000
00000000
,  // measure 104
03003000
00202000
00303000
00020020
,  // measure 105
00030030
00020200
00000000
00030300
,  // measure 106
00022000
00000000
00033000
02200000
,  // measure 107
00000000
03300000
00220000
00000000
,  // measure 108
00330000
00011000
00001100
00000110
,  // measure 109
00000100
00000000
00000010
00000000
00000001
00000100
00000001
00000100
,  // measure 110
00000001
00000000
00000010
00000000
00001000
00010000
00001000
00010000
,  // measure 111
00001000
00000000
00010000
00000000
00100000
10000000
00100000
10000000
,  // measure 112
00100000
00000000
01000000
00000000
10000000
00010000
10000000
00010000
,  // measure 113
10000000
00000000
00100000
00000000
00001000
00010000
00001000
00010000
,  // measure 114
00001000
00000000
00000100
00000000
00000001
00000010
00000001
00000010
,  // measure 115
00000001
00000000
00000100
00000000
00000010
00001000
00000010
00001000
,  // measure 116
00000010
00000000
00010000
00000000
00001000
00100000
00001000
00100000
,  // measure 117
00001000
00000000
00010000
00000000
00100000
10000000
00010000
10000000
,  // measure 118
00100000
00000000
01000000
00000000
00001000
00010000
00000100
00010000
,  // measure 119
00001000
00000000
00000100
00000000
00000001
00000010
00000100
00000010
,  // measure 120
00000001
00000000
00001000
00000000
00000100
00010000
00001000
00000000
,  // measure 121
00000001
00000100
00000010
00000100
00000001
00000010
00000100
00010000
,  // measure 122
00001000
00010000
01000000
00100000
00001000
00010000
01000000
00010000
,  // measure 123
10000000
10000000
01000000
00001000
00010000
00010000
00001000
00000010
,  // measure 124
00000001
00000001
00001000
00000100
00000010
00000010
00010000
00001000
,  // measure 125
00000200
00000000
00020000
00000300
,  // measure 126
20000000
00030000
02000000
30000000
,  // measure 127
00002000
03000000
00000020
00003000
,  // measure 128
00000002
00000030
00002000
00000003
,  // measure 129
00000200
00003000
00020000
00000300
,  // measure 130
00200000
00030000
20000000
00300000
,  // measure 131
02000000
30000000
00020000
03000000
,  // measure 132
00002000
00030000
00020000
00003000
,  // measure 133
00000200
00030000
00000002
00000300
,  // measure 134
00000020
00000003
00002000
00000030
,  // measure 135
02000000
00003000
00020000
03000000
,  // measure 136
00000200
00030000
00002000
00000300
,  // measure 137
00200000
00003000
00020000
00300000
,  // measure 138
00000020
00030000
00000002
00000030
,  // measure 139
00002000
00000003
02000000
00003000
,  // measure 140
00002000
03000000
00020000
00033000
;

//---------------dance-double - ----------------
#NOTEDATA:;
#CHARTNAME:;
#STEPSTYPE:dance-double;
#DESCRIPTION:;
#CHARTSTYLE:;
#DIFFICULTY:Challenge;
#METER:17;
#RADARVALUES:0.902,1.000,0.268,0.295,0.098,644.000,30.000,33.000,0.000,0.000,0.000,0.000,0.000,0.902,1.000,0.268,0.295,0.098,644.000,30.000,33.000,0.000,0.000,0.000,0.000,0.000;
#CREDIT:;
#OFFSET:0.000;
#BPMS:0.000=169.990
,36.000=340.024
,228.000=170.012
,260.000=340.024
,324.000=169.811
,325.000=209.913
,341.000=420.060
,435.000=419.945
;
#STOPS:324.000=2.473
,435.000=0.140
;
#DELAYS:;
#WARPS:;
#TIMESIGNATURES:0.000=4=4
;
#TICKCOUNTS:0.000=4
;
#COMBOS:0.000=1
;
#SPEEDS:0.000=1.000=0.000=0
;
#SCROLLS:0.000=1.000
;
#FAKES:;
#LABELS:0.000=Song Start
;
#DISPLAYBPM:170.000:340.000;
#NOTES:
00000000
00000000
00000000
00000000
,
00000000
00000000
00000000
00000000
,
00000000
00000000
00000000
00000000
,
00000000
00000000
00000000
00000000
,
00000000
00000000
00000000
00000000
00000000
00000000
00000000
00100000
,
10000000
01000000
00000000
00100000
00010000
01000000
00000000
00100000
,
00010000
00001000
00000000
00000100
00000001
00001000
00000000
00000100
,
00000010
00000001
00000100
00001000
00010000
00100000
10000000
10000000
,
01000000
00000000
10000000
00000000
00010000
00000000
01000000
00000000
01001000
00000000
00000000
00011000
00000000
00000000
00010010
00000000
,
00001000
00000001
00001000
00000000
00000001
00000000
00000100
00000000
,
00001000
00010000
00001000
00000000
00100000
00000000
01000000
00000000
,
10000000
01000000
10000000
00000000
00100000
00000000
01000000
00000000
,
00001000
00010000
00001000
00000000
00010000
00000000
00000010
00000000
,
00000100
00000001
00000100
00000000
00001000
00000000
00010000
00000000
,
00100000
01000000
00100000
00000000
10000000
00000000
01000000
00000000
,
00100000
00010000
00100000
00000000
00001000
00000000
00010000
00000000
,
00000100
00000010
00000100
00000010
00000100
00000000
00001000
00000001
,
00000100
00000000
00000010
00001000
00000000
00000100
00010000
00001000
,
00100000
00000000
01000000
00100000
00000000
01000000
10000000
00010000
,
01000000
00000000
00100000
00010000
00000000
00001000
00000100
00000010
,
00001000
00000000
00000001
00000100
00000000
00000001
00001000
00000100
,
00000010
00000100
00000010
00000100
00010000
00001000
00010000
00001000
,
01000000
00010000
01000000
00010000
10000000
01000000
10000000
01000000
,
00100000
00001000
01000000
00010000
00100000
00001000
00010000
00000010
,
00001010
00000000
00000000
00000110
00000000
00000000
00000101
00000000
,
00001000
00000000
00000010
00001000
00000100
00000000
00000010
00000000
,
00001000
00000000
00010000
00000000
01000000
00000000
10000000
00010000
,
00100000
00000000
00010000
10000000
00100000
00000000
01000000
00010000
,
10000000
00000000
01000000
10000000
00010000
00000000
00100000
00000000
,
00001000
00000000
00010000
00001000
00010000
00000000
00001000
00000000
,
00000100
00000001
00000010
00001000
,
00001001
00000000
00000000
00000000
00000000
00000000
00001000
00000010
,
00000100
00000000
00000001
00001000
00000010
00000000
00000100
00000000
,
00000001
00000000
00001000
00000100
00000010
00000000
00000100
00000000
,
00010000
00000000
00001000
00000000
00010000
00000000
00100000
01000000
,
00010000
00000000
00100000
01000000
10000000
00000000
00010000
01000000
,
00100000
00000000
01000000
00010000
10000000
00000000
01000000
00000000
,
00100000
00000000
01000000
00100000
01000000
00000000
10000000
00000000
,
01000000
00010000
00001000
00000010
,
00000001
00000000
00000100
00000010
00001000
00000100
00000010
00000001
,
00001000
00000000
00001001
00000000
,
00000001
00000000
00000100
00000010
00000100
00000000
00000110
00000000
,
00010000
00001000
00100000
00010000
,
10000000
00100000
01000000
00000000
,
00100000
00000000
10000000
00010000
00100000
01000000
10000000
00010000
,
01000000
00000000
00100000
01000000
00100000
00000000
01100000
00000000
,
00001000
00010000
00000010
00000100
,
00000001
00000000
00000000
00000000
00000000
00000000
00001000
00000100
,
00000010
00000000
00000100
00010000
00000100
00000000
00010000
00000000
,
00001000
00000000
00100000
01000000
00100000
00000000
10010000
00000000
,
10000000
00100000
01000000
00001000
,
00010000
00000010
00001000
00000000
,
00000001
00000000
00000100
00000010
00001000
00000100
00000010
00000001
,
00000100
00000000
00001000
00010000
00001000
00000000
00100000
00000000
,
00001000
00000000
00010000
00000100
00010000
00000000
00001000
00000000
,
00000100
00000000
00000010
00000100
00000001
00000010
00000100
00000010
,
00000001
00000000
00001001
00000000
,
00000001
00000000
00000010
00000100
00000000
00000010
00000001
00000000
00001000
00000000
00000001
00000000
00000100
00000000
00000000
00000000
,
00000010
00000000
00000100
00000010
00000000
00001000
00000100
00010000
00001000
00000000
00100000
00000000
00010000
00000000
00000000
00000000
,
10000000
00000000
00010000
00100000
00000000
01000000
10000000
00000000
00010000
00000000
01000000
00000000
10000000
00000000
00000000
00000000
,
01000000
00000000
00010000
10000000
00000000
01000000
00100000
00010000
00100000
00000000
01000000
00000000
10000000
00000000
00000000
00000000
,
01000000
00000000
00010000
00001000
00000000
00010000
00001000
00000000
00000100
00000000
00000001
00000000
00001000
00000000
00000000
00000000
,
00000001
00000000
00001000
00000100
00000000
00000010
00000001
00000100
00000010
00000000
00000100
00000000
00000010
00000000
00000000
00000000
,
00001000
00000000
00000001
00000100
00000000
00001000
00010000
00000000
00001000
00000000
00100000
00000000
01000000
00000000
00100000
00000000
,
00010000
00100000
00000000
00100000
01000000
00000000
01000000
10000000
00000000
10000000
00010000
00000000
01000000
00000000
00100000
00000000
,
10000000
00000000
00100000
00000000
10000000
00100000
01000000
00000000
,
00010000
00000000
01000000
00000000
00100000
10000000
01000000
00000000
,
00100000
00000000
00001000
00000000
00010000
00000010
00001000
00000000
,
00000001
00000000
00000100
00000000
00000010
00001000
00000001
00000000
,
00000010
00000000
00000100
00000000
00010000
00001000
00010000
00000000
,
01000000
00000000
00100000
00000000
00010000
10000000
01000000
00000000
,
00100000
00000000
00010000
00000000
01000000
00100000
10000000
00000000
,
01000000
00000000
00000000
00100000
01000000
00000000
00100000
00000000
,
00001000
00010000
00000100
00000000
00000010
00000100
00001000
00000000
,
00000001
00000100
00000010
00000000
00001000
00000100
00010000
00000000
,
00001000
01000000
00100000
00000000
10000000
00010000
00100000
00000000
,
01000000
00100000
00010000
00100000
00010000
00000000
01000000
00010000
,
01000000
00100000
10000000
01000000
00100000
00000000
00010000
01000000
,
00001000
00010000
00000100
00000000
00000010
00000000
00000100
00000000
,
00000010
00000001
00000100
00000010
00010000
00001000
00100000
00010000
,
10000000
00100000
01000000
00001000
00010000
00000100
00001000
00000001
,
00000200
00000300
00000000
00000000
00000000
00000000
00000000
00000000
00000001
00000000
00000000
00000000
00001000
00000000
00000000
00000000
00000010
00000000
00000000
00000000
00001000
00000000
00000000
00000000
00000001
00000000
00000000
00000000
00000010
00000000
00000000
00000000
,
00000001
00001000
00000010
00001000
00000001
00000010
00000100
00001000
,
00010000
01000000
00100000
00100000
00000000
00000000
00000000
00000000
,
00000000
00000000
00000000
00000000
00000000
00000000
00000000
01000000
,
01000000
00100000
10000000
01000000
,
10000000
00010000
10000000
01000000
,
00010000
00001000
00000010
00000001
,
00000100
00000010
00000100
00000001
,
00000100
00001000
00010000
00100000
,
10000000
00010000
00100000
01000000
,
10000000
00000000
00100000
01000000
00100000
01000000
00001000
00010000
,
00001000
00010000
00000100
00001000
00000100
00001000
00000001
00000100
,
00000001
00000100
00000010
00000000
00000000
00000000
00000000
00000000
,
00000101
00000000
00000000
00000110
,
00000000
00000000
00001001
00000000
,
00000000
00001100
00000000
00011000
,
00000000
00110000
00000000
00000000
,
11000000
00000000
00000000
10100000
,
00000000
00000000
01010000
00000000
,
00000000
00100000
10000000
00010000
,
00100000
01000000
00100000
00000000
00000000
00000000
00000000
00000000
,
11000000
00000000
00000000
01010000
,
00000000
00000000
00011000
00000000
,
00000000
00001010
00000000
00000101
,
00000000
00000110
00000000
00000000
,
00000011
00000000
00000000
00001100
,
00000000
00000000
00001010
00000000
,
00000000
00000000
00010000
00000000
00000100
00001000
00000100
00000000
,
00000010
00000001
00001000
00000100
,
00010000
00001000
00100000
00010000
,
10000000
00100000
01000000
00010000
,
10000000
00000000
01000000
00000000
00010000
00000000
00001000
00010000
,
00001000
00000010
00000001
00001000
,
00000010
00000100
00000001
00001000
,
00000001
00000100
00001000
00010000
,
00100000
00000000
01000000
00100000
01000000
00000000
00100000
10000000
,
00100000
00000000
01000000
00010000
01000000
00000000
00100000
00000000
,
10000000
01000000
10000000
00000000
01000000
00000000
00010000
00001000
,
00010000
00000000
00000010
00000000
00001000
00000100
00001000
00000000
,
00000001
00000000
00000010
00000100
00000010
00000000
00000100
00000000
,
00001000
00000001
00001000
00000001
00001000
00000001
00001000
00000001
,
00000100
00000010
00000100
00000010
00000100
00000010
00000100
00000010
,
00010000
00001000
00010000
00001000
00100000
00010000
00100000
00010000
,
10000000
00100000
10000000
00100000
01000000
00100000
01000000
00100000
,
20000000
00000000
02000000
30000000
,
00200000
03000000
00020000
00300000
,
00002000
00030000
00000200
00003000
,
00000020
00000300
00000002
00000030
,
00002000
00000003
00000020
00003000
,
00000200
00000030
00000002
00000300
,
00000020
00000003
00002000
00000030
,
00020000
00003000
02000000
00030000
,
20000000
03000000
02000000
30000000
,
00200000
03000000
02000000
00300000
,
00020000
03000000
02000000
00030000
,
00200000
03000000
02000000
00300000
,
00200000
03000000
00020000
00300000
,
00002000
00030000
00000200
00003000
,
00000020
00000300
00000002
00000030
,
00002000
00000003
00000020
00003030
;
