#TITLE:Let's Get Away;
#SUBTITLE:;
#ARTIST:Naoki feat. Brenda Burch;
#TITLETRANSLIT:;
#SUBTITLETRANSLIT:;
#ARTISTTRANSLIT:;
#GENRE:;
#CREDIT:;
#MENUCOLOR:;
#METERTYPE:DDR X;
#BANNER:Let's Get Away.png;
#BACKGROUND:Let's Get Away-bg.png;
#LYRICSPATH:;
#CDTITLE:./CDTITLES/DanceDanceRevolution 2010.png;
#MUSIC:Let's Get Away.mp3;
#OFFSET:1.529;
#SAMPLESTART:51.200;
#SAMPLELENGTH:15.000;
#SELECTABLE:YES;
#LISTSORT:;
#BPMS:0.000=150.000;
#STOPS:;
#BGCHANGES:;
#ATTACKS:;

//---------------dance-single - ----------------
#NOTES:
     dance-single:
     :
     Hard:
     9:
     0.416,0.466,0.236,0.093,0.000:
0000
0000
0000
0000
,
0000
0000
0000
0000
,
0000
0000
0000
0000
,
0000
0000
0000
0000
,
0000
0000
0000
0000
,
0020
0000
0000
0030
,
0200
0000
0000
0300
,
0001
0001
1000
1000
,
0001
0010
0001
0010
0100
0010
0000
0100
,
1000
0001
0000
0001
,
0100
0000
0101
0000
0000
0000
0001
1000
,
0100
0001
0000
0010
,
1001
0000
1000
0000
0010
0010
0100
0000
,
0000
1000
0000
1000
,
0010
0000
1010
0000
0000
0000
1000
0010
,
0100
0000
1000
0000
0010
0001
1000
0100
,
0001
0001
0100
0000
,
0001
0010
0001
1000
,
0020
0031
0100
1000
,
0001
1100
1000
0101
,
0010
0000
0010
1000
0000
0100
0001
0100
,
0001
0000
1000
0000
0001
1000
0100
0000
,
0020
0031
2000
3100
,
1000
0000
0010
0000
0100
0001
0100
0000
,
1001
0000
0010
0000
0100
0010
0100
0010
,
2002
0000
3003
0000
0001
0010
0100
0000
,
1001
0000
0000
0000
1000
0001
0100
0000
,
0110
0001
1000
0100
,
0010
0100
0010
0001
0010
1000
0100
0000
,
1000
0000
1000
0000
1000
0010
0100
0001
,
0020
0031
0000
0001
,
1100
0000
1001
0100
1000
0010
0100
0001
,
0020
0030
0002
0003
,
1000
0001
0100
0000
1000
0001
0100
0000
,
0010
0000
1001
0000
0100
0001
0010
0001
,
0100
0000
0100
0000
0100
1000
0010
1000
,
0100
1100
1001
0101
,
1001
0000
0000
0000
0001
0100
1000
0100
,
0001
0010
0100
1000
,
0001
0000
0010
0001
0000
1000
0010
0000
,
0100
1000
0001
1000
0100
0000
1100
0000
,
0001
1000
0100
0000
0001
1000
0100
0000
,
0010
0000
1001
0000
0100
1000
0010
1000
,
0100
0000
0100
0000
0100
0001
0010
0001
,
0100
0101
1001
1100
,
1001
0000
0000
0000
1000
0100
0001
0100
,
1000
0010
0100
0001
,
1000
0000
0010
1000
0000
0001
0010
0001
,
1000
0001
0000
0000
1001
0000
1001
0000
,
1000
0000
0001
0000
0010
0001
0100
0000
,
0110
0000
0010
0000
1000
0001
0100
0001
,
0010
0000
1000
0000
0100
0010
0001
0000
,
0001
0000
0000
0000
,
1000
0000
0100
0001
0000
0000
0100
0001
,
0100
0000
0100
0010
0000
0100
0001
1000
,
0001
1000
0100
1000
0000
0100
1000
0000
,
0100
0000
0100
0010
0000
1000
0001
0100
,
1000
0000
0100
0001
0000
0000
0100
0001
,
0100
0000
0100
0010
0000
0100
0001
1000
,
1000
0001
0100
0001
1000
0100
1000
0001
,
0010
0001
0100
0010
0110
0000
1000
0100
,
0020
0001
0000
0100
,
0000
1000
0000
0130
,
0001
1000
0100
0000
1000
0000
0100
0000
,
0001
0100
0001
0000
0100
0000
0110
0000
,
1000
0000
0100
0000
0010
0010
0100
0000
,
0001
0100
0010
0100
,
1000
0001
0100
0001
1000
0010
0100
0001
,
0010
0000
0010
0000
0100
1000
0010
0100
,
1001
0000
0000
0000
;

//---------------dance-single - ----------------
#NOTES:
     dance-single:
     :
     Medium:
     7:
     0.331,0.408,0.152,0.101,0.000: // measure 1
0000
0000
0000
0000
,  // measure 2
0000
0000
0000
0000
,  // measure 3
0000
0000
0000
0000
,  // measure 4
0000
0000
0000
0000
,  // measure 5
0000
0000
0000
0000
,  // measure 6
0010
0000
0010
0000
,  // measure 7
2000
0000
0000
3000
,  // measure 8
0001
0000
0001
0000
,  // measure 9
0100
0000
0100
0000
0010
0010
1000
0000
,  // measure 10
0100
0000
0001
1000
,  // measure 11
0100
0000
0001
1000
,  // measure 12
0001
0000
1000
0001
,  // measure 13
0100
0000
0000
0000
0010
1000
0001
0000
,  // measure 14
0010
0000
0001
1000
,  // measure 15
0100
0000
0001
1000
,  // measure 16
0010
0000
0010
0000
0010
0100
0010
0100
,  // measure 17
0010
0000
0010
0000
,  // measure 18
0001
0001
1000
1000
,  // measure 19
0001
0010
1000
0100
,  // measure 20
0001
1000
0001
1000
,  // measure 21
0200
0300
0000
0100
,  // measure 22
0001
0001
1000
1000
,  // measure 23
0001
0100
1000
0010
,  // measure 24
0002
0103
0200
0301
,  // measure 25
0001
0000
1000
0000
0100
0100
1000
0000
,  // measure 26
0001
0000
0010
0100
,  // measure 27
1001
0000
0000
0000
0010
0100
0010
0000
,  // measure 28
1001
0000
0001
0010
,  // measure 29
0001
1000
0001
0000
0100
0001
0100
0000
,  // measure 30
0020
0000
1030
1000
,  // measure 31
0200
0000
0301
0001
,  // measure 32
1000
0000
0001
0000
1000
0001
0100
0000
,  // measure 33
0200
0000
0300
0000
,  // measure 34
2001
3100
1002
0103
,  // measure 35
0001
0000
0010
0000
0100
0000
1000
0100
,  // measure 36
1000
1000
0001
0001
,  // measure 37
1000
1001
0010
1001
,  // measure 38
0100
0000
0000
0000
0001
1000
0100
0000
,  // measure 39
0100
1000
0001
0100
,  // measure 40
0010
0000
0100
0010
0000
0100
0010
0000
,  // measure 41
0100
0100
0100
0010
,  // measure 42
2001
3100
1002
0103
,  // measure 43
1000
0000
0100
0000
0010
0000
0001
0010
,  // measure 44
0001
0001
1000
1000
,  // measure 45
0001
1001
0010
1001
,  // measure 46
0100
0000
0000
0000
1000
0001
0100
0000
,  // measure 47
0100
0001
0010
1000
,  // measure 48
0010
0000
0001
0100
0000
0001
0100
0000
,  // measure 49
0100
0100
0100
0010
,  // measure 50
0010
0000
0001
0000
1000
0100
1000
0000
,  // measure 51
0001
0000
0100
0000
0001
0010
0001
0000
,  // measure 52
0010
0100
1001
0000
,  // measure 53
0000
0000
0000
0000
,  // measure 54
0010
0000
0100
1000
0000
0000
1001
0000
,  // measure 55
0001
0000
1000
0100
0000
0000
1001
0000
,  // measure 56
0010
0000
0100
0001
0000
0000
1001
0000
,  // measure 57
1000
0000
0001
0100
0000
0000
1001
0000
,  // measure 58
0010
0000
0100
1000
0000
0000
1001
0000
,  // measure 59
0001
0000
1000
0100
0000
0000
1001
0000
,  // measure 60
0001
1000
0001
1000
0001
1000
0001
1000
,  // measure 61
0010
0010
0100
1100
,  // measure 62
0002
0000
0000
0100
,  // measure 63
0000
0000
0000
0103
,  // measure 64
0001
0100
1000
0100
,  // measure 65
0001
0000
0100
0000
1000
0100
1000
0000
,  // measure 66
0001
0100
1000
0100
,  // measure 67
0001
0010
1000
0010
,  // measure 68
0001
1000
0001
0000
1000
0000
0010
0000
,  // measure 69
0001
0000
0100
0000
1000
0100
0010
0000
,  // measure 70
0001
0000
0000
0000
;

//---------------dance-single - ----------------
#NOTES:
     dance-single:
     :
     Beginner:
     2:
     0.130,0.175,0.051,0.160,0.000:
0000
0000
0000
0000
,
0000
0000
0000
0000
,
0000
0000
0000
0000
,
0000
0000
0000
0000
,
0000
0000
0000
0000
,
1000
0000
0000
0000
,
0000
0000
0000
0000
,
0001
0000
0000
0000
,
0001
0000
0001
0000
,
0001
0000
0000
0000
,
0010
0000
0000
0000
,
1000
0000
0000
0000
,
0100
0000
0000
0000
,
0001
0000
0000
0000
,
0010
0000
0000
0000
,
1000
0000
1000
0000
,
1000
0000
0000
0000
,
0002
0000
0003
0000
,
2000
0000
3000
0000
,
0001
0000
0001
0000
,
0001
0000
0000
0000
,
0020
0000
0030
0000
,
2000
0000
3000
0000
,
0100
0000
0100
0000
,
0100
0000
0000
0000
,
0002
0003
0000
0000
,
2000
3000
0000
0000
,
0020
0030
0000
0000
,
0010
0000
0000
0000
,
0002
0000
0003
0000
,
2000
0000
3000
0000
,
0010
0000
0010
0000
,
1001
0000
0000
0000
,
0001
0000
0010
0000
,
0010
0000
0001
0000
,
1000
0000
0010
0000
,
1000
0000
0000
0000
,
2000
0000
3000
0000
,
0002
0000
0003
0000
,
1001
0000
0000
0000
,
1001
0000
0000
0000
,
0001
0000
0100
0000
,
0100
0000
0001
0000
,
1000
0000
0100
0000
,
1000
0000
0000
0000
,
2000
0000
3000
0000
,
0002
0000
0003
0000
,
0110
0000
0000
0000
,
0110
0000
0000
0000
,
0001
0000
0000
0000
,
1000
0000
0000
0000
,
0020
0030
0020
0000
,
0000
0030
0000
0000
,
0002
0003
0000
0000
,
1000
0000
1000
0000
,
2000
3000
0000
0000
,
0001
0000
0001
0000
,
0002
0003
0000
0000
,
0010
0000
0001
0000
,
0001
0000
0100
0000
,
1000
0000
0010
0000
,
0002
0000
0000
0000
,
0000
0003
0000
0000
,
0001
0000
0001
0000
,
1000
0000
0000
0000
,
0010
0000
0010
0000
,
0100
0000
0000
0000
,
0001
0000
0001
0000
,
1000
0000
1000
0000
,
1001
0000
0000
0000
;

//---------------dance-single - ----------------
#NOTES:
     dance-single:
     :
     Easy:
     4:
     0.180,0.233,0.051,0.118,0.000:
0000
0000
0000
0000
,
0000
0000
0000
0000
,
0000
0000
0000
0000
,
0000
0000
0000
0000
,
0000
0000
0000
0000
,
0001
0000
0000
0000
,
1000
0000
0000
0000
,
0001
0000
0000
0000
,
0010
0010
0010
0010
,
0010
0000
0001
0000
,
0010
0000
1000
0000
,
0001
0000
1000
0000
,
0100
0000
0100
0000
,
0001
0000
0100
0000
,
1000
0000
0100
0000
,
0010
0000
0010
0000
,
0100
0000
0100
0000
,
0002
0000
0003
0000
,
2000
0000
3000
0000
,
0001
0000
0010
0000
,
0100
0000
1000
0000
,
0002
0000
0003
0000
,
2000
0000
3000
0000
,
0001
0000
1000
0000
,
0001
0000
0010
0001
,
0020
0000
0030
0000
,
1000
0000
1000
1000
,
0001
0000
0001
0001
,
0100
0000
0100
0000
,
0002
0000
1003
0000
,
2000
0000
3001
0000
,
0001
0000
0010
0010
,
0110
0000
0000
0000
,
0001
0010
0001
0010
,
0001
0000
0001
0000
,
1000
0010
1000
0010
,
1000
0000
0000
0000
,
1001
0000
0001
0000
,
1000
0000
0010
0000
,
0110
0000
0000
0000
,
0010
0000
0010
0000
,
0001
0100
0001
0100
,
0001
0000
0001
0000
,
1000
0100
1000
0100
,
1000
0000
0000
0000
,
1001
0000
1000
0000
,
0001
0000
0100
0000
,
0110
0000
0000
0000
,
0020
0000
0030
0000
,
0010
0000
1000
0000
,
0010
0000
0100
0000
,
0100
0000
2002
0000
,
0000
3003
0000
0000
,
0001
1000
0001
0000
,
0020
0000
0030
0000
,
1000
0001
1000
0000
,
0200
0000
0300
0000
,
0001
1000
0001
0000
,
0020
0000
0030
0000
,
0001
0001
0001
0000
,
1000
1000
1000
0000
,
0200
0000
0000
0000
,
0300
0000
0000
0000
,
0001
0000
0010
0000
,
1000
1000
0010
0000
,
0100
0000
0100
0000
,
0001
0001
1000
0000
,
0010
0000
0010
0000
,
0010
0000
1000
0001
,
0100
0000
0000
0000
;

//---------------dance-single - ----------------
#NOTES:
     dance-single:
     :
     Challenge:
     14:
     0.629,0.771,0.211,0.211,0.393:
0000
0000
0000
0000
,
0000
0000
0000
0000
,
0000
0000
0000
0000
,
0000
0000
0000
0000
,
0000
0000
0000
0000
,
1000
0000
0100
0000
1000
0000
0100
0000
0010
0001
0010
0000
0100
0000
0000
0000
,
1000
0100
1000
0001
0100
0010
1000
0100
,
0001
1000
0001
1000
0001
1000
0001
1000
0001
1000
0001
1000
0001
1000
0001
1000
,
0001
0000
0010
0001
1000
0001
0100
0000
1000
0010
0000
0100
0002
0000
0010
0000
,
1003
0100
0000
0010
1000
0000
0000
0000
0010
0001
0000
0100
0010
0000
0000
0000
,
0100
0010
0000
0001
0100
0000
0000
0000
1000
0001
0000
0010
1000
0000
0000
0000
,
0100
1000
0000
0010
0100
0000
0000
0000
0001
0100
0000
1000
0001
0000
0000
0000
,
0010
0100
0000
1000
0010
0000
0000
0000
0001
0100
0000
1000
0001
0000
0000
0000
,
0010
0100
0000
1000
0010
0000
0000
0000
0001
0010
0000
1000
0001
0000
0000
0000
,
0010
0001
0000
0100
0010
0000
0000
0000
0001
0100
0000
1000
0010
0000
0000
0000
,
0100
0001
0000
0010
1000
0000
0000
0000
0010
0001
0000
0100
1000
0000
0000
0000
,
0001
0100
0000
0010
0001
0000
0000
0000
0100
1000
0000
0010
0100
0000
0000
0000
,
0101
0000
0110
0100
0000
0100
0100
0010
,
0010
0010
1000
0010
0100
0000
1000
0000
,
0001
0000
0000
0002
2000
0000
3003
0000
,
0010
0000
0000
0200
0020
0000
0330
0000
,
0001
0100
1000
0100
0001
0100
1000
0000
,
0001
0011
1100
0110
,
2002
0003
3100
0100
,
1001
0000
0000
0000
0010
0000
0000
0000
0100
0000
0010
0001
0010
0000
0100
1000
,
0100
0001
0010
0100
1000
0010
0100
0001
,
0010
0001
1000
0010
0001
0010
1000
0100
,
0010
0100
1000
0010
0100
0001
0010
0100
,
0010
0000
0001
0000
0100
0000
0120
0000
0000
0000
0130
0000
1000
0010
1000
0000
,
0100
0001
0010
0100
1000
0010
0100
0001
,
1000
0100
1000
0000
0110
0000
0000
0000
0100
0010
0100
0000
1010
0000
0000
0000
,
1100
0000
1001
0100
1000
0010
0100
0001
,
0010
0000
0100
0000
1000
0000
0200
0001
0000
0301
1000
0000
0010
0000
0001
0000
,
1000
0000
0001
0000
0100
1000
0100
0000
0010
0000
0001
0000
0100
0010
0100
0000
,
0010
0001
1000
0100
1000
0001
0010
0001
,
0100
1000
0010
1000
0001
0010
1000
0010
,
0001
0100
0001
0100
0010
0000
1000
0000
0100
1000
0000
0100
0001
0000
0000
0000
,
2002
0000
3003
0000
0001
0100
1000
0100
,
0002
0023
0230
2300
,
3001
0100
0010
1000
0000
1000
0010
1000
,
0010
0000
0100
0000
0000
0000
1000
0000
0100
0001
0000
1000
0001
0000
0001
1000
,
0100
1000
0100
0010
0100
0001
0100
0010
,
1000
0100
1000
0001
0100
1000
0010
2000
,
0100
0100
0100
0100
3000
0001
0010
1000
,
0100
0000
0000
0010
1000
0000
0000
0001
1000
0100
0000
0010
0001
0000
0100
0010
,
2000
0000
3000
0000
1010
0100
0001
0100
,
2010
0010
0100
3001
,
1001
0000
0010
1100
0000
0001
0010
0100
,
2000
0000
0001
0000
3000
0000
0100
0000
1000
0100
0000
0010
0100
0000
0001
0100
,
1000
0000
0000
1100
0000
0000
0101
0000
,
0110
0000
0010
0000
1000
0001
0100
0001
,
1000
0000
0001
0000
0100
0000
0010
0000
1000
0100
1000
0100
0010
0001
0010
0001
,
1000
0000
0100
0000
0000
0000
0100
0000
0010
0001
0000
0010
0100
0000
0001
0000
,
1000
0010
0100
1000
0001
0010
0100
0001
,
0010
0000
0000
1001
0000
0000
0200
0000
0000
0000
0000
0000
0300
0000
1000
0000
,
0001
0100
1000
0010
0100
0001
0010
0100
,
0001
0000
0000
0110
0000
0000
2000
0000
0000
0000
0000
0000
0000
0000
3001
0000
,
0010
1000
0100
0001
0100
1000
0100
0010
,
0001
0000
0000
1100
0000
0000
0010
0000
0000
0000
0100
0000
0001
0000
1000
0000
,
1000
0001
0100
0001
1000
0100
1000
0001
,
0001
0010
0100
0010
0100
1000
0001
0100
0010
0100
0010
1000
0100
1000
0100
1000
,
0002
0010
0100
1000
,
0100
1000
0100
0103
,
0001
1000
0200
0000
1000
0000
0301
0000
,
1000
0000
0100
0000
0001
0000
0010
0000
0100
1000
0000
0001
0100
0000
0000
0010
,
1000
0000
1100
0000
0100
0100
0001
0000
,
0010
0010
0100
0100
,
1000
0001
1000
0001
0010
0100
1000
0001
,
0010
0000
0100
0010
0100
0010
0100
1000
0000
1000
0100
0000
0001
0000
0010
0000
,
0220
0000
0000
0000
,
0000
0000
0000
0000
,
0000
0000
0000
0000
,
0000
0000
0000
0000
,
0330
0000
0000
0000
;
