#VERSION:0.81;
#TITLE:LOVE IS THE POWER -Re:born-;
#SUBTITLE:;
#ARTIST:NM;
#TITLETRANSLIT:;
#SUBTITLETRANSLIT:;
#ARTISTTRANSLIT:;
#GENRE:;
#ORIGIN:;
#CREDIT:;
#BANNER:LOVE IS THE POWER -Reborn-.png;
#BACKGROUND:LOVE IS THE POWER -Reborn--bg.png;
#PREVIEWVID:;
#JACKET:LOVE IS THE POWER -Reborn--jacket.png;
#CDIMAGE:;
#DISCIMAGE:;
#LYRICSPATH:;
#CDTITLE:./CDTITLES/DanceDanceRevolution X3.png;
#MUSIC:LOVE IS THE POWER -Reborn-.mp3;
#OFFSET:1.580;
#SAMPLESTART:15.680;
#SAMPLELENGTH:15.000;
#SELECTABLE:YES;
#DISPLAYBPM:125.000;
#BPMS:0.000=125.000;
#STOPS:;
#DELAYS:;
#WARPS:;
#TIMESIGNATURES:0.000=4=4;
#TICKCOUNTS:0.000=4;
#COMBOS:0.000=1;
#SPEEDS:0.000=1.000=0.000=0;
#SCROLLS:0.000=1.000;
#FAKES:;
#LABELS:0.000=Song Start;
#BGCHANGES:;
#KEYSOUNDS:;
#ATTACKS:
;

//---------------dance-single - ----------------
#NOTEDATA:;
#CHARTNAME:;
#STEPSTYPE:dance-single;
#DESCRIPTION:;
#CHARTSTYLE:;
#DIFFICULTY:Hard;
#METER:10;
#RADARVALUES:0.386,0.395,0.056,0.075,0.256,276.000,6.000,8.000,0.000,0.000,0.000,0.000,0.000,0.386,0.395,0.056,0.075,0.256,276.000,6.000,8.000,0.000,0.000,0.000,0.000,0.000;
#CREDIT:;
#OFFSET:1.580;
#BPMS:0.000=125.000
;
#STOPS:;
#DELAYS:;
#WARPS:;
#TIMESIGNATURES:0.000=4=4
;
#TICKCOUNTS:0.000=4
;
#COMBOS:0.000=1
;
#SPEEDS:0.000=1.000=0.000=0
;
#SCROLLS:0.000=1.000
;
#FAKES:;
#LABELS:0.000=Song Start
;
#DISPLAYBPM:125.000;
#NOTES:
0000
0000
0000
0000
,
0000
0000
0000
0000
,
0000
0000
0000
0000
,
0000
0000
0000
0000
,
0000
0000
0000
0000
,
0002
0010
2003
0010
,
3001
0000
0000
1000
0000
0000
0100
0000
0000
0000
0000
0000
0000
0000
0000
0000
,
2000
0010
3002
0010
,
1003
0000
0000
0001
0000
0000
0100
0000
0000
0000
0000
0000
0000
0000
0000
0000
,
0001
0000
1000
0000
0100
0000
0000
0010
0000
0010
0000
0000
0100
0000
0000
0000
,
1000
0000
0001
0000
0100
0000
0000
0010
0000
0010
0000
0000
0100
0000
0000
0000
,
0010
0000
1000
0000
0100
0000
0000
0010
0000
0010
0000
0000
0100
0000
0000
0000
,
0001
0000
0100
0000
0010
0000
0000
0100
0000
0100
0000
0000
0010
0000
0000
0000
,
0010
1000
0100
0000
1000
0001
0010
0000
,
0100
1000
0010
0000
1000
0001
0100
0000
,
0010
0100
0001
0000
1000
0100
0001
0000
,
0100
1000
0010
0100
0001
1000
0100
0000
,
0010
0100
0010
0100
0010
0100
0000
1000
0000
0001
0000
0000
0000
0000
0000
0000
,
0100
0010
1000
0010
,
0100
0010
0100
0010
0100
0010
0000
1000
0000
0001
0000
0000
1000
0000
0010
0100
,
0001
0000
0010
0000
1000
0001
1001
0000
,
0010
0100
0010
0100
0010
0100
0000
1000
0000
0001
0000
0000
0000
0000
0000
0000
,
0100
0001
0010
1000
,
0001
0100
0001
0100
0001
0100
0000
0010
0000
1000
0000
0000
0000
0000
0000
0000
,
0000
0000
0000
0000
,
1000
0100
0000
0100
0010
0000
0000
0000
0001
0100
0000
0100
0010
0000
0000
0000
,
1000
0010
0100
0001
,
0010
0001
0000
0001
0100
0000
0000
0000
0010
1000
0000
1000
0100
0000
0000
0000
,
0010
0100
1000
0001
,
0100
0010
0000
0010
1000
0000
0000
0000
0100
0010
0000
0010
0001
0000
0000
0000
,
0010
0100
1000
0010
,
1000
0001
0000
0001
0100
0000
0000
0000
0010
0100
0000
0100
0001
0000
0000
0000
,
0000
0000
0000
0000
,
0010
0001
0100
1000
,
2010
0001
0100
3001
,
0010
1000
0100
0001
,
0012
0000
1000
0000
0100
0010
0013
0000
,
1000
0001
0100
1000
,
0210
0001
1000
0301
,
0010
1000
0100
0001
,
0210
0000
1000
0000
0001
0010
0310
0000
,
0001
1000
0100
1000
0001
0010
0001
0100
,
1000
0001
0010
1000
0001
1000
0100
0010
,
0001
0100
0001
0010
1000
0100
1000
0001
,
0010
0001
1000
0010
0100
0001
0001
0000
,
1000
0001
0100
0001
1000
0010
1000
0100
,
0001
1000
0010
0001
1000
0001
0100
0010
,
1000
0100
1000
0010
0001
0100
0001
1000
,
0010
1000
0001
0010
0100
1000
1000
0000
,
0001
0000
0100
0000
0010
0000
0000
0100
0000
0100
0000
0000
0010
0000
0000
0000
,
1000
0000
0100
0000
0010
0000
0000
0100
0000
0100
0000
0000
0010
0000
0000
0000
,
0100
0000
0010
0000
0001
0000
0000
1000
0000
1000
0000
0000
0001
0000
0000
0000
,
0100
0000
0010
0000
1000
0000
0000
0001
0000
0001
0000
0000
1000
0000
0000
0000
,
1001
0000
0000
0000
;

//---------------dance-single - ----------------
#NOTEDATA:;
#CHARTNAME:;
#STEPSTYPE:dance-single;
#DESCRIPTION:;
#CHARTSTYLE:;
#DIFFICULTY:Challenge;
#METER:13;
#RADARVALUES:0.523,0.593,0.009,0.009,0.657,391.000,1.000,1.000,0.000,0.000,0.000,0.000,0.000,0.523,0.593,0.009,0.009,0.657,391.000,1.000,1.000,0.000,0.000,0.000,0.000,0.000;
#CREDIT:;
#OFFSET:1.580;
#BPMS:0.000=125.000
;
#STOPS:;
#DELAYS:;
#WARPS:;
#TIMESIGNATURES:0.000=4=4
;
#TICKCOUNTS:0.000=4
;
#COMBOS:0.000=1
;
#SPEEDS:0.000=1.000=0.000=0
;
#SCROLLS:0.000=1.000
;
#FAKES:;
#LABELS:0.000=Song Start
;
#DISPLAYBPM:125.000;
#NOTES:
0000
0000
0000
0000
,
0000
0000
0000
0000
,
0000
0000
0000
0000
,
0000
0000
0000
0000
,
0000
0000
0000
0000
,
0001
0000
0100
0001
0000
0100
0000
0000
0100
0000
0001
0100
0000
0001
0000
0000
,
0001
0100
0000
0001
0000
0000
0001
0000
0000
0000
0000
0000
0000
0000
0000
0000
,
1000
0000
0010
1000
0000
0010
0000
0000
0010
1000
0000
0010
0000
0000
0010
0000
,
1000
0010
0000
1000
0000
0000
1000
0000
0000
0000
0000
0000
0000
0000
0000
0000
,
1000
0000
0001
0000
0100
0010
0000
1000
0000
0010
0000
1000
0100
0000
0000
0000
,
0010
0000
0001
0000
0100
1000
0000
0001
0000
0010
0000
0100
0001
0000
0000
0000
,
0010
0000
1000
0000
0100
0001
0000
0010
0000
0001
0000
1000
0100
0000
0000
0000
,
0001
0000
0100
0000
0010
1000
0000
0100
0000
0001
0000
0100
0010
0000
0000
0000
,
0010
1000
0100
0000
0001
1000
0001
1000
0100
0000
0001
0000
0010
0100
1000
0100
,
1000
0000
0001
0000
0010
1000
0010
0100
0010
0000
0001
0000
0100
0001
0100
0001
,
0010
0000
0100
0000
1000
0010
1000
0010
0100
0000
0001
0000
0010
0001
1000
0001
,
0100
0000
1000
0000
0010
0001
0010
0001
1000
0000
0100
0000
0010
0000
0001
0000
,
0010
0100
0010
0100
0010
0100
0000
1000
0000
0001
0000
0000
1000
0000
0000
0000
,
0100
0000
0001
0000
0010
0001
0000
1000
0000
0001
0000
0010
1000
0000
0000
0000
,
0100
0010
0100
0010
0100
0010
0000
1000
0000
0001
0000
0000
0100
0000
0010
0001
,
0100
0000
0000
0000
0010
0000
0000
1000
0000
0000
0001
0000
0000
0001
0000
0000
,
0010
0100
0010
0100
0010
0100
0000
1000
0000
0001
0000
0000
0010
0000
0000
0000
,
0100
0000
1000
0000
0001
0010
0000
0010
0000
0001
0000
1000
0100
0000
0000
0000
,
0001
1000
0001
1000
0001
1000
0000
0010
0000
0200
0000
0000
0000
0000
0000
0000
,
0001
0000
0000
1000
1000
1000
1000
1000
,
1300
0100
0000
0100
0000
0010
0000
0000
0001
0100
0000
0100
0000
0010
0000
0000
,
0000
1000
0000
0100
0000
0010
0000
0001
0000
0000
0100
0000
0001
0000
1000
0000
,
0010
0001
0000
0001
0000
0100
0000
0000
0010
1000
0000
1000
0000
0100
0000
0000
,
0000
0001
0000
0100
0000
1000
0000
0010
0000
0000
0001
0000
0100
0000
1000
0000
,
0100
0010
0000
0010
0000
1000
0000
0000
0100
0010
0000
0010
0000
0001
0000
0000
,
0000
0010
0000
0001
0000
0100
0000
1000
0000
0000
0010
0000
0001
0000
0100
0000
,
1000
0001
0000
0001
0000
0100
0000
0000
0010
0100
0000
0100
0000
0001
0000
0000
,
0000
1000
0000
0001
0000
1000
0000
0100
0000
0000
0001
0000
1000
0000
0001
0100
,
0010
0000
0100
0000
0001
0000
1000
0000
0100
0010
0000
0010
0001
0000
1000
0000
,
0100
0010
0001
0010
0100
0010
0001
1000
,
0010
0000
0001
0000
1000
0000
0010
0000
0100
1000
0000
1000
0001
0000
0100
0000
,
0001
0000
0010
0000
1000
0000
0001
0000
0010
0000
0100
0010
0100
0000
0000
0000
,
1000
0000
0100
0000
0001
0000
0010
0000
0100
0001
0000
0001
1000
0000
0010
0000
,
1000
0100
0001
0100
1000
0010
0001
0100
,
0010
0000
0001
0000
1000
0000
0010
0000
0100
1000
0000
1000
0001
0000
0100
0000
,
0010
0000
1000
0000
0100
0000
0010
0000
0001
0000
0010
0100
0010
0000
0000
0000
,
0100
1000
0100
0010
1000
0001
0010
0100
,
0001
0100
1000
0010
0100
0001
1000
0100
,
1000
0010
0100
0010
0001
0100
1000
0001
,
0010
0001
1000
0010
0100
0010
0001
0000
,
0001
0010
1000
0100
0010
0100
1000
0001
,
0010
1000
0010
0001
0100
0001
0010
1000
,
0010
0001
0100
0010
0001
0100
1000
0100
,
0010
1000
0001
0010
1000
0100
1000
0000
,
0001
0000
0100
0000
0010
0001
0000
0100
0000
0100
0000
0001
0010
0000
0000
0000
,
1000
0000
0100
0000
0010
1000
0000
0100
0000
0100
0000
1000
0010
0000
0000
0000
,
0100
0000
0010
0000
0001
0010
0000
1000
0000
1000
0000
0010
0001
0000
0000
0000
,
0100
0000
0010
0000
1000
0100
0000
0001
0000
0001
0000
0100
1000
0000
0000
0000
,
1001
0000
0000
0000
;

//---------------dance-double - ----------------
#NOTEDATA:;
#CHARTNAME:;
#STEPSTYPE:dance-double;
#DESCRIPTION:;
#CHARTSTYLE:;
#DIFFICULTY:Hard;
#METER:10;
#RADARVALUES:0.386,0.395,0.056,0.075,0.256,276.000,6.000,8.000,0.000,0.000,0.000,0.000,0.000,0.386,0.395,0.056,0.075,0.256,276.000,6.000,8.000,0.000,0.000,0.000,0.000,0.000;
#CREDIT:;
#OFFSET:1.580;
#BPMS:0.000=125.000
;
#STOPS:;
#DELAYS:;
#WARPS:;
#TIMESIGNATURES:0.000=4=4
;
#TICKCOUNTS:0.000=4
;
#COMBOS:0.000=1
;
#SPEEDS:0.000=1.000=0.000=0
;
#SCROLLS:0.000=1.000
;
#FAKES:;
#LABELS:0.000=Song Start
;
#DISPLAYBPM:125.000;
#NOTES:
00000000
00000000
00000000
00000000
,
00000000
00000000
00000000
00000000
,
00000000
00000000
00000000
00000000
,
00000000
00000000
00000000
00000000
,
00000000
00000000
00000000
00000000
,
00002000
00000100
00023000
01000000
,
00031000
00000000
00000000
00010000
00000000
00000000
00001000
00000000
00000000
00000000
00000000
00000000
00000000
00000000
00000000
00000000
,
00020000
01000000
00032000
00000100
,
00013000
00000000
00000000
00001000
00000000
00000000
00010000
00000000
00000000
00000000
00000000
00000000
00000000
00000000
00000000
00000000
,
00000010
00000000
00001000
00000000
00000100
00000000
00000000
00000010
00000000
00000010
00000000
00000000
00000100
00000000
00000000
00000000
,
00000010
00000000
00000001
00000000
00000100
00000000
00000000
00001000
00000000
00001000
00000000
00000000
00010000
00000000
00000000
00000000
,
01000000
00000000
10000000
00000000
00100000
00000000
00000000
01000000
00000000
01000000
00000000
00000000
00100000
00000000
00000000
00000000
,
10000000
00000000
00010000
00000000
01000000
00000000
00000000
00010000
00000000
00010000
00000000
00000000
10000000
00000000
00000000
00000000
,
01000000
00100000
00010000
00000000
00001000
00000100
00000010
00000000
,
00000001
00000100
00000010
00000000
00001000
00000001
00000100
00000000
,
00000010
00000100
00001000
00000000
00010000
00100000
01000000
00000000
,
00001000
00010000
00100000
01000000
00100000
10000000
01000000
00000000
,
00100000
00001000
00100000
00001000
00100000
00001000
00000000
00010000
00000000
00000010
00000000
00000000
00000000
00000000
00000000
00000000
,
00000100
00000010
00001000
00000010
,
00000100
00000001
00000100
00000001
00000100
00000001
00000000
00001000
00000000
00000100
00000000
00000000
00000010
00000000
00000100
00010000
,
00001000
00000000
00100000
00000000
01000000
00100000
01100000
00000000
,
10000000
00010000
10000000
00010000
10000000
00010000
00000000
01000000
00000000
00100000
00000000
00000000
00000000
00000000
00000000
00000000
,
00010000
00001000
00000100
00000001
,
00001000
00000100
00001000
00000100
00001000
00000100
00000000
00000010
00000000
00000001
00000000
00000000
00000000
00000000
00000000
00000000
,
00000000
00000000
00000000
00000000
,
00010000
01000000
00000000
01000000
00100000
00000000
00000000
00000000
10000000
01000000
00000000
01000000
00100000
00000000
00000000
00000000
,
01000000
00010000
00000100
00000010
,
00000001
00001000
00000000
00001000
00000100
00000000
00000000
00000000
00000010
00000001
00000000
00000001
00000100
00000000
00000000
00000000
,
00000010
00010000
00001000
00100000
,
01000000
00100000
00000000
00100000
00010000
00000000
00000000
00000000
01000000
00100000
00000000
00100000
10000000
00000000
00000000
00000000
,
00100000
00010000
00000010
00000100
,
00000001
00001000
00000000
00001000
00000100
00000000
00000000
00000000
00000010
00000100
00000000
00000100
00001000
00000000
00000000
00000000
,
00000000
00000000
00000000
00000000
,
00000001
00001000
00010000
10000000
,
00120000
01000000
00100000
01030000
,
10000000
00010000
00001000
00000001
,
00002010
00000000
00000100
00000000
00000010
00000100
00003100
00000000
,
00000001
00001000
00010000
10000000
,
00120000
01000000
00100000
01030000
,
10000000
00010000
00001000
00000001
,
00002010
00000000
00000100
00000000
00000010
00000100
00003100
00000000
,
00000010
00000001
00000100
00000001
00001000
00000010
00010000
00001000
,
00000100
00001000
00010000
00100000
01000000
00010000
10000000
01000000
,
00010000
00001000
00000010
00010000
00000010
00001000
00010000
00000010
,
00000100
00001000
00000001
00000010
00000100
00001000
00001000
00000000
,
00010000
01000000
10000000
00010000
01000000
00100000
00010000
00100000
,
01000000
00001000
00010000
00000010
00000100
00010000
00000100
00000001
,
00000010
00000100
00010000
00001000
00010000
01000000
00001000
01000000
,
00100000
00010000
01000000
00100000
10000000
01000000
01000000
00000000
,
00100000
00000000
00001000
00000000
00010000
00000000
00000000
00001000
00000000
00001000
00000000
00000000
00000010
00000000
00000000
00000000
,
00000001
00000000
00000100
00000000
00000010
00000000
00000000
00000100
00000000
00000100
00000000
00000000
00000010
00000000
00000000
00000000
,
00000100
00000000
00001000
00000000
00010000
00000000
00000000
01000000
00000000
01000000
00000000
00000000
10000000
00000000
00000000
00000000
,
00100000
00000000
10000000
00000000
00010000
00000000
00000000
00100000
00000000
00100000
00000000
00000000
00001000
00000000
00000000
00000000
,
00011000
00000000
00000000
00000000
;

//---------------dance-double - ----------------
#NOTEDATA:;
#CHARTNAME:;
#STEPSTYPE:dance-double;
#DESCRIPTION:;
#CHARTSTYLE:;
#DIFFICULTY:Challenge;
#METER:13;
#RADARVALUES:0.523,0.593,0.009,0.009,0.657,391.000,1.000,1.000,0.000,0.000,0.000,0.000,0.000,0.523,0.593,0.009,0.009,0.657,391.000,1.000,1.000,0.000,0.000,0.000,0.000,0.000;
#CREDIT:;
#OFFSET:1.580;
#BPMS:0.000=125.000
;
#STOPS:;
#DELAYS:;
#WARPS:;
#TIMESIGNATURES:0.000=4=4
;
#TICKCOUNTS:0.000=4
;
#COMBOS:0.000=1
;
#SPEEDS:0.000=1.000=0.000=0
;
#SCROLLS:0.000=1.000
;
#FAKES:;
#LABELS:0.000=Song Start
;
#DISPLAYBPM:125.000;
#NOTES:
// measure 0
00000000
00000000
00000000
00000000
,  // measure 1
00000000
00000000
00000000
00000000
,  // measure 2
00000000
00000000
00000000
00000000
,  // measure 3
00000000
00000000
00000000
00000000
,  // measure 4
00000000
00000000
00000000
00000000
,  // measure 5
00000010
00000000
00000100
00010000
00000000
00001000
00000000
00000000
01000000
00000000
00010000
00100000
00000000
00001000
00000000
00000000
,  // measure 6
00000010
00001000
00000000
00010000
00000000
00000000
00100000
00000000
00000000
00000000
00000000
00000000
00000000
00000000
00000000
00000000
,  // measure 7
00100000
00000000
01000000
00001000
00000000
00010000
00000000
00000000
00100000
00001000
00000000
00010000
00000000
00000000
00000100
00000000
,  // measure 8
00010000
00000010
00000000
00000100
00000000
00000000
01000000
00000000
00000000
00000000
00000000
00000000
00000000
00000000
00000000
00000000
,  // measure 9
01000000
00000000
00001000
00000000
00010000
00100000
00000000
00001000
00000000
00100000
00000000
00010000
00000100
00000000
00000000
00000000
,  // measure 10
00000001
00000000
00000100
00000000
00001000
00000010
00000000
00010000
00000000
00001000
00000000
00000100
00000010
00000000
00000000
00000000
,  // measure 11
00000100
00000000
00001000
00000000
01000000
00100000
00000000
00010000
00000000
10000000
00000000
01000000
00001000
00000000
00000000
00000000
,  // measure 12
00000001
00000000
00000100
00000000
00001000
00100000
00000000
00010000
00000000
10000000
00000000
01000000
00100000
00000000
00000000
00000000
,  // measure 13
00001000
00100000
00010000
00000000
00001000
00010000
00001000
00010000
00100000
00000000
00001000
00000000
00000010
00001000
00000010
00001000
,  // measure 14
00000100
00000000
00010000
00000000
00100000
01000000
00100000
01000000
00010000
00000000
00001000
00000000
00010000
00000100
00010000
00000100
,  // measure 15
00001000
00000000
00000010
00000000
00001000
00000100
00001000
00000100
00000010
00000000
00010000
00000000
00001000
00010000
00001000
00010000
,  // measure 16
01000000
00000000
00010000
00000000
00000100
00010000
00000100
00010000
00001000
00000000
00010000
00000000
01000000
00000000
00001000
00000000
,  // measure 17
00010000
00001000
00010000
00001000
00010000
00001000
00000000
00000010
00000000
00000100
00000000
00000000
00000001
00000000
00000000
00000000
,  // measure 18
00000010
00000000
00000100
00000000
00000010
00001000
00000000
00000100
00000000
00000010
00000000
00000100
00001000
00000000
00000000
00000000
,  // measure 19
00010000
00001000
00010000
00001000
00010000
00001000
00000000
00100000
00000000
10000000
00000000
00000000
00010000
00000000
00100000
10000000
,  // measure 20
01000000
00000000
00000000
00000000
00100000
00000000
00000000
00010000
00000000
00000000
00000100
00000000
00000000
00000001
00000000
00000000
,  // measure 21
00001000
00000001
00001000
00000001
00001000
00000001
00000000
00000100
00000000
00001000
00000000
00000000
00010000
00000000
00000000
00000000
,  // measure 22
10000000
00000000
01000000
00000000
00010000
00001000
00000000
00000010
00000000
00000001
00000000
00000100
00010000
00000000
00000000
00000000
,  // measure 23
00100000
00010000
00100000
00010000
00100000
00010000
00000000
01000000
00000000
00200000
00000000
00000000
00000000
00000000
00000000
00000000
,  // measure 24
00010000
00000000
00000000
00001000
00001000
00001000
00001000
00001000
,  // measure 25
00310000
00100000
00000000
00100000
00000000
10000000
00000000
00000000
00100000
00010000
00000000
00010000
00000000
10000000
00000000
00000000
,  // measure 26
00000000
00010000
00000000
10000000
00000000
01000000
00000000
00001000
00000000
00000000
00100000
00000000
00010000
00000000
00001000
00000000
,  // measure 27
00000100
00001000
00000000
00001000
00000000
00000010
00000000
00000000
00001000
00000001
00000000
00000001
00000000
00000010
00000000
00000000
,  // measure 28
00000000
00001000
00000000
00000001
00000000
00000010
00000000
00010000
00000000
00000000
00100000
00000000
00010000
00000000
00000100
00000000
,  // measure 29
00000001
00001000
00000000
00001000
00000000
00000010
00000000
00000000
00000100
00010000
00000000
00010000
00000000
00001000
00000000
00000000
,  // measure 30
00000000
00000010
00000000
00010000
00000000
00001000
00000000
01000000
00000000
00000000
00001000
00000000
00010000
00000000
01000000
00000000
,  // measure 31
10000000
00010000
00000000
00010000
00000000
01000000
00000000
00000000
00000100
00001000
00000000
00001000
00000000
00000001
00000000
00000000
,  // measure 32
00000000
00000010
00000000
00001000
00000000
00000010
00000000
00001000
00000000
00000000
00001000
00000000
00000001
00000000
00001000
00000100
,  // measure 33
00010000
00000000
00000100
00000000
00010000
00000000
00100000
00000000
00010000
01000000
00000000
01000000
00010000
00000000
00001000
00000000
,  // measure 34
00000010
00000001
00000010
00001000
00010000
10000000
00010000
00100000
,  // measure 35
00010000
00000000
00000100
00000000
00001000
00000000
00000010
00000000
00000100
00001000
00000000
00001000
00000010
00000000
00000001
00000000
,  // measure 36
00001000
00000000
00010000
00000000
00100000
00000000
01000000
00000000
00100000
00000000
10000000
00100000
00010000
00000000
00000000
00000000
,  // measure 37
10000000
00000000
01000000
00000000
00010000
00000000
00100000
00000000
01000000
00010000
00000000
00010000
00100000
00000000
00001000
00000000
,  // measure 38
00100000
01000000
00010000
00001000
00000010
00001000
00010000
00100000
,  // measure 39
00001000
00000000
00000100
00000000
00000001
00000000
00000100
00000000
00001000
00000010
00000000
00000010
00010000
00000000
00001000
00000000
,  // measure 40
00000001
00000000
00001000
00000000
00010000
00000000
00000100
00000000
00001000
00000000
00010000
01000000
00100000
00000000
00000000
00000000
,  // measure 41
10000000
00100000
01000000
00010000
00001000
00010000
00100000
00010000
,  // measure 42
00000010
00000100
00001000
00000010
00000100
00000001
00001000
00000100
,  // measure 43
00010000
00100000
01000000
00100000
10000000
00100000
00010000
00000100
,  // measure 44
00000001
00000100
00001000
00010000
00100000
10000000
00100000
00000000
,  // measure 45
00010000
00100000
10000000
01000000
00010000
00001000
00000100
00000001
,  // measure 46
00000100
00001000
00000010
00010000
00100000
00010000
00001000
00000010
,  // measure 47
00001000
00010000
01000000
00010000
10000000
01000000
00010000
01000000
,  // measure 48
00100000
00001000
00010000
00001000
00000010
00000001
00000010
00000000
,  // measure 49
00010000
00000000
01000000
00000000
00100000
00010000
00000000
00001000
00000000
00010000
00000000
00000010
00000100
00000000
00000000
00000000
,  // measure 50
00001000
00000000
00000100
00000000
00000010
00010000
00000000
00001000
00000000
00100000
00000000
01000000
00010000
00000000
00000000
00000000
,  // measure 51
01000000
00000000
00100000
00000000
00010000
00000100
00000000
00000010
00000000
00010000
00000000
00001000
01000000
00000000
00000000
00000000
,  // measure 52
00000100
00000000
00000010
00000000
00010000
00000100
00000000
00001000
00000000
00100000
00000000
01000000
00010000
00000000
00000000
00000000
,  // measure 53
00011000
00000000
00000000
00000000
;

//---------------dance-single - ----------------
#NOTEDATA:;
#CHARTNAME:;
#STEPSTYPE:dance-single;
#DESCRIPTION:;
#CHARTSTYLE:;
#DIFFICULTY:Beginner;
#METER:1;
#RADARVALUES:0.117,0.123,0.019,0.009,0.000,85.000,2.000,1.000,0.000,0.000,0.000,0.000,0.000,0.117,0.123,0.019,0.009,0.000,85.000,2.000,1.000,0.000,0.000,0.000,0.000,0.000;
#CREDIT:;
#OFFSET:1.580;
#BPMS:0.000=125.000
;
#STOPS:;
#DELAYS:;
#WARPS:;
#TIMESIGNATURES:0.000=4=4
;
#TICKCOUNTS:0.000=4
;
#COMBOS:0.000=1
;
#SPEEDS:0.000=1.000=0.000=0
;
#SCROLLS:0.000=1.000
;
#FAKES:;
#LABELS:0.000=Song Start
;
#DISPLAYBPM:125.000;
#NOTES:
0000
0000
0000
0000
,
0000
0000
0000
0000
,
0000
0000
0000
0000
,
0000
0000
0000
0000
,
0000
0000
0000
0000
,
1000
0000
0000
0000
,
0010
0000
0000
0000
,
0001
0000
0000
0000
,
0100
0000
0000
0000
,
0000
1000
0000
1000
,
0000
1000
0000
1000
,
0000
0001
0000
0001
,
0000
0001
0000
0001
,
0000
0100
0000
1000
,
0000
0010
0000
0100
,
0000
0100
0000
0001
,
0000
0010
0000
0100
,
0010
0010
0010
0000
,
0000
0001
0000
1000
,
0100
0100
0100
0000
,
0002
0000
0003
0000
,
0010
0010
0010
0000
,
0000
0100
0000
1000
,
0100
0100
0100
0000
,
0000
0000
0000
0000
,
0001
0000
0010
0000
,
0000
0000
0000
0000
,
1000
0000
0010
0000
,
0000
0000
0000
0000
,
0001
0000
0100
0000
,
0000
0000
0000
0000
,
1000
0000
0100
0000
,
0000
0000
0000
0000
,
0000
1000
0000
0001
,
0000
1000
0000
0100
,
0000
0001
0000
1000
,
0000
0001
0000
0100
,
0000
1000
0000
0001
,
0000
1000
0000
0010
,
0000
0001
0000
1000
,
0000
0001
0000
0010
,
0001
0001
0001
0000
,
0010
0000
0010
0000
,
1000
1000
1000
0000
,
0010
0000
0010
0000
,
0100
0100
0100
0000
,
0010
0000
0010
0000
,
0001
0001
0001
0000
,
1000
0000
1000
0000
,
0000
0000
0000
0000
,
1001
0000
0000
0000
,
0100
0000
0000
0000
,
0010
0000
0000
0000
,
1001
0000
0000
0000
;

//---------------dance-single - ----------------
#NOTEDATA:;
#CHARTNAME:;
#STEPSTYPE:dance-single;
#DESCRIPTION:;
#CHARTSTYLE:;
#DIFFICULTY:Easy;
#METER:5;
#RADARVALUES:0.220,0.222,0.047,0.037,0.000,156.000,5.000,4.000,0.000,0.000,0.000,0.000,0.000,0.220,0.222,0.047,0.037,0.000,156.000,5.000,4.000,0.000,0.000,0.000,0.000,0.000;
#CREDIT:;
#OFFSET:1.580;
#BPMS:0.000=125.000
;
#STOPS:;
#DELAYS:;
#WARPS:;
#TIMESIGNATURES:0.000=4=4
;
#TICKCOUNTS:0.000=4
;
#COMBOS:0.000=1
;
#SPEEDS:0.000=1.000=0.000=0
;
#SCROLLS:0.000=1.000
;
#FAKES:;
#LABELS:0.000=Song Start
;
#DISPLAYBPM:125.000;
#NOTES:
0000
0000
0000
0000
,
0000
0000
0000
0000
,
0000
0000
0000
0000
,
0000
0000
0000
0000
,
0000
0000
0000
0000
,
0002
0000
0003
0000
,
0020
0000
0030
0000
,
2000
0000
3000
0000
,
0200
0000
0300
0000
,
0001
0100
0000
0100
,
1000
0100
0000
0100
,
0010
0100
0000
0100
,
0001
0100
0000
0100
,
0010
0100
1000
0001
,
1000
0010
1000
0100
,
0010
0100
0001
1000
,
0001
0010
0001
0100
,
0100
0010
1000
0001
,
0010
0010
0010
1001
,
0001
0100
0001
1000
,
0000
0010
1000
0001
,
0100
0010
1000
0001
,
0100
0100
0100
1001
,
0001
0100
0001
1000
,
0000
0010
0001
1000
,
1000
0000
0001
0000
1000
0100
0000
0000
,
0000
0000
1000
1000
,
0010
0000
0001
0000
1000
0100
0000
0000
,
0000
1001
0000
0010
,
0010
0000
0001
0000
0001
0100
0000
0000
,
0000
1000
0001
1000
,
1000
0000
0001
0000
1000
0100
0000
0000
,
0000
0000
0000
0000
,
0010
0001
0100
1000
,
0010
0001
1000
0100
,
0010
1000
0100
0001
,
0010
0000
1000
0000
0001
0100
0100
0000
,
0000
0001
0100
1000
,
0010
0001
1000
0100
,
0000
1000
0100
0001
,
0010
0000
1000
0000
0001
0100
0100
0000
,
0000
1000
0001
0001
,
1000
0010
0001
0100
,
0001
0001
1000
1000
,
0010
0000
1000
0000
0100
0001
0001
0000
,
0000
0100
1000
0100
,
0001
0010
1000
0100
,
0000
0100
0001
0100
,
1000
0000
0010
0000
0001
1000
1000
0000
,
0000
0000
0000
0000
,
1001
0000
0000
0000
,
0100
0100
0000
0000
0000
0000
0000
0000
,
0010
0010
0010
0010
,
1001
0000
0000
0000
;

//---------------dance-single - ----------------
#NOTEDATA:;
#CHARTNAME:;
#STEPSTYPE:dance-single;
#DESCRIPTION:;
#CHARTSTYLE:;
#DIFFICULTY:Medium;
#METER:7;
#RADARVALUES:0.291,0.272,0.019,0.075,0.000,209.000,2.000,8.000,0.000,0.000,0.000,0.000,0.000,0.291,0.272,0.019,0.075,0.000,209.000,2.000,8.000,0.000,0.000,0.000,0.000,0.000;
#CREDIT:;
#OFFSET:1.580;
#BPMS:0.000=125.000
;
#STOPS:;
#DELAYS:;
#WARPS:;
#TIMESIGNATURES:0.000=4=4
;
#TICKCOUNTS:0.000=4
;
#COMBOS:0.000=1
;
#SPEEDS:0.000=1.000=0.000=0
;
#SCROLLS:0.000=1.000
;
#FAKES:;
#LABELS:0.000=Song Start
;
#DISPLAYBPM:125.000;
#NOTES:
0000
0000
0000
0000
,
0000
0000
0000
0000
,
0000
0000
0000
0000
,
0000
0000
0000
0000
,
0000
0000
0000
0000
,
2000
0010
3002
0010
,
1003
0001
0100
0000
,
0002
0010
2003
0010
,
3001
1000
0100
0000
,
1000
0001
0100
0000
0000
0000
0100
0000
,
0001
1000
0100
0000
0000
0000
0100
0000
,
0010
0001
0100
0000
0000
0000
0100
0000
,
1000
0100
0010
0000
0000
0000
0010
0000
,
0010
0001
0100
0000
0001
0000
0010
0000
,
0100
0001
0010
0000
0001
0000
0100
0000
,
0010
0100
1000
0000
0001
0000
1000
0000
,
0100
0001
0010
0000
1000
0000
0100
0000
,
0010
0010
0010
0000
1000
0001
0010
0000
,
0100
0010
0001
0010
,
0100
0100
0100
0000
1000
0100
0001
0000
,
1000
0010
0001
1001
,
0010
0010
0010
0000
0001
1000
0010
0000
,
0100
1000
0010
0001
,
1000
1000
1000
0000
0010
0001
0100
0000
,
0000
0000
0000
0000
,
0001
0000
0010
0000
1000
0100
0010
0000
,
0001
0010
0100
1000
,
0010
0000
0100
0000
0010
0001
0100
0000
,
0010
0100
0001
1000
,
0100
0000
0001
0000
0100
0010
1000
0000
,
0010
0100
0001
0010
,
0001
0000
0100
0000
0010
0100
1000
0000
,
0000
0000
0000
0000
,
0010
1000
0100
0010
,
0002
1000
0100
1003
,
0010
0001
0100
0010
,
2000
0000
0001
0000
3100
0010
0010
0000
,
0001
1000
0100
0001
,
0200
1000
0001
1300
,
0010
0001
0100
1000
,
0200
0000
0001
0000
1300
0010
0010
0000
,
1000
0100
1000
1000
,
0001
1000
0010
0000
1000
0001
0100
0000
,
1000
0010
0001
0100
,
0010
1000
0001
0000
0100
1000
1000
0000
,
0001
0100
0001
0001
,
1000
0001
0010
0000
0001
1000
0100
0000
,
0001
0010
1000
0100
,
0010
0001
1000
0000
0100
0001
0001
0000
,
1000
0100
0010
0000
0000
0000
0010
0000
,
0001
0100
0010
0000
0000
0000
0010
0000
,
0100
0010
1000
0000
0000
0000
1000
0000
,
0100
0010
0001
0000
0000
0000
0001
0000
,
1001
0000
0000
0000
;

//---------------dance-double - ----------------
#NOTEDATA:;
#CHARTNAME:;
#STEPSTYPE:dance-double;
#DESCRIPTION:;
#CHARTSTYLE:;
#DIFFICULTY:Easy;
#METER:5;
#RADARVALUES:0.233,0.296,0.121,0.037,0.000,158.000,13.000,4.000,0.000,0.000,0.000,0.000,0.000,0.233,0.296,0.121,0.037,0.000,158.000,13.000,4.000,0.000,0.000,0.000,0.000,0.000;
#CREDIT:;
#OFFSET:1.580;
#BPMS:0.000=125.000
;
#STOPS:;
#DELAYS:;
#WARPS:;
#TIMESIGNATURES:0.000=4=4
;
#TICKCOUNTS:0.000=4
;
#COMBOS:0.000=1
;
#SPEEDS:0.000=1.000=0.000=0
;
#SCROLLS:0.000=1.000
;
#FAKES:;
#LABELS:0.000=Song Start
;
#DISPLAYBPM:125.000;
#NOTES:
00000000
00000000
00000000
00000000
,
00000000
00000000
00000000
00000000
,
00000000
00000000
00000000
00000000
,
00000000
00000000
00000000
00000000
,
00000000
00000000
00000000
00000000
,
20000000
00000000
30000000
00000000
,
02000000
00000000
03000000
00000000
,
00020000
00000000
00030000
00000000
,
00002000
00000000
00003000
00000000
,
00000100
00000010
00000000
00000010
,
00001000
00000001
00000000
00000001
,
00000100
00001000
00000000
00001000
,
00010000
01000000
00000000
01000000
,
00100000
01000000
00010000
00001000
,
00001001
00000010
00001000
00000100
,
00000010
00000100
00001000
00010000
,
10010000
00100000
00010000
01000000
,
00010000
00001000
00000010
00000001
,
00000010
00000110
00000100
00001001
,
00001000
00010000
10000000
01000000
,
00000000
00000000
00100000
00000000
00000000
10000000
00010000
00000000
,
00010000
00001000
00000010
00000001
,
00000010
00000110
00000100
00001001
,
00001000
00010000
10000000
01000000
,
00110000
00011000
00001100
00000101
,
00000010
00000000
00000001
00000000
00001000
00000100
00000000
00000000
,
00000000
00000000
00001000
00010000
,
00100000
00000000
00010000
00000000
10000000
01000000
00000000
00000000
,
00000000
10010000
00000000
00100000
,
00010000
00000000
00001000
00000000
00000100
00000010
00000000
00000000
,
00000000
00000001
00001000
00000001
,
00001000
00000000
00010000
00000000
10000000
01000000
00000000
00000000
,
00000000
00000000
00000000
00000000
,
00000010
00000001
00000100
00001000
,
00010000
00100000
10000000
01000000
,
00010000
00001000
00010000
01000000
,
00100000
00000000
00001000
00000000
00000100
00000010
00000010
00000000
,
00000000
00010000
01000000
10000000
,
00100000
00010000
00001000
00000100
,
00000000
00010000
00001000
00000100
,
00000010
00000000
00001000
00000000
00010000
01000000
01000000
00000000
,
00000000
00001000
00010000
01000000
,
00010000
00100000
00010000
00001000
,
00000001
00000001
00001000
00001000
,
00000010
00000000
00001000
00000000
01000000
00010000
00010000
00000000
,
00000000
00010000
00001000
00000001
,
00000001
00000010
00001000
00000100
,
00000000
01000000
10000000
01000000
,
10000000
00000000
00100000
00000000
00000010
00001000
00001000
00000000
,
00000000
00000000
00000000
00000000
,
10010000
00000000
00000000
00000000
,
00000100
00000100
00000000
00000000
00000000
00000000
00000000
00000000
,
00100000
00000000
01000000
00000000
00100000
01000000
00100000
00000000
,
10010000
00000000
00000000
00000000
;

//---------------dance-double - ----------------
#NOTEDATA:;
#CHARTNAME:;
#STEPSTYPE:dance-double;
#DESCRIPTION:;
#CHARTSTYLE:;
#DIFFICULTY:Medium;
#METER:7;
#RADARVALUES:0.291,0.272,0.019,0.075,0.000,209.000,2.000,8.000,0.000,0.000,0.000,0.000,0.000,0.291,0.272,0.019,0.075,0.000,209.000,2.000,8.000,0.000,0.000,0.000,0.000,0.000;
#CREDIT:;
#OFFSET:1.580;
#BPMS:0.000=125.000
;
#STOPS:;
#DELAYS:;
#WARPS:;
#TIMESIGNATURES:0.000=4=4
;
#TICKCOUNTS:0.000=4
;
#COMBOS:0.000=1
;
#SPEEDS:0.000=1.000=0.000=0
;
#SCROLLS:0.000=1.000
;
#FAKES:;
#LABELS:0.000=Song Start
;
#DISPLAYBPM:125.000;
#NOTES:
00000000
00000000
00000000
00000000
,
00000000
00000000
00000000
00000000
,
00000000
00000000
00000000
00000000
,
00000000
00000000
00000000
00000000
,
00000000
00000000
00000000
00000000
,
00000002
00000010
00002003
00000010
,
00003100
00010000
00001000
00000000
,
00200000
00010000
02300000
10000000
,
03100000
00010000
01000000
00000000
,
00100000
10000000
01000000
00000000
00000000
00000000
01000000
00000000
,
00010000
00001000
00010000
00000000
00000000
00000000
00010000
00000000
,
00000010
00001000
00000100
00000000
00000000
00000000
00000100
00000000
,
00000010
00000001
00001000
00000000
00000000
00000000
00001000
00000000
,
00000010
00010000
00001000
00000000
00010000
00000000
01000000
00000000
,
10000000
00010000
01000000
00000000
00100000
00000000
10000000
00000000
,
01000000
00010000
00001000
00000000
00000010
00000000
00000100
00000000
,
00000010
00000001
00000010
00000000
00000001
00000000
00001000
00000000
,
00000100
00000100
00000100
00000000
00010000
00001000
00100000
00000000
,
00001000
00010000
01000000
10000000
,
00010000
00010000
00010000
00000000
01000000
00100000
00010000
00000000
,
00001000
00000100
00000001
00001001
,
00000010
00000010
00000010
00000000
00000100
00010000
00001000
00000000
,
00010000
01000000
10000000
00100000
,
01000000
01000000
01000000
00000000
00100000
10000000
01000000
00000000
,
00000000
00000000
00000000
00000000
,
00001000
00000000
00000010
00000000
00000001
00000100
00000010
00000000
,
00001000
00000010
00000100
00001000
,
00010000
00000000
01000000
00000000
10000000
00010000
01000000
00000000
,
00100000
00010000
00001000
00000010
,
00000100
00000000
00001000
00000000
00000100
00000010
00000001
00000000
,
00000100
00001000
00010000
01000000
,
00100000
00000000
00010000
00000000
10000000
00010000
01000000
00000000
,
00000000
00000000
00000000
00000000
,
00001000
00000100
00000001
00000010
,
00002000
00000001
00000100
00003001
,
00000010
00001000
00010000
01000000
,
20000000
00000000
00010000
00000000
31000000
00100000
00100000
00000000
,
00010000
00001000
00000100
00000010
,
00000002
00000100
00001000
00000103
,
00001000
00010000
00100000
10000000
,
02000000
00000000
00010000
00000000
13000000
00100000
00100000
00000000
,
01000000
00100000
10000000
00010000
,
00001000
00010000
00001000
00000000
00000100
00000010
00000100
00000000
,
00000010
00000001
00000100
00001000
,
01000000
00001000
00010000
00000000
00000010
00001000
00000100
00000000
,
00000010
00001000
00010000
00100000
,
01000000
00100000
10000000
00000000
01000000
00100000
00010000
00000000
,
00001000
00000001
00000010
00000001
,
00001000
00000010
00000100
00000000
00000010
00001000
00001000
00000000
,
00000001
00001000
00000100
00000000
00000000
00000000
00000100
00000000
,
00010000
00001000
00010000
00000000
00000000
00000000
00001000
00000000
,
01000000
10000000
01000000
00000000
00000000
00000000
01000000
00000000
,
00100000
00010000
01000000
00000000
00000000
00000000
01000000
00000000
,
10010000
00000000
00000000
00000000
;
