#TITLE:紅焔;
#SUBTITLE:;
#ARTIST:PON;
#TITLETRANSLIT:Kouen;
#SUBTITLETRANSLIT:;
#ARTISTTRANSLIT:;
#GENRE:;
#CREDIT:;
#BANNER:Kouen.png;
#BACKGROUND:Kouen-bg.png;
#LYRICSPATH:;
#CDTITLE:./CDTITLES/pop'n music Sunny Park.png;
#MUSIC:Kouen.ogg;
#OFFSET:0.000;
#SAMPLESTART:51.730;
#SAMPLELENGTH:15.000;
#SELECTABLE:YES;
#BPMS:0.000=175.000
;
#STOPS:
;
#BGCHANGES:;
#KEYSOUNDS:;
#ATTACKS:;

//---------------dance-single - ----------------
#NOTES:
     dance-single:
     :
     Challenge:
     15:
     0.907,0.936,0.683,0.310,0.678,604.000,77.000,35.000,0.000,0.000,0.000,0.907,0.936,0.683,0.310,0.678,604.000,77.000,35.000,0.000,0.000,0.000:
0000
0000
0000
0000
,
0000
0000
0000
0000
,
0000
0000
0000
0000
,
0001
0100
0001
0100
0000
0010
0100
0000
0001
0100
0001
0100
0000
0010
0100
0000
,
0001
0100
0001
0100
0000
0010
0100
0000
0110
0000
0000
0000
0001
0000
0010
0000
,
0100
1010
0100
0011
,
1000
0000
0110
0000
0002
0000
1003
0100
,
0010
0101
0010
1100
,
2002
0000
0000
0000
3003
0000
0010
0100
,
1000
0101
1000
0011
,
1100
0000
1010
0000
2001
0000
3100
0020
,
0031
0000
0000
0000
0011
0000
0000
0000
0101
0000
0000
2002
0000
0000
3003
0000
,
1000
0000
0000
0010
1000
0000
0010
0000
1010
0000
0000
0001
1000
0000
0100
0000
,
1100
0000
0000
0010
1000
0000
0100
0000
1000
0010
1000
0000
1000
0100
0010
0000
,
0001
0000
0000
0010
0001
0000
0010
0000
0011
0000
0000
1000
0001
0000
0100
0000
,
0101
0000
0000
0010
0001
0000
0100
0000
0001
0010
0001
0000
0001
0100
0010
0000
,
0100
0000
0000
0001
0100
0000
1000
0000
0100
0000
0000
1000
0100
0000
0001
0000
,
0100
0000
0000
0010
0100
0000
0100
0000
0001
1000
0010
0000
0010
1000
0001
0000
,
1000
0100
1000
0100
0000
0010
0100
0000
1000
0100
1000
0100
0000
0010
0100
0000
,
1000
0100
1000
0100
0000
0010
0100
0000
1000
0100
1000
0001
0100
0001
0100
0000
,
0101
0000
0010
0001
0100
0001
0010
0001
,
0100
1000
0010
1000
0100
1000
0010
0000
,
0001
0000
0000
0001
1000
0000
0001
0000
1001
0000
0000
1000
0001
0000
0100
0000
,
0110
0000
0000
0010
0100
0000
0010
0000
1000
0010
1000
0000
1000
0100
1000
0000
,
1100
0000
1000
0010
0001
0010
0100
0010
,
1000
0100
0001
0100
0010
0100
1000
0000
,
0001
0000
0000
0001
0100
0000
0010
0000
1010
0000
0000
1000
0100
0000
0010
0000
,
0011
0000
0000
0001
0100
0000
0010
0000
1000
0100
1000
0000
0001
1000
0001
0000
,
1001
0000
0000
0001
0010
0000
0100
0000
0010
0000
0001
0000
0100
0000
0100
0000
,
0001
0000
1000
0010
1000
0000
0010
0000
0100
0000
0000
0000
0010
0000
0100
0000
,
0100
0000
1001
0000
0010
1000
0100
0010
,
0001
0000
0000
1000
0000
0000
0010
0000
0001
0100
0010
0000
1000
0100
0010
0000
,
0001
0001
0100
0010
1000
0100
1000
1000
,
0010
0000
0100
0001
0100
0000
0010
0000
0100
0000
0000
0000
0010
0000
0010
0000
,
0001
0000
0110
0000
0000
0000
0000
0000
1000
0000
0110
0000
0000
0000
1000
0100
,
0010
0000
0000
1100
0000
0000
0012
0000
0000
0000
0000
0000
0103
0000
0010
0000
,
1000
0100
0010
0001
0100
0010
0001
0010
,
0100
0000
0000
0100
0000
0000
0010
0000
1100
0000
0101
0000
0000
0000
0000
0000
,
2002
0000
0000
0000
3003
0000
0000
0000
1000
0000
0000
0001
0000
0000
0010
0000
,
0100
0010
0100
0000
0020
0000
0000
0000
0130
0000
0000
0000
0010
0000
0100
0000
,
1000
0000
0010
0000
0001
0000
0010
0000
0100
0000
0100
0001
0000
0001
1000
0000
,
0100
0010
0012
0000
0103
0000
0100
0010
,
2010
0000
0000
0000
3100
0000
0000
0000
0010
0000
0010
0001
0000
0001
0100
0000
,
0010
0100
0020
0000
0130
0000
0001
1000
,
1100
0000
0011
0000
1010
0001
0010
1000
,
0010
0100
0010
0100
0000
0001
0100
0000
0001
0000
1000
0010
0100
0001
1000
0000
,
0020
2030
0002
0000
3003
0000
0000
0000
0101
0000
0000
1001
0000
0000
1100
0000
,
0010
0100
0020
0000
0130
0000
1000
0100
,
0010
0000
1000
0000
0100
0000
0010
0000
1001
0000
0000
1001
0000
0000
0101
0000
,
0110
0000
0000
0110
0000
0000
1010
0000
1001
0000
0000
0000
0001
0000
0100
0000
,
1020
0000
0000
0000
0130
0000
0000
0000
0001
0000
0001
1000
0000
1000
0001
0000
,
0010
0100
0021
0000
0130
0000
1000
0100
,
0001
0000
0010
0000
0001
0000
0100
0000
0010
0000
0000
0101
0000
0000
0000
0000
,
0001
0000
0010
0000
1000
0000
0100
0000
1000
0000
0000
1010
0000
0000
0000
0000
,
0001
1000
0001
1000
0000
0001
0010
0000
0001
0000
0100
0000
0010
0000
1000
0000
,
0001
0000
0010
0000
0011
0000
0000
0010
0001
0100
0010
0000
1000
0100
0010
0000
,
0001
0010
0001
0010
0000
0001
1000
0000
0010
0000
0100
0000
0001
0000
1000
0000
,
0010
0100
0001
0000
0010
0100
0001
0000
0010
0100
0001
0100
0020
0000
0000
0000
,
1030
0100
1000
0100
0000
1000
0010
0000
0100
0000
0001
0000
1000
0000
0010
0000
,
0001
0100
1000
0100
0001
0010
0100
1000
0010
0001
0010
1000
,
0001
1000
0001
1000
0000
0010
0100
0000
0010
0000
0100
0000
0001
1000
0001
0000
,
0200
0301
0020
1030
0200
1300
0020
0031
,
1000
0000
0001
0100
0001
0000
1000
0010
1000
0000
0100
0000
0010
0000
0001
0000
,
1000
0000
0010
1000
0010
0000
0100
0001
0100
0000
0010
0000
0100
0000
0001
0000
,
1000
0010
0000
0010
0100
0000
0100
0001
0000
0001
0010
0000
0010
0001
0000
0001
,
1000
0000
0001
0010
0100
1000
0000
0000
0010
0000
0100
0000
0001
1000
0001
0000
,
0011
0000
0000
0101
0000
0000
1010
0000
0000
1100
0000
0000
1001
0000
0000
0011
,
0000
0000
1010
0000
0000
0110
0000
0000
0101
0000
0010
0000
0001
0000
1000
0000
,
0210
0010
2300
3001
,
0102
1000
0023
0130
,
2100
0010
3002
0103
,
0120
1000
0230
0301
,
1100
0000
0000
0000
0101
0000
0000
0000
1100
0000
0000
0101
0000
0000
0000
0000
,
1010
0000
0000
0000
0011
0000
0000
0000
1010
0000
0000
0011
0000
0000
0000
0000
,
1000
0000
0000
0010
1000
0000
0001
0000
1001
0000
0000
0010
1000
0000
0100
0000
,
1100
0000
0000
0010
1000
0000
0001
0000
1000
0001
0010
0000
0010
0001
1000
0000
,
0001
0100
0001
0100
0000
0010
0100
0000
0010
1000
0010
1000
0000
0100
1000
0000
,
0100
0010
0100
0010
0000
0001
0010
0000
0001
1000
0001
1000
0010
0100
0010
0100
,
2000
0000
0001
3001
,
1000
0100
0010
0001
0000
0100
0010
0000
1000
0100
0010
0001
0000
0100
0010
0000
,
1000
0100
0010
0001
0000
0100
0010
0000
1000
0100
0010
0001
0010
0100
1000
0001
,
0200
0300
0000
0000
;

//---------------dance-single - ----------------
#NOTES:
     dance-single:
     :
     Beginner:
     3:
     0.144,0.144,0.027,0.018,0.000,109.000,3.000,2.000,0.000,0.000,0.000,0.144,0.144,0.027,0.018,0.000,109.000,3.000,2.000,0.000,0.000,0.000:
0000
0000
0000
0000
,
0000
0000
0000
0000
,
0000
0000
0000
0000
,
0100
0000
0100
0000
,
0100
0000
0000
0000
,
0001
0000
0000
0000
,
1000
0000
0000
0000
,
0100
0000
0000
0000
,
0010
0000
0000
0000
,
1000
0000
0000
0000
,
0001
0000
0000
0000
,
0100
0000
0000
0000
,
0001
0000
0001
0000
,
0001
0000
0000
0000
,
1000
0000
1000
0000
,
1000
0000
0000
0000
,
0100
0000
0100
0000
,
0100
0000
0000
0000
,
0010
0000
0010
0000
,
0010
0000
0010
0000
,
1000
0000
0000
0000
,
1000
0000
0000
0000
,
0001
0000
0001
0000
,
0001
0000
0001
0000
,
0100
0000
0000
0000
,
0100
0000
0000
0000
,
0001
0000
0001
0000
,
0001
0000
0001
0000
,
1000
0000
0000
0000
,
0001
0000
0000
0000
,
0100
0000
0100
0000
,
0100
0000
0000
0000
,
0001
0000
0000
0000
,
1000
0000
0000
0000
,
0010
0000
0010
0000
,
0010
0000
0000
0000
,
1001
0000
0000
0000
,
0000
0000
0000
0000
,
0100
0000
0000
0000
,
0010
0010
0000
0000
,
1000
0000
1000
0000
,
1000
0000
0000
0000
,
0100
0000
0000
0000
,
0010
0000
0000
0000
,
0001
0000
0001
0000
,
0001
0000
0000
0000
,
1001
0000
0000
0000
,
0010
0010
0000
0000
,
0100
0000
0100
0000
,
0100
0000
0000
0000
,
0001
0000
0000
0000
,
1000
0000
0000
0000
,
0100
0000
0100
0000
,
0100
0000
0100
0000
,
1000
0000
0000
0000
,
0001
0000
0001
0000
,
1000
0000
0000
0000
,
0010
0000
0010
0000
,
1000
0000
0000
0000
,
0100
0000
0100
0000
,
1000
0000
0000
0000
,
0001
0000
1000
0000
,
0002
0000
0000
0000
,
0003
0000
0000
0000
,
0100
0000
0100
0000
,
0100
0000
0000
0000
,
0020
0000
0000
0000
,
0000
0000
0030
0000
,
1000
0000
1000
0000
,
1000
0000
0000
0000
,
0001
0000
0001
0000
,
0001
0000
0000
0000
,
1000
0000
1000
0000
,
0001
0000
0001
0000
,
0100
0000
0100
0000
,
0100
0000
0000
0000
,
0010
0000
0010
0000
,
0010
0000
0010
0000
,
0100
0000
0000
0000
,
1000
0000
0001
0000
,
1000
0000
0001
0000
,
1001
0000
0000
0000
;

//---------------dance-single - ----------------
#NOTES:
     dance-single:
     :
     Easy:
     6:
     0.279,0.288,0.062,0.098,0.000,202.000,7.000,11.000,0.000,0.000,0.000,0.279,0.288,0.062,0.098,0.000,202.000,7.000,11.000,0.000,0.000,0.000:
0000
0000
0000
0000
,
0000
0000
0000
0000
,
0000
0000
0000
0000
,
1000
1000
0001
0001
,
0100
0100
0100
0000
,
0010
0000
1000
0000
,
0001
0010
0001
0000
,
0010
0000
1000
0000
,
0200
0000
0000
0300
,
1000
0000
0001
0000
,
0100
0001
1000
0000
,
0010
0010
0010
0000
,
0001
0000
0100
0000
,
0010
0000
1000
1000
,
0100
0000
0010
0000
,
0001
0000
1000
1000
,
0001
0000
0100
0000
,
1000
0000
0100
0100
,
0001
0001
1000
1000
,
0100
0100
0010
0010
,
0100
0000
0010
0000
,
1000
0001
0100
0000
,
0020
0000
0000
0000
,
0000
0000
0030
0000
,
1000
0000
0001
0000
,
0010
0100
1000
0000
,
0020
0000
0000
0000
,
0000
0000
0030
0000
,
0100
0000
0010
0000
,
0100
0001
0010
0000
,
0100
0000
0010
0000
,
0100
1000
0010
0000
,
1000
0000
0001
0000
,
1000
0001
0100
0000
,
0010
0000
0010
0000
,
2002
0000
0000
3003
,
0001
0010
0100
1000
,
0100
0010
0001
0000
,
0100
0000
0010
0010
,
1000
0001
0000
0000
,
0010
0001
1000
0010
,
0100
0000
0010
0000
,
1000
0000
0100
0000
,
0010
0001
1000
0000
,
0010
0100
0001
1000
,
0200
0000
0300
0000
,
1001
0000
0010
0000
,
1000
0020
0030
0000
,
1000
0001
0100
0010
,
1000
0100
0010
0000
,
0001
0000
1000
1000
,
0001
0000
0100
0000
,
0001
1000
1001
0000
,
0010
0100
0110
0000
,
1000
0000
1000
0000
,
0001
0001
0100
0100
,
1000
0000
1000
0000
,
0001
0001
0001
0010
,
1000
0000
1000
0000
,
1000
0010
0001
0100
,
1000
0000
1000
0000
,
0001
0100
0010
1000
,
0010
0000
0100
0000
,
0010
1000
0001
0000
,
0010
0000
0100
0000
,
1000
0100
0010
0000
,
2002
0000
0000
0000
,
0000
0000
3003
0000
,
0001
0001
0001
0000
,
1000
1000
1000
0000
,
0100
0100
0100
0000
,
0010
0010
0010
0000
,
0001
0100
0101
0000
,
1000
0010
1010
0000
,
0001
0000
0001
0000
,
1000
0000
0010
0100
,
0010
0010
1000
1000
,
0001
0001
0100
0100
,
0200
0000
0000
0300
,
0001
0100
1000
0100
,
0001
0100
0010
1000
,
0002
0003
0000
0000
;

//---------------dance-single - ----------------
#NOTES:
     dance-single:
     :
     Medium:
     9:
     0.480,0.468,0.399,0.239,0.013,307.000,45.000,27.000,0.000,0.000,0.000,0.480,0.468,0.399,0.239,0.013,307.000,45.000,27.000,0.000,0.000,0.000:
0000
0000
0000
0000
,
0000
0000
0000
0000
,
0000
0000
0000
0000
,
0001
1000
0000
0010
0001
1000
0000
0010
,
1000
0001
0000
0010
0100
0000
0000
0000
,
0001
0100
0001
1000
,
0001
0010
0100
0110
,
0001
0100
1000
0001
,
0020
0000
0000
0030
,
0001
0100
0010
1000
,
0001
0000
0100
0000
1000
0000
0001
1000
,
0001
0000
0000
0000
0100
0000
0000
0000
0010
0000
0000
0010
0000
0000
0000
0000
,
0100
0101
0100
1000
,
0100
0000
0101
0000
0001
1000
0001
0000
,
0001
0101
0001
0010
,
0001
0000
1001
0000
1000
0100
1000
0000
,
0100
0110
0001
1000
,
0010
0000
1010
0000
0100
0001
0100
0000
,
0001
1000
0000
0010
1000
0001
0000
0010
,
0001
1000
0000
0010
1000
0001
1000
0000
,
0020
0000
0100
0030
,
0001
0010
1000
0100
,
1001
1000
0010
0100
,
0110
0000
0010
0000
0100
0001
1000
0000
,
0020
0000
0100
0030
,
1000
0010
0001
0100
,
0101
0001
0010
1000
,
1010
0000
0010
0000
0100
0001
1000
0000
,
0020
0000
0100
1030
,
0010
1000
0100
0000
,
1001
0000
0001
1000
,
0001
0000
0000
1000
0000
0000
0001
0000
0100
0000
0000
0000
0000
0000
0000
0000
,
0020
0100
1000
0130
,
0001
0101
0100
0010
,
1000
0100
0000
0000
0001
0100
0000
0000
,
1000
0000
0000
0001
0000
0000
2002
0000
0000
0000
0000
0000
3003
0000
0000
0000
,
1000
0100
0001
0100
,
0010
0000
1001
0000
1000
0001
0000
0000
,
0200
0000
0010
0310
,
1000
0100
0001
0000
0100
0000
0010
0000
,
0100
1000
0001
0100
,
0002
0010
0100
0013
,
0200
0010
1000
0310
,
0011
0100
1000
0001
,
0100
0000
0010
0000
0100
0001
0010
0000
,
0200
0000
0000
0300
,
2002
3003
0110
0000
,
0010
1000
0001
0000
0000
0000
0100
0000
,
0010
0100
1001
0110
,
1001
0110
1001
0000
,
0020
0000
0130
0001
,
1000
0001
0100
0010
,
1010
1010
0110
0000
,
0011
0011
0110
0000
,
2000
0010
0000
3010
,
1000
0000
1000
0000
0001
0010
0100
0000
,
2000
0100
0000
3100
,
1000
0100
1000
0100
1000
0100
0010
0000
,
2000
0100
0000
3100
,
1100
1001
1010
1001
,
2000
0100
0100
3100
,
0001
0010
0001
0000
1000
0010
1000
0000
,
0100
0000
0001
0000
0010
0000
1000
0100
,
0001
0010
1000
0100
,
0020
0032
0203
0320
,
2030
3100
1001
0000
,
1010
0000
0000
0101
0000
0000
0011
0000
,
0000
1100
0000
0000
0110
0000
0000
0000
,
0100
0100
0100
0000
,
0010
0100
1001
0000
,
0010
0010
0010
0000
,
0100
0010
1001
0000
,
1000
0001
0110
0000
,
0001
1000
0220
0330
,
0001
0101
0001
1000
,
0100
0000
1100
0000
1000
0001
1000
0000
,
0001
1000
0000
0010
1000
0001
0000
0010
,
0001
1000
0000
0010
1000
0001
1000
0000
,
0020
0000
0000
0030
,
1000
0100
0000
0010
0001
0100
0000
0010
,
1000
0100
0000
0010
0001
0100
0010
1000
,
0200
0300
0000
0000
;

//---------------dance-single - ----------------
#NOTES:
     dance-single:
     :
     Hard:
     12:
     0.608,0.540,0.346,0.186,0.226,420.000,39.000,21.000,0.000,0.000,0.000,0.608,0.540,0.346,0.186,0.226,420.000,39.000,21.000,0.000,0.000,0.000:
0000
0000
0000
0000
,
0000
0000
0000
0000
,
0000
0000
0000
0000
,
0010
0000
0000
0010
0000
0000
0100
0000
1000
0000
0000
1000
0000
0000
0100
0000
,
0001
0000
0000
0001
0000
0000
1000
0000
1001
0000
0000
0000
1000
0000
0010
0000
,
0100
0010
0100
0001
,
0100
0000
0010
0000
2000
0000
3001
0100
,
0010
1000
0100
0010
,
2002
0000
0000
0000
3003
0000
0010
0001
,
1000
0010
0110
0001
,
1001
0000
0010
0000
0200
0000
0301
1000
,
0100
0000
0000
0000
0010
0000
0000
0000
0001
0000
0000
1001
0000
0000
0000
0000
,
0001
0000
0000
0001
0000
0000
0001
0000
0100
0000
0000
0100
0000
0000
0100
0000
,
0010
0000
0000
0010
0000
0000
0010
0000
1000
0000
0001
0000
0100
0000
0001
0000
,
0100
0000
0000
0100
0000
0000
0100
0000
0010
0000
0000
0010
0000
0000
0010
0000
,
1000
0000
0000
1000
0000
0000
1000
0000
0001
0000
1000
0000
0010
0000
1000
0000
,
0010
0000
0000
0010
0000
0000
0100
0000
0001
0000
0000
0001
0000
0000
0010
0000
,
0100
0000
0000
0100
0000
0000
1000
0000
0001
0000
0010
0000
0100
0000
0010
0000
,
0001
0000
0000
1000
0000
0000
0100
0000
0010
0000
0000
0100
0000
0000
1000
0000
,
0001
0000
0000
0100
0000
0000
0010
0000
0001
0000
0010
0000
0100
0000
1000
0000
,
0100
0000
0010
0001
0100
0010
1000
0000
,
0100
0011
0110
1010
,
1001
0000
0000
1000
0000
0000
1000
0000
0100
0000
0000
0100
0000
0000
0100
0000
,
0010
0000
0000
0010
0000
0000
0010
0000
0001
0000
0100
0000
0010
0000
1000
0000
,
0100
0000
1000
0100
0010
0100
1000
0000
,
0010
0101
1001
0110
,
0101
0000
0000
0001
0000
0000
0100
0000
0010
0000
0000
0010
0000
0000
1000
0000
,
0100
0000
0000
0100
0000
0000
0010
0000
0001
0000
1000
0000
0100
0000
0010
0000
,
0002
0000
0103
0000
0010
1000
0001
0000
,
0100
0000
0001
0000
0010
0000
1000
0001
,
0100
0000
0010
0000
1000
0010
0001
0010
,
0100
0000
0000
0100
0000
0000
0010
0000
0100
0000
0000
0000
0000
0000
0000
0000
,
1000
0100
0010
0000
0001
0100
0001
0000
,
0010
0100
1000
0100
0010
0000
0001
0000
,
0110
0100
0000
0000
0110
0100
0000
0010
,
0001
0000
0000
1000
0000
0000
2002
0000
0000
0000
0000
0000
3003
0000
0000
0000
,
0001
1000
0010
1000
0100
0010
0001
0000
,
0100
0000
0000
0010
0000
0000
1000
0000
0100
0000
0100
0000
0000
0000
0000
0000
,
0020
0000
0000
0000
0000
0000
0000
0000
0100
0000
0000
0100
0000
0000
0130
0000
,
1000
0001
1000
0000
1001
0000
0010
0000
,
0010
1000
0001
0010
0100
1000
0001
0010
,
0100
0000
0020
0000
0130
0000
0001
0100
,
0020
0000
0130
0000
0001
1000
0100
0001
,
0100
1000
0020
0000
0130
0000
0001
0100
,
1000
0000
0100
0000
0010
1000
0100
1000
,
0002
0000
0000
0003
,
1000
0001
1000
0000
0000
0000
0000
0000
0010
0000
0000
0010
0000
0000
0010
0000
,
0001
1000
0020
0000
0130
0000
0001
0100
,
0010
0000
0100
0000
1000
0000
0100
0000
0010
0000
0000
0010
0000
0000
1000
0000
,
0001
0000
0000
0001
0000
0000
0100
0000
0010
0000
0000
0000
1000
0000
0100
0000
,
0020
0031
0100
0101
,
0010
1000
0200
0000
1300
0000
0001
0000
,
0100
0000
0000
0000
0100
0000
0000
0000
0101
0000
0000
1100
0000
0000
0000
0000
,
0010
0000
0000
0000
0010
0000
0000
0000
1010
0000
0000
0011
0000
0000
0000
0000
,
1002
0100
0100
0103
,
0001
0010
0100
0000
1000
0100
0001
0100
,
2000
0010
0010
3010
,
0001
0010
1000
0001
0100
1000
0010
0000
,
0200
0001
0001
0301
,
1000
0100
0000
0010
0000
0010
0001
1000
0000
0001
0000
0001
,
0020
0100
0100
0130
,
1000
0100
1000
0100
0001
0100
0001
0100
,
0010
0000
0001
1000
0001
0100
0010
1000
,
0100
0000
0010
0001
0010
0100
1000
0010
,
1000
1010
0110
0101
,
1001
1000
0010
0000
1000
0100
0010
0001
,
1000
0000
0000
1000
0000
0000
0010
0000
0000
0010
0000
0000
0001
0000
0000
0001
,
0000
0000
0100
0000
0000
0100
0000
0000
1000
0000
0001
0000
0010
0000
0100
0000
,
1000
0010
0110
0000
,
1000
0010
1100
0000
,
0001
0010
0101
0000
,
0011
0100
1001
0000
,
0010
0000
0000
0000
0010
0000
0000
0000
0101
0000
0000
1100
0000
0000
0000
0000
,
0100
0000
0000
0000
0100
0000
0000
0000
0011
0000
0000
1010
0000
0000
0000
0000
,
0100
0000
0000
0100
0000
0000
0001
0000
1000
0000
0000
1000
0000
0000
0100
0000
,
0010
0000
0000
0010
0000
0000
0001
0000
0100
0000
1000
0000
0100
0000
0001
0000
,
0001
0000
0000
1000
0000
0000
0010
0000
0010
0000
0000
0100
0000
0000
0001
0000
,
0001
0000
0000
1000
0000
0000
0100
0000
0100
0000
1000
0000
0010
0000
0100
0000
,
0002
0000
0100
0103
,
0101
0000
0000
0010
0000
0000
1000
0000
0110
0000
0000
0001
0000
0000
0100
0000
,
1010
0000
0000
0100
0000
0000
0001
0000
1000
0000
0100
0000
0001
0000
0010
0000
,
2000
3000
0000
0000
;

//---------------dance-double - ----------------
#NOTES:
     dance-double:
     :
     Easy:
     6:
     0.270,0.288,0.071,0.106,0.000,193.000,8.000,12.000,0.000,0.000,0.000,0.270,0.288,0.071,0.106,0.000,193.000,8.000,12.000,0.000,0.000,0.000:
00000000
00000000
00000000
00000000
,
00000000
00000000
00000000
00000000
,
00000000
00000000
00000000
00000000
,
00001000
00010000
00001000
00010000
,
00001000
00010000
00001000
00000000
,
01000000
00000000
00010000
00000000
,
10000000
00010000
10000000
00000000
,
01000000
00000000
00100000
00000000
,
00020000
00000000
00000000
00030000
,
00001000
00000000
00010000
00000000
,
00000100
00001000
00000100
00000000
,
00000010
00000001
00000010
00000000
,
00000001
00000000
00000100
00000000
,
00001000
00000000
00010000
00010000
,
00001000
00000000
00010000
00000000
,
00100000
00000000
10000000
10000000
,
00010000
00000000
10000000
00000000
,
01000000
00000000
00010000
00010000
,
00001000
00010000
00001000
00010000
,
00001000
00010000
00001000
00000100
,
00000100
00000000
00000010
00000000
,
00001000
00000001
00001000
00000000
,
00000001
00000000
00000100
00000000
,
00001000
00000000
00010000
00010000
,
00001000
00000000
00010000
00000000
,
01000000
00100000
01000000
00000000
,
10000000
00000000
00100000
00000000
,
00010000
00000000
00001000
00001000
,
00010000
00000000
00000100
00000000
,
00000020
00000000
00000030
00000000
,
00000001
00000000
00001000
00000000
,
00000200
00000000
00000300
00000000
,
00000010
00000000
00000001
00000000
,
00000100
00000000
00001000
00000000
,
00010000
00000000
00001000
00000000
,
00011000
00000000
00000000
00000000
,
02200000
00000000
00000000
00000000
,
00000000
00000000
03300000
00000000
,
01000000
00000000
00100000
00100000
,
10000000
00010000
00000000
00000000
,
00100000
01000000
00100000
01000000
,
00100000
00000000
01000000
00000000
,
00010000
00000000
00001000
00000000
,
00010000
00001000
00010000
00000000
,
00000010
00000000
00000100
00000100
,
00000200
00000000
00000000
00000300
,
00001001
00000000
00000100
00001000
,
00010000
00200000
00300000
00000000
,
10000000
00000000
00010000
10000000
,
00010000
10000000
00100000
00000000
,
01000000
00000000
00001000
00010000
,
00001000
00000000
00100000
00000000
,
00001000
00001000
00011000
00000000
,
00000100
00000100
00000110
00000000
,
00000001
00000000
00000001
00000000
,
00000100
00001000
00010000
00010000
,
00001000
00000000
00001000
00000000
,
00010000
00001000
00010000
00100000
,
01000000
00000000
01000000
00000000
,
10000000
01000000
00010000
00001000
,
00010000
00000000
00010000
00000000
,
00001000
00100000
00001000
00010000
,
00000020
00000000
00000000
00000030
,
00000100
00000000
00000001
00000000
,
00000100
00000001
00000100
00000000
,
00000010
00001000
00000100
00000000
,
00020200
00000000
00000000
00000000
,
00000000
00000000
00030300
00000000
,
00001000
00000000
00001000
00000000
,
00100000
00000000
00100000
00000000
,
10000000
00000000
10000000
00000000
,
00010000
00000000
00010000
00000000
,
00100000
01000000
01100000
00000000
,
00010000
00001000
00011000
00000000
,
00010000
00000000
00010000
00000000
,
00001000
00000000
00010000
00000100
,
00001000
00001000
00000001
00000001
,
00000100
00000100
00001000
00001000
,
00020000
00000000
00000000
00030000
,
00001000
00010000
00001000
00010000
,
00001000
00100000
00001000
00100000
,
02000000
03000000
00000000
00000000
;

//---------------dance-double - ----------------
#NOTES:
     dance-double:
     :
     Medium:
     9:
     0.437,0.468,0.275,0.222,0.004,289.000,31.000,25.000,0.000,0.000,0.000,0.437,0.468,0.275,0.222,0.004,289.000,31.000,25.000,0.000,0.000,0.000:
00000000
00000000
00000000
00000000
,
00000000
00000000
00000000
00000000
,
00000000
00000000
00000000
00000000
,
00100000
00010000
00000000
00000000
01000000
00100000
00000000
00000000
,
00010000
00001000
00000000
00000010
00000100
00000000
00000000
00000000
,
00000100
00000001
00000100
00000010
,
00000100
00001000
00000100
00010000
,
00001000
00100000
00001000
01000000
,
00200000
00000000
00000000
00300000
,
01000000
10000000
01000000
00100000
,
01000000
00000000
00010000
00000000
01000000
00000000
00001000
00010000
,
00001000
00010000
00011000
00000000
,
00000010
00000000
00000000
00000010
00000100
00000000
00000000
00000001
,
00000100
00000000
00000000
00001000
00000100
00000000
00001100
00000000
,
00010000
00000000
00000000
00001000
00100000
00000000
00000000
00010000
,
01000000
00000000
00000000
00100000
10000000
00000000
10010000
00000000
,
00100000
00000000
00000000
10000000
01000000
00000000
00000000
00010000
,
00001000
00000000
00000000
00001000
00010000
00000000
00011000
00000000
,
00100000
00010000
00000000
00000000
00001000
00000100
00000000
00000000
,
00000010
00000001
00000000
00000100
00001000
00000000
00010000
00000000
,
00001000
00100000
00010000
10000000
,
01000000
00100000
00010000
00001000
,
00020000
00001000
00000100
00000010
,
00000100
00000000
00031000
00000000
00010000
00001000
00010000
00000000
,
00000100
00000010
00000001
00000100
,
00000010
00000100
00001000
00010000
,
00002000
00010000
00100000
01000000
,
00100000
00000000
00013000
00000000
00001000
00010000
00001000
00000000
,
00100000
00010000
01000000
00100000
,
01000000
00010000
10000000
00010000
,
10010000
00000000
01100000
00000000
,
00010000
00001000
00011000
00000000
,
00000010
00001000
00000100
00000010
,
00000100
00001000
00000001
00000010
,
00000110
00000000
00001001
00000000
,
00000100
00000000
00000000
00001000
00000000
00000000
00020000
00000000
00000000
00000000
00000000
00000000
00000000
00000000
00000000
00000000
,
00031000
00010000
01000000
00100000
,
00010000
00000000
10000000
00000000
00100000
01000000
00000000
00000000
,
20000000
00000000
01000000
31000000
,
00010000
00001000
00000010
00000000
00000001
00000000
00000100
00000000
,
00000010
00000100
00001000
00010000
,
00001000
00000100
00000010
00000110
,
00000200
00000000
00000010
00001300
,
00010000
00011000
00001000
01000000
,
00100000
00000000
01000000
00000000
00001000
00010000
00100000
00000000
,
20000000
00000000
00000000
30000000
,
00220000
00330000
00011000
00000000
,
00001010
00002020
00003030
00000100
,
00000001
00000010
00000110
00000001
,
00000100
00001000
00011000
00000000
,
00200000
00000000
00301000
00100000
,
00010000
10000000
01000000
00000000
01000000
00000000
00100000
00000000
,
00010000
00110000
01100000
00000000
,
00010000
00011000
00001100
00000000
,
00000020
00000100
00000000
00000130
,
00000001
00000000
00000001
00000000
00001000
00000100
00000001
00000000
,
00000200
00001000
00000000
00001300
,
00010000
00001000
00010000
00000000
00100000
00001000
00100000
00000000
,
00002000
00100000
00000000
00103000
,
00001000
01000000
10000000
00100000
,
00020000
10000000
00000000
10030000
,
11000000
00010000
00011000
00000010
,
00000002
00000100
00001000
00000013
,
00000200
00000010
00001000
00010300
,
00002000
00023000
00230000
02300000
,
03010000
10000000
10010000
00000000
,
01000000
00000000
00000000
00100000
00000000
00000000
00011000
00000000
,
00000000
00000100
00000000
00000000
00000010
00000000
00000000
00000000
,
00000001
00000100
00001000
00000000
,
00010000
01000000
10000000
00000000
,
00100000
00010000
00001000
00000000
,
00000010
00001000
00010000
00000000
,
01100000
00010000
00001000
00000000
,
00000110
00001000
00010000
00000000
,
00100000
00000000
00000000
10000000
01000000
00000000
00000000
00010000
,
01000000
00000000
00000000
00100000
01000000
00000000
01100000
00000000
,
00010000
00000000
00000000
00001000
00010000
00000000
00000000
00000100
,
00000010
00000000
00000000
00000001
00001000
00000000
00001001
00000000
,
00000120
00000000
00000100
00000130
,
00000010
00001000
00000000
00000001
00000100
00000010
00000000
00010000
,
00001000
01000000
00000000
00100000
10000000
00000000
00010000
00000000
,
20020000
30030000
00000000
00000000
;

//---------------dance-double - ----------------
#NOTES:
     dance-double:
     :
     Hard:
     12:
     0.559,0.540,0.222,0.186,0.217,395.000,25.000,21.000,0.000,0.000,0.000,0.559,0.540,0.222,0.186,0.217,395.000,25.000,21.000,0.000,0.000,0.000:
00000000
00000000
00000000
00000000
,
00000000
00000000
00000000
00000000
,
00000000
00000000
00000000
00000000
,
00000010
00000000
00000000
00000010
00000000
00000000
00001000
00000000
00000001
00000000
00000000
00000001
00000000
00000000
00000100
00000000
,
00001000
00000000
00000000
00001000
00000000
00000000
00010000
00000000
00011000
00000000
00000000
00000000
00001000
00000000
00010000
00000000
,
00100000
01000000
00010000
01000000
,
10000000
00000000
01000000
00000000
00100000
00000000
10000000
01000000
,
00010000
00001000
00010000
00000010
,
00000200
00000000
00000000
00000000
00000300
00000000
00000001
00001000
,
00000100
00000010
00000001
00000010
,
00000100
00000000
00000010
00000000
00002000
00000000
00013000
00000100
,
00010000
00000000
00000000
00000000
00001000
00000000
00000000
00000000
00100000
00000000
00000000
00101000
00000000
00000000
00000000
00000000
,
00010000
00000000
00000000
00010000
00000000
00000000
01000000
00000000
00100000
00000000
00000000
00100000
00000000
00000000
10000000
00000000
,
01000000
00000000
00000000
01000000
00000000
00000000
00100000
00000000
00010000
00000000
00001000
00000000
00000100
00000000
00000000
00000000
,
00010000
00000000
00000000
00010000
00000000
00000000
00000100
00000000
00000010
00000000
00000000
00000010
00000000
00000000
00000001
00000000
,
00000100
00000000
00000000
00000100
00000000
00000000
00000001
00000000
00000100
00000000
00001000
00000000
00010000
00000000
00000000
00000000
,
00000010
00000000
00000000
00001000
00000000
00000000
00000100
00000000
00010000
00000000
00000000
00001000
00000000
00000000
00100000
00000000
,
00001000
00000000
00000000
00010000
00000000
00000000
01000000
00000000
10000000
00000000
00100000
00000000
00010000
00000000
00000000
00000000
,
01000000
00000000
00000000
00100000
00000000
00000000
00010000
00000000
10000000
00000000
00000000
01000000
00000000
00000000
00010000
00000000
,
00001000
00000000
00000000
00010000
00000000
00000000
00000100
00000000
00001000
00000000
00000100
00000000
00000001
00000000
00000000
00000000
,
00000100
00000000
00000010
00000000
00000001
00000100
00000010
00000000
,
00000100
00001001
00000100
00000010
,
00000001
00000000
00000000
00001000
00000000
00000000
00001000
00000000
00000100
00000000
00000000
00000010
00000000
00000000
00000010
00000000
,
00001000
00000000
00000000
00010000
00000000
00000000
00010000
00000000
00001000
00000000
00010000
00000000
00001000
00000000
00000000
00000000
,
00001000
00010000
01000000
00100000
,
00010000
11000000
00100000
00011000
,
00001000
00000000
00000000
00010000
00000000
00000000
00001000
00000000
00000010
00000000
00000000
00000001
00000000
00000000
00000010
00000000
,
00000100
00000000
00000000
00001000
00000000
00000000
00000100
00000000
00001000
00000000
00000001
00000000
00000010
00000000
00001000
00000000
,
00020000
00000000
00030100
00000000
00000001
00000100
00001000
00000000
,
00000010
00000000
00000001
00000000
00000100
00000000
00010000
00001000
,
00000100
00000000
00000001
00000000
00000010
00000100
00001000
00000000
,
00010000
00000000
00000000
00100000
00000000
00000000
01000000
00000000
00100000
00000000
00000000
00000000
00000000
00000000
00000000
00000000
,
00010000
00000000
10000000
00000000
00010000
00100000
00001000
00000000
,
00010000
01000000
00100000
00000000
00001000
00000000
00010000
00000000
,
00001000
00000100
00000000
00000000
00010000
01000000
00000000
00001000
,
00000100
00000000
00000000
00000010
00000000
00000000
00000220
00000000
00000000
00000000
00000000
00000000
00000330
00000000
00000000
00000000
,
00000001
00000100
00000001
00001000
00000100
00000010
00000001
00000000
,
00000100
00000000
00000000
00001000
00000000
00000000
00010000
00000000
00001000
00000000
00010000
00000000
00000000
00000000
00000000
00000000
,
00002000
00000000
00000000
00000000
00000000
00000000
00000000
00000000
01000000
00000000
00000000
01000000
00000000
00000000
01003000
00000000
,
00010000
00100000
00200000
00000000
01300000
00000000
00010000
00000000
,
00001000
00010000
01000000
00000000
10000000
01000000
00100000
00000000
,
00010000
10000000
00200000
00000000
01300000
00000000
01000000
00000000
,
00001000
00000000
00010000
00000000
00001000
00100000
00010000
00000000
,
01000000
00001000
00020000
00000000
00031000
00000000
00010000
00001000
,
00000100
00000000
00000010
00000000
00001000
00000001
00000100
00000001
,
00002000
00000000
00000000
00003000
,
00010000
00001000
00010000
00000000
00000000
00000000
00000000
00000000
00000010
00000000
00000000
00001000
00000000
00000000
00010000
00000000
,
00001000
00010000
00200000
00000000
01300000
00000000
00100000
00000000
,
11000000
00110000
00101000
00010010
,
00001100
00000000
00000011
00000000
00000010
00000000
00000001
00000100
,
00000020
00000000
00001030
00000000
00000001
00000100
00000010
00000000
,
00002000
00000010
00003100
00001000
,
00000010
00000000
00000000
00000000
00000010
00000000
00000000
00000000
00001100
00000000
00000000
00010100
00000000
00000000
00000000
00000000
,
00100000
00000000
00000000
00000000
00100000
00000000
00000000
00000000
01001000
00000000
00000000
01010000
00000000
00000000
00000000
00000000
,
00200000
10000000
10000000
10300000
,
00010000
01000000
00100000
00000000
00100000
10000000
00010000
00100000
,
00002000
00010000
00010000
00013000
,
00001000
00010000
00100000
00010000
00001000
00000100
00000010
00000000
,
00000200
00000001
00000001
00000301
,
00000001
00001000
00000000
00000001
00000000
00000001
00000010
00000100
00000000
00001000
00000000
00000100
,
00020000
00001000
00001000
00031000
,
01000000
00010000
01000000
00100000
01000000
10000000
01000000
00100000
,
20000000
00000000
00010000
00000000
31000000
00000000
10000000
00100000
,
00010000
00000000
01000000
00010000
00001000
00000100
00000010
00000000
,
00000100
00000000
00001001
00000000
00000001
00000100
00001000
00000000
,
00010000
00001000
00010000
00000000
00001000
00010000
01000000
00000000
,
01000000
00000000
00000000
01000000
00000000
00000000
00010000
00000000
00000000
00010000
00000000
00000000
00001000
00000000
00000000
00001000
,
00000000
00000000
00000010
00000000
00000000
00000010
00000000
00000000
00000002
00000000
00000000
00000000
00001003
00000000
00000000
00000000
,
00000001
00000100
00000110
00000000
,
00001000
00010000
00011000
00000000
,
01000000
00100000
01100000
00000000
,
00010000
00001000
00011000
00000000
,
00000010
00000000
00000000
00000000
00001000
00000000
00000000
00000000
00001100
00000000
00000000
00010100
00000000
00000000
00000000
00000000
,
00100000
00000000
00000000
00000000
00010000
00000000
00000000
00000000
00110000
00000000
00000000
00101000
00000000
00000000
00000000
00000000
,
00010000
00000000
00000000
00001000
00000000
00000000
00010000
00000000
00000100
00000000
00000000
00000010
00000000
00000000
00000100
00000000
,
00001000
00000000
00000000
00000001
00000000
00000000
00001000
00000000
00000001
00000000
00000100
00000000
00001000
00000000
00000000
00000000
,
00010000
00000000
00000000
00001000
00000000
00000000
00100000
00000000
00100000
00000000
00000000
01000000
00000000
00000000
10000000
00000000
,
10000000
00000000
00000000
00010000
00000000
00000000
10000000
00000000
00100000
00000000
00010000
00000000
00001000
00000000
00000100
00000000
,
00000002
00000000
00001000
00001003
,
00010000
00000000
00000000
00001000
00000000
00000000
00000100
00000000
00000010
00000000
00000000
00001000
00000000
00000000
00010000
00000000
,
00000010
00000000
00000000
00000100
00000000
00000000
00000100
00000000
00001000
00000000
00010000
00000000
00100000
00000000
01000000
00000000
,
20000000
30000000
00000000
00000000
;

//---------------dance-single - ----------------
#NOTES:
     dance-single:
     :
     Edit:
     13:
     0.700,0.576,0.434,0.106,0.434,492.000,49.000,12.000,0.000,0.000,0.000,0.700,0.576,0.434,0.106,0.434,492.000,49.000,12.000,0.000,0.000,0.000: // measure 0
0000
0000
0000
0000
,  // measure 1
0000
0000
0000
0000
,  // measure 2
0000
0000
0000
0000
,  // measure 3
0010
1000
0000
0010
0000
0000
0100
0000
0001
0100
0000
0001
0000
0000
0100
0000
,  // measure 4
1000
0001
0000
1000
0000
0000
0001
0000
1001
0000
0000
0000
1000
0000
0010
0000
,  // measure 5
0100
0000
0001
0000
0010
0000
0001
1000
,  // measure 6
0100
0000
0010
0001
1000
0000
0001
0100
,  // measure 7
0010
0101
0100
1010
,  // measure 8
0100
0010
0100
0010
0100
0000
0010
0001
,  // measure 9
1000
0000
0010
0001
0100
0000
0010
1000
,  // measure 10
0100
0000
0001
0100
1000
0000
0001
0010
,  // measure 11
1000
0000
0000
0000
0010
0000
0000
0000
1010
0000
0000
1001
0000
0000
0000
0000
,  // measure 12
0010
0000
0000
0001
0000
0000
0001
0000
1000
0000
0000
0100
0000
0000
1000
0000
,  // measure 13
0001
0000
0000
0010
0000
0000
0001
0000
0100
0000
1000
0000
0100
0000
0001
0000
,  // measure 14
0010
0000
0000
0100
0000
0000
0001
0000
1000
0000
0000
0010
0000
0000
0001
0000
,  // measure 15
0010
0000
0000
1000
0000
0000
0010
0000
0001
0000
1000
0000
0100
0000
0001
0000
,  // measure 16
1000
0000
0000
0010
0000
0000
0100
0000
0010
0000
0000
0001
0000
0000
0010
0000
,  // measure 17
0001
0000
0000
0100
0000
0000
1000
0000
0001
0000
0010
0000
0100
0000
0010
0000
,  // measure 18
0001
0000
0100
1000
0000
0000
0001
0000
0010
0000
0100
1000
0000
0000
0010
0000
,  // measure 19
0001
0100
0001
0100
0000
0000
1000
0000
0100
0000
0000
0000
1000
0000
0000
0000
,  // measure 20
0001
0100
0010
0100
1000
0100
0001
0000
,  // measure 21
1010
1100
0101
0011
,  // measure 22
0100
0000
0000
1000
0000
0000
0001
0000
0010
0000
0000
0100
0000
0000
1000
0000
,  // measure 23
0001
0000
0000
0010
0000
0000
1000
0000
0001
0000
0010
0000
0100
0000
1000
0000
,  // measure 24
0001
0100
0010
1000
0001
0010
0100
0000
,  // measure 25
0011
0000
0101
0000
1100
1000
1010
0000
,  // measure 26
0001
0000
0000
0100
0000
0000
0010
0000
1000
0000
0000
0010
0000
0000
0001
0000
,  // measure 27
1000
0000
0000
0100
0000
0000
0001
0000
1000
0000
0010
0000
0100
0000
0001
0000
,  // measure 28
1000
0000
0100
0100
0010
0001
1000
1000
,  // measure 29
0100
0000
0000
0010
0000
0000
0100
0000
0000
0000
1000
0000
0001
0000
0001
0000
,  // measure 30
0200
0000
0010
0000
1300
0010
0001
0010
,  // measure 31
0100
0000
0000
1001
0000
0000
0010
0000
0001
0000
0000
0000
1001
0000
0000
0000
,  // measure 32
1000
0000
0100
0000
0010
0000
0100
0001
0100
0000
0010
0000
1000
0000
0000
0000
,  // measure 33
0001
0000
0000
0010
0000
0000
0100
0000
0001
0000
1000
0000
0010
0000
0000
0000
,  // measure 34
0100
1000
0200
0000
0000
0000
0300
0000
0010
0001
0020
0000
0000
0000
0030
0000
,  // measure 35
0010
0000
0000
0110
0000
0000
2002
0000
0000
0000
0000
0000
3003
0000
0000
0000
,  // measure 36
0011
1010
0011
1010
,  // measure 37
0001
0000
0000
0010
0000
0000
0100
0000
0010
0000
2000
0000
0000
0000
0000
0000
,  // measure 38
3001
0000
0000
0000
1000
0000
0020
0000
0100
0000
0000
0100
0000
0000
0130
0000
,  // measure 39
1000
0001
0001
0010
1000
0010
0100
0001
,  // measure 40
0010
0000
1000
0000
0001
0000
0010
0000
0100
0000
0000
1000
0001
0000
0010
0000
,  // measure 41
0100
0000
0010
0000
0100
0010
0100
0000
0010
0000
0000
0000
0001
0000
0100
0000
,  // measure 42
0010
0000
0000
0000
0100
0000
0000
0000
1000
0000
0000
0010
0100
0000
0001
0000
,  // measure 43
1000
0000
0100
0000
0010
0000
0000
1000
0100
0000
0000
0000
0001
0000
0100
0000
,  // measure 44
1000
0010
0000
0000
0100
0001
0000
0000
0010
0000
1000
0000
0100
0000
1000
0000
,  // measure 45
0002
0000
0000
0013
0000
0000
0001
0000
0010
0000
0001
0000
1000
0000
0010
0000
,  // measure 46
1000
0000
0100
0000
1000
0000
0100
0000
0010
0000
0000
0101
0000
0000
0010
0000
,  // measure 47
1000
0001
1000
0000
0110
0000
0001
0100
,  // measure 48
1000
0000
0001
0000
0010
0000
0100
0000
1000
0000
0000
0010
0000
0000
0001
0000
,  // measure 49
0010
0000
0000
0001
0000
0000
0100
0000
1000
0000
0000
0000
1000
0000
0100
0000
,  // measure 50
0020
0000
0000
0000
0031
0000
0000
0000
1000
0000
0000
0100
0000
0000
0001
0000
,  // measure 51
0010
1000
0001
1000
0010
1000
0001
1000
,  // measure 52
0100
0000
0100
0000
0100
0000
0000
0000
1100
0000
0000
0101
0000
0000
0000
0000
,  // measure 53
0010
0000
0010
0000
0010
0000
0000
0000
0011
0000
0000
1010
0000
0000
0000
0000
,  // measure 54
0001
0000
0000
0100
0000
0000
0000
0000
0100
0000
0000
0100
0000
0000
0000
0000
,  // measure 55
1000
0000
0001
0000
0020
0000
0000
1030
0000
0001
1000
0000
0100
0000
0010
0000
,  // measure 56
1000
0000
0000
0010
0000
0000
0000
0000
0010
0000
0000
0010
0000
0000
0000
0000
,  // measure 57
0100
0000
0010
0000
0100
0000
0010
0000
0001
1000
0001
0000
0100
0000
0000
0000
,  // measure 58
0010
0000
0000
0100
0000
0000
0000
0000
0100
0000
0000
0100
0000
0000
0000
0000
,  // measure 59
1000
0100
1000
0100
0010
0100
0010
0001
0010
0001
1000
0001
,  // measure 60
0100
0000
0000
0100
0000
0000
0000
0000
0001
0000
0100
0000
0001
0000
1000
0000
,  // measure 61
0010
0100
0001
1000
0100
1000
0010
0100
,  // measure 62
0010
0000
0000
0010
0001
0000
0000
0001
0100
0000
0000
0100
0010
0000
0000
0010
,  // measure 63
1000
0000
0000
1000
0010
0000
0000
0010
0100
0000
0000
0100
0001
0000
0000
0001
,  // measure 64
0010
0000
0100
1000
0000
0000
0100
0000
0001
0100
0000
0000
1000
0000
0010
0000
,  // measure 65
0001
0000
0000
1000
0010
0000
0100
0000
0001
0010
0000
0000
0010
0001
0000
0000
,  // measure 66
1000
0000
0000
1010
0000
0000
0010
0000
0000
0011
0000
0000
0001
0000
0000
0101
,  // measure 67
0000
0000
0100
0000
0000
1100
0000
0000
1000
0000
0001
0000
0010
0000
0100
0000
,  // measure 68
1000
0010
0110
0001
,  // measure 69
1000
0010
1100
0010
,  // measure 70
0001
0010
0101
1000
,  // measure 71
0001
0100
1001
0001
,  // measure 72
0110
0000
0000
0000
0110
0000
0000
0000
1100
0000
0000
0101
0000
0000
0000
0000
,  // measure 73
0110
0000
0000
0000
0110
0000
0000
0000
1010
0000
0000
0011
0000
0000
0000
0000
,  // measure 74
1000
0000
0000
1010
0000
0000
0001
0000
0100
0000
0000
0101
0000
0000
1000
0000
,  // measure 75
0010
0000
0000
0110
0000
0000
0001
0000
1000
0010
1000
0000
0010
0000
0000
0000
,  // measure 76
0100
0000
1000
0100
0000
0000
1000
0000
0100
0000
0010
0001
0000
0000
0001
0000
,  // measure 77
0100
0000
0010
0100
0000
0000
0010
0000
1000
0000
0001
0000
0100
0000
0000
0000
,  // measure 78
0010
0000
0011
1100
,  // measure 79
0001
0000
0100
0010
0000
0010
1000
0000
0100
0000
0010
0001
0000
0001
0100
0000
,  // measure 80
1000
0000
0010
0100
0000
0100
0001
0000
1000
0000
0100
0000
0010
0000
0001
0000
,  // measure 81
2002
3003
0000
0000
;

//---------------dance-double - ----------------
#NOTES:
     dance-double:
     :
     Edit:
     13:
     0.679,0.576,0.213,0.195,0.390,490.000,24.000,22.000,0.000,0.000,0.000,0.679,0.576,0.213,0.195,0.390,490.000,24.000,22.000,0.000,0.000,0.000:
00000000
00000000
00000000
00000000
,
00000000
00000000
00000000
00000000
,
00000000
00000000
00000000
00000000
,
00100000
00000000
00000000
00100000
00000000
00000000
00100000
00000000
00001000
00000000
00000000
00001000
00000000
00000000
00001000
00000000
,
00000010
00000000
00000000
00000100
00000000
00000000
00000001
00000000
00001001
00000000
00000000
00000000
00000100
00000000
00000100
00000000
,
00000002
00001003
00020000
10030000
,
01000000
00000000
00010000
00100000
00010000
00000000
10000000
00100000
,
20000000
30010000
00002000
00003001
,
00001000
00000000
00000010
00000001
00001000
00000000
00000010
00000100
,
00000002
00001003
00020000
10030000
,
00100000
00000000
10000000
00010000
00100000
00000000
10000000
01000000
,
00010000
00000000
00000000
00000000
00100000
00000000
00000000
00000000
01000000
00000000
00000000
00011000
00000000
00000000
00000000
00000000
,
00000100
00000000
00000000
00010000
00000000
00000000
00100000
00000000
00010000
00000000
00000000
01000000
00000000
00000000
00100000
00000000
,
10000000
00000000
00000000
00100000
00000000
00000000
00010000
00000000
01000000
00000000
00010000
00000000
00100000
00000000
00001000
00000000
,
00010000
00000000
00000000
00001000
00000000
00000000
00010000
00000000
00000010
00000000
00000000
00000100
00000000
00000000
00000010
00000000
,
00000001
00000000
00000000
00001000
00000000
00000000
00000010
00000000
00010000
00000000
00001000
00000000
00010000
00000000
00000100
00000000
,
00001000
00000000
00000000
00100000
00000000
00000000
00001000
00000000
00010000
00000000
00000000
00001000
00000000
00000000
00000010
00000000
,
00000001
00000000
00000000
00000100
00000000
00000000
00001000
00000000
00000100
00000000
00001000
00000000
00000010
00000000
00000100
00000000
,
00000001
00000000
00000000
00000100
00000000
00000000
00010000
00000000
00001000
00000000
00000000
01000000
00000000
00000000
00100000
00000000
,
00010000
00000000
00000000
01000000
00000000
00000000
10000000
00000000
01000000
00000000
00100000
00000000
00001000
00000000
00000000
00000000
,
00010000
01000000
00010000
00100000
00001000
01000000
00010000
00000000
,
10000000
00100000
11000000
00000000
01000000
00010000
00110000
00000000
,
00000100
00000000
00000000
00000010
00001000
00000000
00000100
00000000
00010000
00000000
00000000
00001000
00000010
00000000
00000001
00000000
,
00000100
00000000
00000000
00001000
00000010
00000000
00000100
00000000
00010000
00000000
00001000
00000000
01000000
00000000
00010000
00000000
,
00100000
00010000
01000000
10000000
01000000
00010000
00100000
00000000
,
00001000
00010000
00011000
00000000
00010000
00001000
00011000
00000000
,
00000010
00000000
00000000
00010000
00001000
00000000
00000010
00000000
00000100
00000000
00000000
00001000
00010000
00000000
00000010
00000000
,
00001000
00000000
00000000
00010000
00001000
00000000
00000100
00000000
00000001
00000000
00000010
00000000
00000100
00000000
00001000
00000000
,
00010000
00000000
00001000
00010000
00100000
01000000
10000000
00000000
,
02000000
00000000
00000000
00100000
00000000
00000000
00010000
00000000
00000000
00000000
00000000
00000000
00010000
00000000
03010000
00000000
,
00001000
00000000
00010000
00000000
00001000
00000010
00000001
00000010
,
00000100
00000000
00000000
00001000
00010000
00000000
01000000
00000000
10000000
00000000
00000000
00000000
00110000
00000000
00000000
00000000
,
01000000
00000000
00010000
00000000
00100000
00000000
00000000
00100000
00010000
00000000
01000000
00000000
10000000
00000000
00000000
00000000
,
00100000
00000000
00000000
00001000
00010000
00000000
00000010
00000000
00001000
00000000
00000001
00000000
00000100
00000000
00000000
00000000
,
00000010
00001000
00000200
00000000
00000000
00000000
00000000
00000000
00000310
00000001
00000200
00000000
00000000
00000000
00000000
00000000
,
00010300
00000000
00000000
00001000
00000000
00000000
00022000
00000000
00000000
00000000
00000000
00000000
00033000
00000000
00000000
00000000
,
00000010
00000100
00001000
00000100
00001000
00000001
00000010
00000000
,
00010000
00000000
00000000
00000100
00000000
00000000
00001000
00000000
00000010
00000000
00000002
00000000
00000000
00000000
00000000
00000000
,
00000103
00000000
00000000
00000000
00001000
00000000
00010000
00000000
00100000
00000000
00000000
00010000
01000000
00000000
00100000
00000000
,
00001000
00010000
00000100
00000010
00000100
00000001
00000100
00001000
,
00000010
00000000
00000001
00000000
00000010
00000000
00000100
00000000
00001000
00000000
00000000
00000010
00000100
00000000
00000001
00000000
,
00001000
00000100
00000001
00000000
00011000
00000000
00100000
00001000
,
00010000
00000000
00000000
00000000
01000000
00000000
00000000
00000000
00010000
00000000
00000000
10000000
00100000
00000000
00010000
00000000
,
00001000
00000000
01000000
00000000
00001000
00000000
00000000
00010000
00001000
00000000
00000000
00000000
00010000
00000000
00000010
00000000
,
00010010
00000000
00001100
00000000
00000100
00001000
00000100
00000010
,
00010000
00000000
00000000
00000100
00000000
00000000
00010000
00000000
00001000
00000000
00000000
00100000
00000000
00000000
00010000
00000000
,
10000000
00000000
01000000
00000000
00010000
00000000
00100000
00000000
00001000
00000000
00000000
00100000
00000000
00000000
00010000
00000000
,
00000100
00001000
00010000
00000000
00000001
00000100
00000010
00001000
,
00010000
00000000
00100000
00000000
01000000
00000000
10000000
00000000
00010000
00000000
00000000
01000000
00000000
00000000
00100000
00000000
,
00001000
00000000
00000000
00010000
00000000
00000000
00000100
00000000
00001000
00000001
00000000
00000000
00000100
00000000
00000010
00000000
,
00001000
00000000
00000000
00000000
00100000
00000000
00000000
00000000
10000000
00000000
00000000
01000000
00100000
00000000
00010000
00000000
,
00100000
01000000
00100000
01000000
00010000
00100000
00001000
00000000
,
00010000
00000000
00001000
00000000
00010000
00000000
00000000
00000000
00001000
00000000
00000000
00010010
00000000
00000000
00000000
00000000
,
00001000
00000000
00010000
00000000
00001000
00000000
00000000
00000000
00010000
00000000
00000000
00101000
00000000
00000000
00000000
00000000
,
10010000
00000000
00000000
01000000
00000000
00000000
00000000
00000000
01000000
00000000
00000000
01000000
00000000
00000000
00000000
00000000
,
10000000
00000000
00100000
00000000
01000000
00000000
00000000
00100000
00000000
00010000
00001000
00000000
00010000
00000000
00000100
00000000
,
00000001
00000000
00000000
00000001
00000000
00000000
00000000
00000000
00000010
00000000
00000000
00000010
00000000
00000000
00000000
00000000
,
00001000
00000000
00010000
00000000
00000100
00000000
00001000
00000000
00000001
00000000
00000100
00000000
00001000
00010000
00001000
00000000
,
00100000
00000000
00000000
00010000
00000000
00000000
00000000
00000000
00000010
00000000
00000000
00001000
00000000
00000000
00000000
00000000
,
10000000
01000000
10000000
00100000
01000000
00100000
00001000
00010000
00001000
00000010
00000100
00000010
,
00000002
00000203
00020300
02030000
,
03100000
01000000
00010000
10000000
01000000
10000000
00100000
01000000
,
10000000
00000000
00000000
10000000
01000000
00000000
00000000
01000000
00100000
00000000
00000000
00100000
00010000
00000000
00000000
00010000
,
00001000
00000000
00000000
00001000
00000100
00000000
00000000
00000100
00000010
00000000
00000000
00000010
00000001
00000000
00000000
00000001
,
00000100
00000000
00000000
00000010
00001000
00000000
00000001
00000000
00000000
00000010
00001000
00000000
00000010
00000000
00000001
00000000
,
00000100
00000010
00000100
00000000
00001000
00010000
00100000
00010000
,
00100000
00000000
00000000
10000000
00000000
00000000
10100000
00000000
00000000
00001000
00000000
00000000
00010000
00000000
00000000
00011000
,
00000000
00000000
00000010
00000000
00000000
00000100
00000000
00000000
00000120
00000000
00000100
00000000
00000100
00000000
00000130
00000000
,
00010000
00100000
00001000
01000000
,
00001000
00000010
00010000
00000100
,
00000001
00000100
00001000
00100000
,
00010000
01000000
10000000
00010000
,
00100000
00000000
00000000
00000000
01000000
00000000
00000000
00000000
11000000
00000000
00000000
01010000
00000000
00000000
00000000
00000000
,
00000100
00000000
00000000
00000000
00000010
00000000
00000000
00000000
00001010
00000000
00000000
00000011
00000000
00000000
00000000
00000000
,
00001000
00000000
00000000
01000000
00010000
00000000
00100000
00000000
10000000
00000000
00000000
01000000
00001000
00000000
00100000
00000000
,
00010000
00000000
00000000
00000100
00001000
00000000
00000010
00000000
00001010
00000000
00000000
00000000
00011000
00000000
00000000
00000000
,
00010000
00000000
00000100
00001000
00000000
00000000
00000010
00000000
00000100
00000000
00000001
00000010
00000000
00000000
00001000
00000000
,
00010000
00000000
00000100
00010000
00000000
00000000
00001000
00000000
00100000
00000000
01000000
00000000
10000000
00000000
00000000
00000000
,
02000000
00000000
03020000
00032000
,
00003001
00000000
00000010
00001000
00000000
00001000
00000100
00000000
00010000
00000000
00001000
00100000
00000000
00100000
00010000
00000000
,
10000000
00000000
00100000
01000000
00000000
01000000
00010000
00000000
00000010
00000000
00001000
00000000
00000100
00000000
00000010
00000000
,
00002002
00003003
00000000
00000000
;

//---------------dance-double - ----------------
#NOTES:
     dance-double:
     :
     Challenge:
     15:
     0.864,0.936,0.479,0.275,0.647,597.000,54.000,31.000,0.000,0.000,0.000,0.864,0.936,0.479,0.275,0.647,597.000,54.000,31.000,0.000,0.000,0.000:
00000000
00000000
00000000
00000000
,
00000000
00000000
00000000
00000000
,
00000000
00000000
00000000
00000000
,
00000001
00000010
00000001
00000010
00000000
00000001
00001000
00000000
00000010
00000100
00000010
00000100
00000000
00000010
00001000
00000000
,
00000100
00010000
00000100
00010000
00000000
00001000
00010000
00000000
00011000
00000000
00000000
00000000
00001000
00000000
00010000
00000000
,
01000000
00110000
01000000
10100000
,
01000000
00000000
00101000
00000000
00020000
00000000
00031000
00000100
,
00000001
00000011
00000100
00001010
,
00002002
00000000
00000000
00000000
00003003
00000000
00000100
00001000
,
00010000
00101000
00010000
11000000
,
00100000
00000000
01010000
00000000
10200000
00000000
00310000
00001000
,
01000000
00000000
00000000
00000000
00101000
00000000
00000000
00000000
00010000
00000000
00000000
00022000
00000000
00000000
00033000
00000000
,
00010000
00000000
00000000
00000100
00000010
00000000
00000001
00000000
00001000
00000000
00000000
00001000
00000001
00000000
00000010
00000000
,
00000100
00000000
00000000
00000100
00010000
00000000
00001000
00000000
00010000
00001000
00100000
00000000
00100000
00001000
00010000
00000000
,
00001000
00000000
00000000
00001000
00010000
00000000
00100000
00000000
01000000
00000000
00000000
01000000
00010000
00000000
10000000
00000000
,
01000000
00000000
00000000
01000000
00100000
00000000
01000000
00000000
10000000
01000000
00100000
00000000
00100000
01000000
10000000
00000000
,
10010000
00000000
00000000
00010000
00100000
00000000
00001000
00000000
00101000
00000000
00000000
00100000
01000000
00000000
00010000
00000000
,
00011000
00000000
00000000
00001000
00000100
00000000
00000010
00000000
00001000
00000100
00000010
00000000
00000010
00000100
00001000
00000000
,
00000001
00000100
00000001
00000100
00000000
00000001
00001000
00000000
00000100
00000010
00000100
00000010
00000000
00000100
00001000
00000000
,
00000010
00010000
00000010
00010000
00000000
00001000
00010000
00000000
00001000
00100000
00001000
00100000
00010000
01000000
00010000
01000000
,
00100000
00000000
10000000
01000000
00010000
00001000
00010000
01000000
,
10000000
00100000
00010000
00001000
00010000
00001000
00000100
00000001
,
00000001
00000000
00000000
00000100
00000010
00000000
00001000
00000000
00001000
00000000
00000000
00000100
00000010
00000000
00001000
00000000
,
00001000
00000000
00000000
00010000
01000000
00000000
00100000
00000000
00010000
00100000
01000000
00000000
01000000
00100000
00010000
00000000
,
10000000
00000000
00100000
01000000
00010000
00100000
01000000
00010000
,
00001000
00000100
00000010
00000100
00001000
00010000
00100000
00000000
,
10000000
00000000
00000000
00100000
01000000
00000000
00010000
00000000
00010000
00000000
00000000
00100000
01000000
00000000
00010000
00000000
,
00010000
00000000
00000000
00001000
00000010
00000000
00000100
00000000
00001000
00000100
00000010
00000000
00000010
00000100
00001000
00000000
,
00000001
00000001
00000100
00000010
00001000
00000001
00000100
00000100
,
00001000
00000000
00000000
00001000
00010000
00000000
00100000
00000000
01000000
00000000
00000000
00000000
00010000
00000000
10000000
00000000
,
01000000
00000000
10010000
00000000
00100000
10000000
01000000
00100000
,
00010000
00000000
00000000
10000000
00000000
00000000
00010000
00000000
00100000
01000000
00100000
00000000
00001000
00010000
00001000
00000000
,
00010000
00010000
00001000
00000100
00000001
00001000
00000010
00000100
,
00000001
00000000
00000010
00000100
00000000
00000000
00010000
00000000
00001000
00000000
00000000
00000000
00010000
00000000
00010000
00000000
,
00001000
00000000
00010100
00000000
00000000
00000000
00000000
00000000
00010000
00000000
01001000
00000000
00000000
00000000
00001000
00100000
,
00010000
00000000
00000000
11000000
00000000
00000000
01200000
00000000
00000000
00000000
00000000
00000000
01000000
00000000
01300000
00000000
,
00010000
00001000
00100000
00010000
01000000
00100000
10000000
01000000
,
00010000
00000000
00000000
00001000
00000000
00000000
00000100
00000000
00000010
00000000
00001001
00000000
00000000
00000000
00000000
00000000
,
00000220
00000000
00000000
00000000
00000330
00000000
00000000
00000000
00000001
00000000
00000000
00001000
00000000
00000000
00000001
00000000
,
00000010
00000100
00000010
00000000
00000020
00000000
00000000
00000000
00000130
00000000
00000000
00000000
00000100
00000000
00000010
00000000
,
00000001
00000000
00000010
00000000
00000100
00000000
00001000
00000000
00000001
00000000
00000100
00000010
00000000
00000010
00000100
00000000
,
00001000
00010000
00002000
00000000
00013000
00000000
00100000
00010000
,
20000000
00000000
00000000
00000000
31000000
00000000
00000000
00000000
00100000
00000000
00100000
00010000
00000000
00010000
01000000
00000000
,
00100000
10000000
00020000
00000000
01030000
00000000
00001000
00100000
,
00110000
00000000
00101000
00000000
00010100
00001000
00000100
00000010
,
00000001
00001000
00000001
00001000
00000000
00000010
00000100
00000000
00000001
00000000
00000010
00000000
00000100
00000000
00001000
00000000
,
00000010
00010000
00001000
00000000
00000000
00000000
00000000
00000000
00001100
00000000
00000000
00011000
00000000
00000000
00110000
00000000
,
01000000
10000000
00200000
00000000
01300000
00000000
00010000
10000000
,
00100000
00000000
00010000
00000000
00001000
00000000
00010000
00000000
00000100
00000000
00000000
00000110
00000000
00000000
00000001
00000000
,
00000100
00000000
00000000
00000110
00000000
00000000
00001000
00000000
00011000
00000000
00000000
00000000
00001000
00000000
00010000
00000000
,
02000000
00000000
00000000
00000000
13000000
00000000
00000000
00000000
01000000
00000000
01000000
00100000
00000000
00100000
00010000
00000000
,
01000000
00001000
00021000
00000000
00030010
00000000
00001000
00000010
,
00000100
00000000
00000001
00000000
00000010
00000000
00000100
00000000
00001000
00000000
00000000
00010100
00000000
00000000
00000000
00000000
,
00001000
00000000
00100000
00000000
01000000
00000000
10000000
00000000
00100000
00000000
00000000
01010000
00000000
00000000
00000000
00000000
,
10000000
00010000
10000000
00010000
00000000
10000000
01000000
00000000
00010000
00000000
00001000
00000000
00010000
00000000
00100000
00000000
,
01000000
00000000
00100000
00000000
01100000
00000000
00000000
01000000
00010000
00000000
01000000
00000000
00010000
00100000
00001000
00000000
,
00010000
00001000
00010000
00001000
00000000
00010000
00000010
00000000
00001000
00000000
00000100
00000000
00000010
00000000
00000001
00000000
,
00001000
00000010
00001000
00000000
00000001
00000010
00000001
00000000
00001000
00000010
00000100
00000010
00002000
00000000
00000000
00000000
,
00003001
00000010
00000001
00000010
00000000
00000001
00000100
00000000
00001000
00000000
00010000
00000000
00001000
00000000
00000100
00000000
,
00000001
00000010
00000100
00000010
00000100
00001000
00000010
00000100
00001000
00010000
00001000
00100000
,
00010000
00100000
00010000
00100000
00000000
00010000
01000000
00000000
00100000
00000000
10000000
00000000
01000000
00000000
00100000
00000000
,
00020000
01030000
00020000
10030000
00020000
00130000
00020000
00031000
,
00000100
00000000
00000010
00000100
00000010
00000000
00000001
00000010
00000001
00000000
00000100
00000000
00001000
00000000
00100000
00000000
,
00001000
00000000
00010000
00001000
00010000
00000000
00001000
00100000
00001000
00000000
00010000
00000000
00100000
00000000
01000000
00000000
,
10000000
01000000
00000000
01000000
00010000
00000000
00010000
00001000
00000000
00001000
00000100
00000000
00000100
00000001
00000000
00000001
,
00000100
00000000
00000010
00000100
00000010
00000000
00000000
00000000
00000001
00000010
00000100
00000000
00000010
00000100
00001000
00000000
,
00001100
00000000
00000000
00011000
00000000
00000000
00110000
00000000
00000000
10010000
00000000
00000000
10100000
00000000
00000000
11000000
,
00000000
00000000
01010000
00000000
00000000
00110000
00000000
00000000
00101000
00000000
00010000
00000000
00001000
00000000
00000100
00000000
,
00000020
00000001
00002030
00013000
,
00000200
00000010
00020300
00130000
,
00002000
00000100
00203000
01300000
,
00020000
00001000
02030000
03010000
,
10010000
00000000
00000000
00000000
00110000
00000000
00000000
00000000
01001000
00000000
00000000
00010100
00000000
00000000
00000000
00000000
,
00001001
00000000
00000000
00000000
00001100
00000000
00000000
00000000
00010010
00000000
00000000
00101000
00000000
00000000
00000000
00000000
,
00011000
00000000
00000000
00001000
00010000
00000000
00100000
00000000
01000000
00000000
00000000
01000000
00010000
00000000
10000000
00000000
,
01000000
00000000
00000000
00010000
00001000
00000000
00100000
00000000
00001000
00010000
00000100
00000000
00000100
00010000
00001000
00000000
,
00010000
00000100
00010000
00000100
00000000
00001000
00000010
00000000
00001000
00000100
00001000
00000100
00000000
00000010
00000001
00000000
,
00000100
00000001
00000100
00000001
00000000
00000010
00000001
00000000
00000001
00000010
00000100
00000000
00000100
00000010
00000001
00000000
,
00002000
00000000
00000100
00003100
,
00010000
00000100
00010000
00000100
00000000
00001000
00000100
00000000
00010000
00000010
00010000
00000010
00000000
00001000
00000010
00000000
,
00010000
00001000
00010000
00001000
00000000
00100000
00010000
00000000
10000000
01000000
00100000
00010000
01000000
00100000
10000000
00000000
,
02000000
03000000
00000000
00000000
;
