#TITLE:KIMONO♥PRINCESS;
#SUBTITLE:;
#ARTIST:jun;
#TITLETRANSLIT:KIMONO PRINCESS;
#SUBTITLETRANSLIT:;
#ARTISTTRANSLIT:;
#GENRE:Happy Hardcore;
#CREDIT:;
#BANNER:KIMONO PRINCESS.png;
#BACKGROUND:KIMONO PRINCESS-bg.png;
#LYRICSPATH:;
#CDTITLE:./CDTITLES/DanceDanceRevolution X2.png;
#MUSIC:KIMONO PRINCESS.mp3;
#OFFSET:-0.058;
#SAMPLESTART:30.820;
#SAMPLELENGTH:15.000;
#SELECTABLE:YES;
#DISPLAYBPM:*;
#BPMS:0.000=190.476
,4.000=189.996
,180.000=95.023
,187.000=93.750
,187.250=95.117
,194.500=94.987
,202.500=189.994
;
#STOPS:187.000=0.160,
187.250=0.160,
194.500=0.320,
202.500=0.313
;
#BGCHANGES:;
#KEYSOUNDS:;
#ATTACKS:;

//---------------dance-single - ----------------
#NOTES:
     dance-single:
     :
     Beginner:
     5:
     0.215,0.283,0.057,0.153,0.000,136.000,6.000,16.000,0.000,0.000,0.000,0.215,0.283,0.057,0.153,0.000,136.000,6.000,16.000,0.000,0.000,0.000:
0000
0000
0000
0000
,
0000
0000
0000
0000
,
0000
0000
0000
0000
,
0000
0000
0000
0000
,
0000
0000
0000
0000
,
0000
0001
0000
0001
,
0000
1000
0000
1000
,
1000
0000
0001
0000
,
1000
1000
1000
0000
,
0020
0000
0000
0030
,
0200
0000
0000
0300
,
0002
0000
0000
0003
,
2000
0000
0000
3000
,
0010
0000
0010
0000
,
0001
0000
0001
0000
,
1000
0000
1000
0000
,
0100
0000
0000
0000
,
0000
0001
0000
0010
,
0000
1000
0000
0010
,
0000
0001
0000
0010
,
0000
1000
0000
0010
,
0000
0000
0100
0100
,
0000
0000
0100
0100
,
0000
0000
0000
0000
,
1001
0000
0000
0000
,
0000
0010
0010
0010
,
0000
0100
0100
0100
,
0100
0000
0010
0000
,
0110
0000
0000
0000
,
0000
0010
0010
0100
,
0000
0100
0100
0010
,
0010
0000
0100
0000
,
0000
0000
0110
0000
,
0000
0010
0100
0010
,
0000
0100
0010
0100
,
0200
0000
0300
0000
,
0020
0000
0030
0000
,
0000
0010
0010
0010
,
0000
0001
0001
0001
,
0000
0100
0100
0100
,
0000
1000
1000
1000
,
0000
0000
0002
0000
,
2000
0000
3003
0000
,
2002
0000
0000
0000
,
0000
0000
0000
3003
,
0000
1000
0000
1000
,
0000
0001
0000
0001
,
0000
0010
0000
0000
0000
0010
0000
0000
,
0000
0100
0000
0000
0000
0100
0000
0000
,
0000
0000
0000
0010
,
0010
0000
0010
0010
0010
0000
0000
0010
,
0000
0010
0000
0100
0000
0000
0000
0100
,
0000
0100
0000
0010
0000
0010
0000
0000
,
0000
0100
0000
0000
0000
0000
0000
0000
,
0000
0110
0000
0000
0000
0000
0000
0010
,
0000
0100
0000
0010
0000
0000
0000
0100
,
0000
0010
0000
0100
0000
0200
0000
0000
,
0000
0300
0000
0000
0000
0020
0000
0000
,
0000
0030
0000
0000
0000
0000
0000
0010
,
0000
0010
0000
0010
0000
0000
0000
0001
,
0000
0001
0000
0001
0000
0000
0000
0100
,
0000
0100
0000
0100
0000
0000
0000
1000
,
0000
1000
0000
1000
0000
0000
0000
0000
,
0000
0002
0000
0000
0000
2000
0000
0000
,
0000
3003
0000
0000
0000
2002
0000
0000
,
0000
0000
0000
0000
,
0000
0000
0000
3003
0000
0000
0000
0001
,
0000
0000
0000
0001
0000
0000
0000
1000
,
0000
0000
0000
1000
0000
0000
0000
0001
,
0000
0000
0000
1000
0000
0000
0000
0001
,
0000
0000
0000
1000
0000
0000
0000
0010
,
0000
0000
0000
0010
0000
0000
0000
0100
,
0000
0000
0000
0100
0000
0100
0000
0000
,
0000
0100
0000
0000
0000
0010
0000
0100
,
0000
0010
0000
0000
0000
0000
0000
0000
,
;

//---------------dance-single - ----------------
#NOTES:
     dance-single:
     :
     Easy:
     7:
     0.401,0.502,0.296,0.277,0.000,234.000,31.000,29.000,0.000,0.000,0.000,0.401,0.502,0.296,0.277,0.000,234.000,31.000,29.000,0.000,0.000,0.000:
0000
0000
0000
0000
,
0000
0000
0000
0000
,
0000
0000
0000
0000
,
0000
0000
0000
0000
,
0000
0000
0000
0000
,
0001
0100
0001
0100
,
1000
0010
0001
0100
,
1001
0000
0110
0000
,
1001
0110
1001
0110
,
0000
0001
0000
0001
,
0100
1000
0100
0001
,
0000
1000
0000
1000
,
0100
0001
0100
1000
,
0000
0010
0010
0010
,
0000
0100
0100
0100
,
0000
0001
0010
0001
,
1000
1000
0001
0001
,
0010
1000
0100
0000
,
0010
0001
0100
0000
,
0001
0010
0001
0010
,
0100
1000
0100
0000
,
0000
0010
1000
0001
,
0000
0010
0001
1000
,
0001
0001
1000
0001
,
2002
0000
0000
3003
,
0000
1000
0100
0002
,
0010
0100
0010
0103
,
1000
0100
0001
0100
,
1000
0010
0001
0010
,
0000
0001
0100
2000
,
0010
0100
0010
3100
,
0010
0010
0100
0000
,
0110
0000
1001
0000
,
0002
0010
2003
0010
,
3002
0100
2003
0100
,
3001
0010
0100
1000
,
1000
0010
0100
0001
,
0000
1000
0100
2000
,
0000
3001
0100
0002
,
0000
1003
0010
2000
,
0000
3001
0010
0001
,
0100
0000
0010
0100
,
0110
0000
1000
0001
,
1001
0000
0110
0000
,
1001
0110
1001
0110
,
0002
0010
0203
0010
,
0302
0000
0010
0000
0203
0000
0310
2000
,
0000
0010
0000
3200
0000
0010
0000
2300
,
0000
0010
0000
3200
0000
0310
0001
0000
,
0000
1000
0000
0010
,
0010
0000
0001
1000
0001
1000
0000
0001
,
0000
0100
0000
2000
0000
0010
0000
0100
,
0000
0010
0000
3100
0000
0010
0000
0010
,
0000
0100
0000
0000
0000
0110
0000
0000
,
0000
1001
0000
0000
0000
0002
0000
0010
,
0000
2003
0000
0010
0000
3002
0000
0100
,
0000
2003
0000
0100
0000
3001
0000
0010
,
0000
0100
0000
1000
0000
1000
0000
0010
,
0000
0100
0000
0001
0000
0000
0000
1000
,
0000
0100
0000
2000
0000
0000
0000
3001
,
0000
0100
0000
0002
0000
0000
0000
1003
,
0000
0010
0000
2000
0000
0000
0000
3001
,
0000
0010
0000
0001
0000
0100
0000
0000
,
0000
0010
0000
0100
0000
0110
0000
0000
,
0000
1000
0000
0001
0000
1001
0000
0000
,
0000
0110
0000
0000
0000
1001
0000
0110
,
0000
1001
0000
0110
0000
1000
0000
0100
,
0000
1000
0000
0100
0000
0001
0000
0010
,
0000
1000
0000
0100
0000
0010
0000
0100
,
0000
0010
0000
0100
0000
0001
0000
1000
,
0000
1001
0000
0000
0000
0001
0000
0100
,
0000
0001
0000
0100
0000
1000
0000
0010
,
0000
0001
0000
0100
0000
1001
0000
0000
,
0000
0110
0000
0000
0000
1001
0000
0110
,
0000
2002
0000
0000
0000
0000
0000
0000
,
0000
3003
0000
0000
0000
0000
0000
0000
,
;

//---------------dance-single - ----------------
#NOTES:
     dance-single:
     :
     Medium:
     11:
     0.581,0.645,0.296,0.277,0.005,366.000,31.000,29.000,0.000,0.000,0.000,0.581,0.645,0.296,0.277,0.005,366.000,31.000,29.000,0.000,0.000,0.000:
0000
0000
0000
0000
,
0000
0000
0000
0000
,
0000
0000
0000
0000
,
0000
0000
0000
0000
,
0000
0000
0000
0000
,
1000
0000
0100
0000
0010
0100
1000
0000
,
0021
0100
1000
0031
,
1000
0010
1000
0000
0001
0010
0001
0000
,
0011
1100
1010
0101
,
0010
0001
1000
0000
0001
0000
0001
0000
,
0100
1000
0010
0000
0100
0001
0010
0000
,
0010
1000
0001
0000
1000
0000
1000
0000
,
0100
0001
0010
0100
1000
0000
0010
0000
,
1000
0000
0001
0100
1000
0100
0001
0000
,
0001
0000
1000
0100
0001
0100
1000
0000
,
0010
1000
0001
0010
,
0200
0001
0010
1300
,
0000
0010
1000
0100
0000
0010
0100
0000
,
0000
0010
0001
0100
0000
0010
0100
0000
,
1000
0010
0001
0100
,
1000
0000
0001
1000
0001
0000
1000
0000
,
0000
0001
0010
0001
0000
0100
0001
0100
,
0000
1000
0100
1000
0000
0010
1000
0010
,
0100
0000
1000
0001
0000
0100
0010
0000
,
1001
0000
0000
0110
0000
0000
1001
0000
,
0000
0000
0010
0001
0100
0001
0020
0000
,
0100
1000
0001
1030
,
0001
0100
1000
0000
0001
0100
1000
0000
,
0001
0010
1000
0010
,
0000
0000
0010
1000
0100
1000
0020
0000
,
0100
0001
1000
0031
,
1000
0100
0001
0000
1000
0100
0001
0000
,
1000
1000
0001
0001
1001
0000
0000
0000
,
1000
0010
1000
0000
1000
0100
1000
0000
,
0001
0100
0001
0000
0001
0010
0001
0000
,
0001
0010
1000
0001
0100
1000
0001
0010
,
1000
0001
0100
1000
0010
0100
0001
1000
,
0000
0001
0200
0001
0301
0100
0001
0200
,
0000
0301
0020
0001
0031
0010
0001
0020
,
0000
0130
2000
0100
3100
1000
0100
2000
,
0000
3001
0010
1000
1000
0010
0001
0000
,
0100
0000
0001
0010
1000
0100
0001
0000
,
0110
0000
0001
1000
,
1001
0000
0110
0000
,
1010
0011
0101
1100
,
2000
0000
0010
0000
3200
0001
0010
0000
,
2300
0000
0000
0000
0010
0000
0000
0000
3200
0000
0001
0000
0310
0010
0002
0000
,
0000
0010
0000
0203
1000
0010
0000
0302
,
0000
0010
0000
0203
1000
0310
1000
0000
,
0000
0001
0000
0010
,
0010
0000
1000
0001
1000
0001
0000
0010
,
0001
0100
0001
0020
0000
0100
0000
1000
,
0000
0001
0000
1030
0000
0001
0100
1000
,
0000
0001
0100
1000
0000
0001
0001
1000
,
1000
1001
0000
0000
0000
0001
0010
0001
,
0000
0001
0100
0001
0000
1000
0100
1000
,
0000
1000
0010
1000
0000
1000
0010
0001
,
1000
0100
0001
1000
0010
0001
1000
0100
,
0001
0010
0100
1000
0001
0000
1000
0200
,
1000
1300
0100
1000
0200
0000
1300
0020
,
1000
1030
0010
1000
0020
0000
0130
0002
,
0100
0103
0001
0100
0002
0000
1003
0010
,
0001
0001
0010
1000
0000
0100
0000
1000
,
0010
0001
0100
1000
0000
0110
0000
0000
,
0000
1000
0000
0001
0000
1001
0000
0000
,
0000
0110
0000
0000
0000
0011
0000
1010
,
0000
1100
0000
0101
0000
0001
0000
0100
,
0000
0010
0100
0001
0000
1020
0000
0100
,
0000
0001
0000
1030
0000
0001
0010
0001
,
0000
1000
0010
1000
0000
0001
0100
0001
,
0000
0110
0000
0110
0000
1000
0000
0100
,
0000
0010
0100
1000
0000
0021
0000
0100
,
0000
1000
0000
0031
0000
1000
0010
1000
,
0000
0001
0010
0001
0000
0011
0000
1100
,
0000
0202
0000
0000
0000
0000
0000
0000
,
0000
0303
0000
0000
0000
0000
0000
0000
;

//---------------dance-single - ----------------
#NOTES:
     dance-single:
     :
     Hard:
     15:
     0.810,0.860,0.458,0.343,0.258,510.000,48.000,36.000,0.000,0.000,0.000,0.810,0.860,0.458,0.343,0.258,510.000,48.000,36.000,0.000,0.000,0.000:
0000
0000
0000
0000
,
0000
0000
0000
0000
,
0000
0000
0000
0000
,
0000
0000
0000
0000
,
0000
0000
0000
0000
,
0001
1000
0010
0001
0100
0010
0001
0021
,
0000
1030
0001
0100
1000
0001
0010
0000
,
1010
0000
0100
0001
0100
0000
0000
0000
0011
0000
0100
1000
0100
0000
0000
0000
,
1010
0101
0011
1100
,
0100
1000
0001
0010
1000
0000
1000
0000
,
0010
0001
0100
0000
0010
1000
0100
0000
,
0100
0001
1000
0010
0001
0000
0001
0000
,
0010
1000
0100
0010
0001
1000
0100
0000
,
0000
0001
1000
0010
0001
0010
1000
1000
,
0000
1000
0001
0010
1000
0010
0001
0000
,
0100
0001
0010
0000
0100
1000
0010
0000
,
0020
1000
0100
0031
,
0110
0100
0001
0010
0000
0100
0010
0100
,
0110
0100
1000
0010
0000
0100
0010
0100
,
0001
0000
0100
1000
0010
0001
0100
0000
,
0001
0000
1000
0001
1000
0000
0001
0000
,
0000
1000
0200
1000
1300
0010
1000
0010
,
0000
0001
0020
0001
0031
0100
0001
0100
,
0010
0000
0001
1000
0000
0010
0100
0000
,
1001
0000
0000
0110
0000
0100
0100
0100
,
0000
0000
0010
1000
0020
0000
0130
0001
0200
0000
0301
0010
0002
0000
1003
0010
,
1000
2000
3002
1000
1000
1003
0001
0000
,
1000
0010
0001
1000
0001
0010
1000
0000
,
1001
0000
0000
0110
0000
0100
0100
0100
,
0000
0000
0010
0001
0020
0000
0130
1000
0200
0000
1300
0010
2000
0000
3001
0010
,
0001
0002
2003
0001
0001
3001
1000
0000
,
0001
0000
0010
0100
0010
0000
0000
0000
1000
0000
0010
0100
0010
0000
0000
0000
,
0001
0000
1000
0100
1000
0000
0001
0100
0001
0000
1000
0000
1001
0000
0000
0000
,
0010
0001
0010
0001
1000
0010
1000
0010
,
0100
0010
0100
0010
1000
0001
1000
0001
,
1000
0000
0100
0010
0100
0000
1000
0000
0001
0000
0100
0010
0100
0000
0001
0000
,
1000
0000
0100
0010
0100
0000
0001
0000
1000
0000
0010
0000
0001
0000
1000
0000
,
0000
0000
1000
0010
0100
0000
0010
1000
0100
0000
0010
0000
0100
0000
2000
0000
,
0000
0000
3001
0010
0100
0000
0010
0001
0100
0000
0010
0000
0100
0000
0002
0000
,
0000
0000
0013
0001
1000
0000
0010
1000
0001
0000
0001
0000
0010
0000
0002
0000
,
0000
0000
1003
0000
0100
0000
0001
0000
0001
0000
0100
1000
0100
0000
1000
0010
,
0100
0100
1000
0100
0001
0010
1001
0000
,
0110
0000
0000
0000
1000
0001
1001
0000
,
1010
0000
0100
0001
0100
0000
0000
0000
0011
0000
0100
1000
0100
0000
0000
0000
,
0011
0001
1001
0001
1010
1000
1001
0000
,
1002
0010
0100
0000
0023
1000
0100
0001
,
0032
0000
0100
0000
0010
0000
0000
0000
0203
0000
1000
0000
0010
0310
2000
0000
,
0010
0100
0000
3020
0001
0100
1000
2030
,
0010
0100
3001
1000
0001
1001
0001
0000
,
0000
1000
0000
0100
,
0100
0000
0000
0000
0001
0000
1000
0000
0001
0000
1000
0000
0010
1000
0020
0000
,
0130
0001
0200
0000
0301
0010
0002
0000
1003
0010
1000
0000
2000
0000
3002
0000
,
1000
0000
1000
0000
1003
0000
0001
0000
0000
0000
1000
0000
0010
0100
0010
0000
,
1000
0000
0100
0000
0010
0100
0010
0000
0001
0000
0100
0000
0010
0100
0010
0000
,
1000
0000
0100
1000
0100
1000
0001
0100
0001
0100
0010
0000
1000
0000
0010
0000
,
1000
0001
0010
0001
0010
0100
0010
0100
,
0010
0000
0001
0000
1000
0000
0001
0000
1000
0000
0001
0000
0100
0010
0100
0000
,
0001
0000
1000
0000
0100
0010
0100
0000
1000
0000
0001
0000
0100
0010
0100
0000
,
1000
0000
0001
0000
0010
0000
1000
0000
0001
0000
0000
0000
0001
0010
0100
0000
,
0010
0001
0100
0000
0010
0000
0100
0000
0002
0000
0000
0000
1003
0010
0100
0000
,
0010
1000
0100
0000
0010
0000
0100
0000
2000
0000
0000
0000
3010
1000
0001
0000
,
0010
0001
1000
0000
1000
0000
0010
0000
2000
0000
0000
0000
3001
0000
0100
0000
,
1000
0000
1000
0000
0100
0001
0100
0000
0001
0010
0100
0000
0100
0000
0001
0000
,
0100
1000
0010
1001
0000
0110
0000
0000
,
0000
0000
1001
0000
1001
0000
1001
0000
0000
0000
0011
0000
0100
1000
0100
0000
,
0000
0000
1010
0000
0100
0001
0100
0000
0000
0000
1010
0000
1000
0000
1001
0000
,
1000
0011
0001
1001
0000
1000
0001
0010
,
1000
0100
0010
1000
1020
0000
0031
1000
,
0100
0001
1000
0010
0000
0011
0100
1000
,
0000
1010
0100
0001
0000
1001
0001
1000
,
0001
0110
0000
0110
0000
0001
1000
0010
,
0001
0100
0010
0001
0021
0000
1030
0001
,
0100
0000
1000
0000
0001
0000
0010
0000
0000
0000
1010
0000
0100
0001
0100
0000
,
0000
0000
0011
0000
0100
1000
0100
0000
0000
0000
1010
0000
0000
0000
0101
0000
,
0000
2002
0000
0000
0000
0000
0000
0000
,
0000
3003
0000
0000
0000
0000
0000
0000
;

//---------------dance-double - ----------------
#NOTES:
     dance-double:
     :
     Easy:
     7:
     0.369,0.430,0.191,0.296,0.000,220.000,20.000,31.000,0.000,0.000,0.000,0.369,0.430,0.191,0.296,0.000,220.000,20.000,31.000,0.000,0.000,0.000:
00000000
00000000
00000000
00000000
,
00000000
00000000
00000000
00000000
,
00000000
00000000
00000000
00000000
,
00000000
00000000
00000000
00000000
,
00000000
00000000
00000000
00000000
,
00000000
10000000
01000000
00020000
,
00001000
01000000
00001000
01030000
,
00011000
00000000
00001100
00000000
,
00011000
00001010
00011000
00001010
,
00000000
00000001
00000100
00001000
,
00010000
00001000
00010000
00100000
,
00000000
10000000
01000000
00010000
,
00001000
00010000
00011000
00000000
,
00000000
00000010
00000001
00001000
,
00000000
00000100
00001000
00010000
,
00100000
00010000
00001000
00000010
,
00001000
00010000
00100000
00000000
,
10000000
01000000
10000000
00000000
,
00010000
00001000
00010000
00000000
,
00000100
00000001
00000100
00000010
,
00010000
00000100
00000100
00000000
,
00000001
00000100
00001000
00010000
,
00010000
00001000
00000100
00000001
,
00000010
00000100
00001000
00010000
,
00022000
00000000
00000000
00033000
,
00020000
00100000
00032000
00000010
,
00023000
01000000
00032000
00000100
,
00013000
01000000
10000000
01000000
,
00010000
00001000
00000010
00000001
,
00000000
00000001
00001000
00010000
,
00000000
00001000
00010000
10000000
,
00010000
00010000
10000000
01000000
,
00010000
00000000
00011000
00000000
,
00020000
00100000
00032000
00000010
,
00023000
01000000
00032000
00000100
,
00023000
00000010
00032000
00000010
,
00023000
00000010
00032000
00003010
,
00000000
00010000
01000000
10000000
,
00000000
00001000
00000100
00000001
,
00000000
00010000
00100000
10000000
,
00000000
00001000
00000010
00000001
,
00000100
00000000
00001000
00010000
,
00011000
00000000
00100000
10000000
,
20020000
00000000
00000000
00000000
,
00000000
00000000
00000000
30030000
,
10000000
01000000
00000000
00010000
,
00000000
00001000
00000000
00000001
,
00000000
00000010
00000000
00000000
00000000
00000001
00000000
00001000
,
00000000
00000100
00000000
00010000
00010000
00010000
01000000
00000000
,
00000000
00100000
00000000
00010000
,
10000000
00000000
00010000
10000000
00010000
10000000
00000000
10000000
,
00000000
00010000
00000000
00001000
00000000
00000000
00000000
00010000
,
00000000
00001000
00000000
00000001
00000000
00001000
00000000
00001000
,
00000000
00000001
00000000
00000100
00000000
00001000
00000000
00000000
,
00000000
00011000
00000000
00000000
00000000
00002000
00000000
00000010
,
00000000
00023000
00000000
00100000
00000000
00032000
00000000
00000100
,
00000000
00023000
00000000
01000000
00000000
00032000
00000000
00100000
,
00000000
00023000
00000000
00100000
00000000
00032000
00000000
00100000
,
00000000
00023000
00000000
00130000
00000000
00000000
00000000
00001000
,
00000000
00000100
00000000
00000001
00000000
00000000
00000000
00010000
,
00000000
01000000
00000000
10000000
00000000
00000000
00000000
00001000
,
00000000
00000010
00000000
00000001
00000000
00000000
00000000
00010000
,
00000000
00100000
00000000
10000000
00000000
01000000
00000000
00000000
,
00000000
00010000
00000000
00001000
00000000
00011000
00000000
00000000
,
00000000
00000010
00000000
00000001
00000000
00002002
00000000
00000000
,
00000000
00000000
00000000
00000000
,
00000000
00000000
00000000
00003003
00000000
00000000
00000000
00000001
,
00000000
00000100
00000000
00002000
00000000
00010000
00000000
00000100
,
00000000
00010000
00000000
00003100
00000000
00000000
00000000
00010000
,
00000000
00100000
00000000
10000000
00000000
00010000
00000000
10000000
,
00000000
10010000
00000000
00000000
00000000
00000000
00000000
10000000
,
00000000
01000000
00000000
00020000
00000000
00001000
00000000
01000000
,
00000000
00001000
00000000
01030000
00000000
00011000
00000000
00000000
,
00000000
00001100
00000000
00000000
00000000
00011000
00000000
00001010
,
00000000
00022000
00000000
00000000
00000000
00000000
00000000
00000000
,
00000000
00033000
00000000
00000000
00000000
00000000
00000000
00000000
,
;

//---------------dance-double - ----------------
#NOTES:
     dance-double:
     :
     Medium:
     11:
     0.545,0.538,0.525,0.162,0.005,328.000,55.000,17.000,0.000,0.000,0.000,0.545,0.538,0.525,0.162,0.005,328.000,55.000,17.000,0.000,0.000,0.000:
00000000
00000000
00000000
00000000
,
00000000
00000000
00000000
00000000
,
00000000
00000000
00000000
00000000
,
00000000
00000000
00000000
00000000
,
00000000
00000000
00000000
00000000
,
00000010
00000000
00000001
00000000
00001000
00000100
00010000
00000000
,
00000010
00001000
00000100
00000000
00001000
00010000
01000000
00000000
,
10200000
01300000
00210000
01300000
,
00101000
00010100
00101000
00010100
,
00000010
00000100
00001000
00000000
00000010
00000000
00000010
00000000
,
00000001
00000100
00001000
00000000
00010000
01000000
10000000
00000000
,
00100000
10000000
00010000
00000000
01000000
00000000
01000000
00000000
,
10000000
00100000
00010000
00000000
00001000
00000010
00000001
00000000
,
00001000
00000000
00000100
00010000
00001000
00000000
01000000
00000000
,
00100000
00000000
10000000
01000000
00010000
00000000
01000000
00000000
,
00100000
00001000
00010000
00100000
,
10100000
01010000
00011000
00001100
,
00020000
01000000
10000000
01000000
,
00032000
00000100
00000001
00000100
,
00013000
00100000
10000000
01000000
,
10000000
00000000
01000000
00010000
00001000
00000000
00010000
00000000
,
00000000
00001000
00000010
00001000
00000000
00000010
00000001
00000010
,
00000000
00000100
00000001
00000100
00000000
00001000
00000100
00001000
,
00010000
00000000
01000000
10000000
00000000
00010000
01000000
00000000
,
01100000
00000000
00000000
10010000
00000000
00000000
01100000
00000000
,
00000000
11000000
01010000
00011000
,
00010010
01001000
00101000
00010100
,
00000010
00000100
00010000
00000000
00000010
00001000
00000100
00000000
,
00010000
00001000
00000010
00000001
,
00000000
00000101
00001100
00011000
,
00101000
00010100
00010010
01001000
,
00100000
00001000
01000000
00000000
00100000
01000000
00010000
00000000
,
10000000
10000000
00010000
00010000
10010000
00000000
00000000
00000000
,
10000000
00100000
10000000
00000000
10000000
01000000
00010000
00000000
,
00010000
00001000
00010000
00000000
00001000
00000100
00000001
00000000
,
00000010
00000100
00010000
00100000
00010000
00001000
00000010
00000100
,
00010000
00100000
00010000
00001000
00000010
00000100
00001000
00000000
,
00020000
01000000
10000000
00100000
,
00032000
00000100
00000001
00000010
,
00023000
01000000
10000000
00100000
,
00032000
00000100
00000001
00000010
,
00013000
00000000
10000000
00010000
00100000
01000000
10000000
00000000
,
01100000
00000000
00000000
00000000
00010000
00001000
00010000
00000000
,
00011000
00000000
00001010
00000000
,
00000011
00000101
00001100
00011000
,
00020000
00000010
00000000
00000100
,
00000000
00000000
00000000
00000000
01000000
00000000
00000000
00000000
00000000
00000000
00000000
00000000
00001000
00001000
00000000
00000000
,
00000000
00100000
00000000
00000000
00000000
00000010
00000000
00001000
,
00000000
00001000
00000000
00000100
01030000
00000100
00010000
00000000
,
00000000
00100000
00000000
10000000
,
00010000
00000000
00001000
00000001
00001000
00000001
00000000
00000101
,
00000000
00001100
00000000
00011000
00000000
00101000
00000000
00010100
,
00000000
00010010
00000000
01001000
00000000
00100000
00001000
01000000
,
00000000
00100000
01000000
00010000
00000000
10000000
10000000
00010000
,
00010000
10010000
00000000
00000000
00000000
10000000
00100000
10000000
,
00000000
10000000
01000000
00010000
00000000
00010000
00001000
00010000
,
00000000
00001000
00000100
00000001
00000000
00000010
00000100
00010000
,
00100000
00010000
00001000
00000010
00000100
00010000
00100000
00010000
,
00001000
00000010
00000100
00001000
00000000
00020000
00000000
01000000
,
00000000
10000000
00000000
00100000
00000000
00032000
00000000
00000100
,
00000000
00000001
00000000
00000010
00000000
00023000
00000000
01000000
,
00000000
10000000
00000000
00100000
00000000
00032000
00000000
00000100
,
00000000
00000001
00000000
00000010
00000000
00013000
00000000
10000000
,
00010000
00100000
01000000
10000000
00000000
01100000
00000000
00000000
,
00000000
00010000
00001000
00010000
00000000
00011000
00000000
00000000
,
00000000
00010010
00000000
00000000
00000000
00010100
00000000
00101000
,
00000000
01001000
00000000
00010010
00000000
00000010
00000000
00000001
,
00000000
00001000
00000100
00010000
00000000
00000010
00001000
00000100
,
00000000
00001000
00010000
01000000
00000000
00100000
00000000
01000000
,
00000000
00010000
10000000
01000000
00000000
00100000
00001000
00010000
,
00000010
00001000
00000000
00000100
00000000
00000010
00000000
00000001
,
00000000
00000100
00001000
00010000
00000000
00001000
00010000
00100000
,
00000000
00001000
00010000
01000000
00000000
10200000
00000000
01300000
,
00000000
00210000
00000000
01300000
00000000
00101000
00000000
00010100
,
00000000
00002002
00000000
00000000
00000000
00000000
00000000
00000000
,
00000000
00003003
00000000
00000000
00000000
00000000
00000000
00000000
;

//---------------dance-double - ----------------
#NOTES:
     dance-double:
     :
     Hard:
     15:
     0.750,0.717,0.563,0.172,0.148,473.000,59.000,18.000,0.000,0.000,0.000,0.750,0.717,0.563,0.172,0.148,473.000,59.000,18.000,0.000,0.000,0.000:
00000000
00000000
00000000
00000000
,
00000000
00000000
00000000
00000000
,
00000000
00000000
00000000
00000000
,
00000000
00000000
00000000
00000000
,
00000000
00000000
00000000
00000000
,
00010000
10000000
00100000
00010000
00001000
00100000
00010000
00002000
,
00000000
00003100
00000010
00001000
00010000
00100000
10000000
00000000
,
10100000
00010000
00100000
00000000
00011000
00000100
00000001
00000000
,
00000011
00010010
00010100
00000101
,
00001000
00010000
00100000
01000000
00010000
00000000
00100000
00000000
,
10000000
01000000
00002000
00000000
00013000
00000010
00000001
00000000
,
00000100
00000010
00000100
00001000
00010000
00000000
00100000
00000000
,
00010000
00001000
00100000
01000000
10000000
00000000
01000000
00000000
,
00000000
10000000
10000000
00010000
00001000
00010000
10000000
10000000
,
00000000
10000000
00100000
00010000
00001000
00000010
00000001
00000000
,
00000100
00010000
00001000
00000000
00001000
00010000
00100000
00000000
,
00020000
00000010
00001000
01030000
,
01100000
00010000
00001000
00000110
00000000
00000001
00001000
00000000
,
00000110
00001000
00010000
01100000
00000000
10000000
00010000
00000000
,
00020000
00000000
01000000
00000000
10000000
10000000
00100000
00000000
,
00032000
00000000
00000100
00000000
00000001
00000001
00000010
00000000
,
00003000
00000101
00001000
00010000
00000010
00010000
00100000
10000000
,
00000000
11000000
00010000
00001000
00100000
00001000
00000010
00000001
,
00001000
00000000
00000100
00000010
00000000
00001000
00000001
00000000
,
00011000
00000000
00000000
10010000
00000000
01000000
01000000
01000000
,
00000000
00000000
00100000
10000000
00100000
00000000
01000000
00010000
01000000
00000000
00010000
00100000
00010000
00000000
10000000
01000000
,
10000000
01000000
00010000
00001000
00000100
00000001
00000010
00000000
,
00000001
00001000
00010000
00000100
00001000
00100000
01000000
00000000
,
10010000
00000000
00000000
01100000
00000000
01000000
01000000
01000000
,
00000000
00000000
00100000
00010000
00100000
00000000
00001000
00010000
00001000
00000000
00000100
00000010
00000100
00000000
00000001
00000010
,
00000001
00001000
00000010
00000100
00000001
00001000
00010000
00000000
,
10000000
00000000
01000000
00100000
01000000
00000000
00000000
00000000
10000000
00000000
00100000
00010000
00100000
00000000
00000000
00000000
,
00001000
00100000
00010000
00001000
00000010
00000001
00001001
00000000
,
00000001
00000100
00010000
00001000
00100000
10000000
01000000
00001000
,
00010000
00000010
00000001
00000100
00010000
00001000
00100000
10000000
,
01000000
00000000
00100000
01000000
00100000
00000000
00010000
00000000
00001000
00000000
00000010
00000100
00000010
00000000
00001000
00000000
,
00010000
00000000
00100000
01000000
00100000
00000000
00010000
00000000
00001000
00000000
00000100
00000000
00000001
00000000
00001000
00000000
,
00000000
00002001
00003010
00010000
00001000
01000000
00100000
11000000
,
00000000
10020000
00130000
00001000
00010000
00000100
00000010
00000101
,
00000000
00002001
00003010
00010000
00001000
01000000
00100000
11000000
,
00000000
00000000
10000000
00000000
01000000
00000000
00010000
00000000
00001000
00000000
00000100
00000001
00000100
00000000
00000001
00000010
,
00000001
00001000
00000010
00010000
00001000
00100000
10010000
00000000
,
01100000
00000000
00000000
00000000
10000000
00010000
10010000
00000000
,
10100000
00000000
01000000
00010000
01000000
00000000
00000000
00000000
00011000
00000000
00000100
00001000
00000100
00000000
00000000
00000000
,
00000011
00001100
00001010
00000101
,
00002000
00010000
00000100
00000000
00003010
00001000
00010000
00100000
,
20000000
00000000
00010000
00000000
01000000
00000000
00000000
00000000
30010000
00000000
00001000
00000000
00000001
00000001
00000020
00000000
,
00000001
00001030
00000000
00010000
00100000
10000000
01000000
00010000
,
00000000
00001000
00000000
00010010
00011000
01010000
00010000
00000000
,
00000000
10000000
00000000
01000000
,
00010000
00000000
00000000
00000000
00001000
00000000
00000010
00000000
00000001
00000000
00001000
00000000
00000010
00001000
00000010
00000000
,
00010000
00001000
00010000
00000000
01000000
00100000
01000000
00000000
10000000
00100000
10000000
00000000
00010000
00000000
00100000
00000000
,
01000000
00000000
10000000
00000000
00010000
00000000
00001000
00000000
00000000
00000000
00000001
00000000
00000100
00000010
00000100
00000000
,
00000000
00000000
00000001
00000000
00000010
00001000
00000010
00000000
00000000
00000000
00010000
00000000
00000010
00000000
00001000
00000000
,
00010000
00100000
10000000
10010000
00000000
10000000
01000000
00001000
,
00010000
00000010
00000001
00000100
00010000
00001000
00100000
10000000
,
01000000
00000000
00001000
00000000
00010000
00000000
00000010
00000000
00000001
00000000
00000100
00000000
00000010
00000100
00000010
00000000
,
00001000
00000000
00010000
00000000
00100000
01000000
00100000
00000000
00010000
00000000
00001000
00000000
00000010
00000100
00000010
00000000
,
00001000
00010000
01000000
10000000
00010000
00000000
10020000
00130000
,
00001000
00010000
00000100
00000010
00000101
00000000
00002001
00003010
,
00010000
00001000
01000000
00100000
11000000
00000000
10020000
00130000
,
00001000
00010000
00000100
00000010
00000101
00000000
00000001
00000100
,
00001000
00000000
00010000
00000000
01000000
10000000
01000000
00000000
10000000
00100000
10000000
00000000
00010000
00000000
00100000
00000000
,
00001000
00010000
00000010
00001001
00000000
00000110
00000000
00000000
,
00000000
00000000
00000001
00000000
00001000
00000000
00001001
00000000
00000000
00000000
00000011
00000000
00000100
00001000
00000100
00000000
,
00000000
00000000
00011000
00000000
01000000
00010000
01000000
00000000
00000000
00000000
10100000
00000000
00000000
00000000
01010000
00000000
,
00000000
00110000
00000000
11000000
00000000
00010000
10000000
00100000
,
00010000
00001000
00100000
00010000
00002000
00000000
00003100
00000010
,
00001000
00010000
00100000
10000000
00000000
10100000
00010000
00100000
,
00000000
00011000
00000100
00000001
00000010
00000000
00001000
00010000
,
00100000
00010000
00001000
00000101
00000000
00001000
00000001
00000010
,
00001000
00010000
00000010
00001000
00020000
00000000
01030000
00100000
,
00010000
00001000
00000010
00000001
00000000
00000011
00001000
00000010
,
00000000
00011000
01000000
10000000
00000000
10100000
00000000
00101000
,
00000000
02002000
00000000
00000000
00000000
00000000
00000000
00000000
,
00000000
03003000
00000000
00000000
00000000
00000000
00000000
00000000
,
;

//---------------dance-single - ----------------
#NOTES:
     dance-single:
     :
     Challenge:
     18:
     1.000,1.000,0.363,0.372,1.000,753.000,38.000,39.000,0.000,0.000,0.000,1.000,1.000,0.363,0.372,1.000,753.000,38.000,39.000,0.000,0.000,0.000:
0000
0000
0000
0000
,
0000
0000
0000
0000
,
0000
0000
0000
0000
,
0000
0000
0000
0000
,
0000
0000
0000
0000
,
1001
0000
0010
0000
0100
0000
1000
0100
0001
0000
0010
0000
0001
0100
0010
0000
,
0001
2000
0010
3002
0100
2003
0002
3003
,
1001
0100
0010
1000
0001
0100
0010
1001
,
1000
0010
1000
0000
0100
0010
0100
0000
0001
0010
0001
0100
1000
0010
0100
0001
,
1000
0100
1000
0000
0100
0000
0010
0000
0001
0000
0100
0000
0010
0000
1000
0000
,
0010
1000
0001
0000
0100
0000
0001
0000
0010
0000
1000
0000
0102
0000
0000
0000
,
0103
0010
0100
0000
1000
0000
0010
0000
0001
0000
0100
0000
1000
0000
0001
0000
,
0010
1000
0010
0100
0001
1000
0010
0100
0001
0010
1000
0001
0100
0010
0001
0010
,
0100
0010
0001
0000
1000
0000
0100
0000
0010
0000
0100
0000
0001
0000
0100
0000
,
0010
0100
1000
0000
0001
0000
0010
0000
0110
0000
0001
0000
0100
0000
1000
0000
,
0100
0010
0001
0000
0010
0000
1000
0000
0100
0000
1000
0000
0010
0000
1000
0000
,
0001
0100
0001
0100
0010
1000
0100
0010
0001
1000
0010
0100
0001
0010
0100
1000
,
0001
0000
0100
0001
0100
0000
1010
0000
0000
0000
0101
0000
0001
1000
0100
0010
,
0001
0000
1000
0001
0100
0000
0010
0000
0001
0000
0100
0010
1000
0000
0100
0000
,
0010
0000
1000
0000
0010
0000
0100
0000
0001
0000
0100
0000
0010
0100
1000
0001
,
0100
0000
0001
0000
0100
0000
0001
0000
0010
0000
1000
0000
0010
0100
1000
0010
,
0001
0100
0010
0000
1000
0000
0100
0000
0001
0000
0100
0000
1000
0010
0001
0010
,
0100
0001
1000
0000
0010
0000
1000
0000
0001
0000
0100
0000
0001
0000
0100
1000
,
0001
0020
0100
0000
0100
0000
0130
0000
1000
0000
0010
0000
0100
0000
0001
0000
,
1001
0000
1100
0000
0110
0000
0011
0000
0000
0000
0001
0010
1000
0000
1000
0010
,
0001
0000
1000
0001
0100
0000
0001
0010
0100
1000
0100
0010
0001
0100
1000
0010
,
0001
0000
0100
0010
0100
0000
1000
0000
1000
0000
1000
0000
0001
0010
0100
1000
,
0001
0010
0001
1000
0001
0010
1000
0100
,
0100
1000
0100
0000
0010
0001
0010
0000
0100
0001
0100
0010
0001
1000
0100
0010
,
0001
0000
1000
0100
0010
0000
0001
0010
1000
0000
0100
1000
0010
0000
1000
0010
,
0001
0000
0001
0000
0010
0000
0100
0000
1000
0000
0100
0000
0001
0100
0010
0100
,
1000
0000
0010
0100
1000
0000
1000
0000
0101
0000
0010
0100
0010
0000
1000
0000
,
0001
0000
1000
0100
1000
0000
0001
0100
0001
0000
0010
0001
1000
0010
0100
0001
,
0010
0000
0002
0000
1000
0000
1003
0000
0010
0100
0001
0100
0001
0010
1000
0010
,
0001
0000
0120
0000
1000
0000
1030
0000
0001
0000
0010
0100
1000
0100
0010
0001
,
1000
0000
0100
0010
0001
0000
1000
0000
0100
0000
1000
0010
0100
0000
1000
0000
,
0001
0000
0100
0010
1000
0000
0001
0000
1000
0010
1000
0010
0001
0100
1000
0010
,
0001
0000
1000
0010
0100
0000
0010
1000
0100
0001
0010
0100
0001
0000
1000
0001
,
0010
0000
1000
0010
0100
0000
0010
0001
0100
1000
0010
1000
0100
0000
0001
0100
,
1000
0000
0010
0001
1000
0000
0010
1000
0001
0100
0001
1000
0010
0000
0100
0010
,
0001
0000
0010
0000
0100
0000
0001
0000
0100
0010
0001
0010
0100
1000
0100
0010
,
0001
0000
1000
0000
0010
0000
0100
0001
1000
0000
0100
0000
0001
0000
0100
0000
,
1100
0000
0100
0000
0110
0000
0010
0000
0011
0000
0001
0000
1000
0100
0010
0001
,
1100
0000
1100
0110
0011
0000
0011
0000
,
2000
0000
0000
3002
0200
0000
0003
0320
2000
0000
0000
0030
3002
0000
0000
0000
,
1003
0000
0100
0000
0010
0000
1000
0001
0100
0000
0010
0000
0001
0000
0120
0000
0000
0000
1000
0000
1030
0000
0100
0000
0001
0010
0000
0000
2000
0100
0000
0000
,
3001
0000
0010
0000
0100
0000
1000
0010
1000
0000
0100
0000
0010
0000
1002
0000
0000
0000
0103
0000
1000
0000
0001
0000
0022
0033
2200
3300
0010
0000
0100
0000
,
1000
0000
0001
0010
0001
0000
0100
0000
1000
0000
0110
0000
0000
0000
0010
0000
0010
0000
1000
0000
0101
0000
0000
0000
1010
0000
0000
0000
1000
0000
0010
0000
,
0100
1002
0000
0010
0010
0013
1000
0100
0001
0100
0220
0330
1000
0000
0001
0000
,
0010
0000
0000
0000
0200
0000
1000
0000
0000
0000
0010
0000
0010
0000
0301
0000
1000
0000
0001
0000
0100
0001
0100
2000
0200
0000
0000
0000
3000
0000
0302
0000
,
2000
3003
0020
0030
1100
0000
1100
0110
0011
0000
0022
0033
0010
1000
0001
0000
,
0100
0001
1000
0000
0001
0100
0010
0000
1000
0010
0001
0000
0100
0000
0001
0000
,
1000
0000
0010
0000
0001
1000
0001
0100
0010
0001
0100
0000
1000
0100
0001
0000
,
1000
0000
0001
0000
0010
0100
1000
0000
0001
0000
1000
0100
0001
0100
0010
0000
,
1000
0000
0001
0010
0100
1000
0100
0010
0001
0100
0010
0000
1000
0000
0010
0000
,
1000
0000
0100
1000
0010
0000
0001
1000
0010
0000
0100
0000
1000
0010
0100
0000
,
0010
1000
0001
0000
1000
0100
0001
0010
1000
0010
0001
0000
0100
0010
0001
0000
,
1000
0000
0001
0000
1000
0010
0001
0000
0100
0000
0010
0000
1000
0010
0001
0000
,
1000
0000
0001
0100
0010
1000
0100
0010
0001
0000
1000
0000
0001
0010
0100
0000
,
0010
0001
0100
1000
0010
1000
0100
0000
0001
0100
0001
0000
1000
0010
0100
0000
,
0010
0100
0001
0000
0010
1000
0100
0000
0001
0000
0100
0000
0010
1000
0001
0000
,
0010
0001
1000
0000
0010
0100
0010
0000
0001
0100
1000
0000
0010
0100
1000
0000
,
0100
0010
0001
0000
1000
0001
1000
0100
0010
0001
1000
0000
0100
0000
0001
0000
,
0100
1000
0010
0101
0000
1000
0100
0001
,
0100
0000
1000
0000
0001
0000
0001
0100
1000
0100
0010
0000
0000
0000
1001
0000
,
0000
0100
0002
0000
0000
0010
0203
0000
0000
0001
2300
0000
0000
0100
3002
0000
,
0000
0103
0020
0000
0000
1000
0130
0010
0001
0010
0100
0000
0001
0000
0010
0000
,
1000
0001
0100
0000
0001
0000
0100
0000
1000
0000
1000
0000
0001
0000
0010
0000
,
1000
0000
0100
0000
0100
0000
0001
0000
0100
0010
1000
0000
1000
0000
0100
0000
,
0010
0100
1000
0000
0010
0000
0001
0000
0010
0000
1000
0000
0100
0000
1000
0000
,
0001
0000
0100
0000
0010
0000
0100
0000
0010
1000
0001
0100
0010
0000
0100
0010
,
1000
0010
0100
0001
1000
0000
0001
0100
1000
0000
0100
0010
0100
0000
0001
0010
,
0100
0000
0100
0001
1000
0000
0010
0100
1000
0100
0001
0000
1000
0010
0001
0000
,
0100
0010
1000
0000
0001
1000
0100
0000
0010
0000
1000
0000
0001
0000
1000
0000
,
0001
2002
0000
0000
0000
0000
0000
0000
,
0000
3003
0000
0000
0000
0000
0000
0000
;

//---------------dance-double - ----------------
#NOTES:
     dance-double:
     :
     Challenge:
     18:
     1.000,1.000,0.315,0.181,0.854,691.000,33.000,19.000,0.000,0.000,0.000,1.000,1.000,0.315,0.181,0.854,691.000,33.000,19.000,0.000,0.000,0.000: // measure 0
00000000
00000000
00000000
00000000
,  // measure 1
00000000
00000000
00000000
00000000
,  // measure 2
00000000
00000000
00000000
00000000
,  // measure 3
00000000
00000000
00000000
00000000
,  // measure 4
00000000
00000000
00000000
00000000
,  // measure 5
00000001
00000000
00000010
00000000
00001000
00000000
00000100
00000010
00001000
00000000
00010000
00000000
00100000
00000000
01000000
00000000
,  // measure 6
10000000
01000000
00100000
00010000
00001100
00000000
00000110
00000000
,  // measure 7
00001001
00001000
00010000
00100000
01000000
10000000
00010000
00001000
,  // measure 8
00000010
00000100
00000001
00001000
00100000
00010000
10000000
01000000
,  // measure 9
00100000
00010000
01000000
00000000
10000000
00000000
00100000
00000000
00010000
00000000
00001000
00000000
00000010
00000000
00000100
00000000
,  // measure 10
00000001
00001000
00000100
00000000
00001000
00000000
00010000
00000000
10000000
00000000
00100000
00000000
01010000
00000000
00000000
00000000
,  // measure 11
00001000
00000100
00001000
00000000
00000001
00000000
00000010
00000000
00000100
00000000
00001000
00000000
00010000
00000000
00100000
00000000
,  // measure 12
00010000
01000000
00100000
00000000
10000000
00000000
01000000
00100000
00010000
00000000
00001000
00000000
00000001
00000100
00000010
00001000
,  // measure 13
00000100
00000010
00000001
00000000
00000100
00000000
00010000
00000000
00001000
00000000
00100000
00000000
10000000
00000000
01000000
00000000
,  // measure 14
00100000
01000000
00010000
00000000
00001000
00000000
00000010
00000000
00000101
00000000
00000000
00000000
00001100
00000000
00000000
00000000
,  // measure 15
00010000
00100000
01000000
00000000
10000000
00000000
00100000
00000000
00010000
00000000
00001000
00000000
00000001
00000000
00000100
00000000
,  // measure 16
00001000
00010000
00001000
00100000
00010000
00100000
01000000
10000000
00100000
01000000
00010000
00001000
00010000
00001000
00000100
00000010
,  // measure 17
00000001
00000000
00000100
00000000
00001000
00000000
00001010
00000000
00000000
00000000
00001100
00000000
00001000
00010000
00001000
00010000
,  // measure 18
00100000
10000000
00100000
01000000
00010000
00001000
00011000
00000000
,  // measure 19
00001000
00000000
00000001
00000000
00000010
00000000
00000100
00000000
00001000
00000000
00100000
00000000
00010000
01000000
00100000
00010000
,  // measure 20
01000000
00000000
10000000
00000000
01000000
00000000
00010000
00000000
00001000
00000000
00000010
00000000
00000100
00001000
00000100
00000010
,  // measure 21
00000001
00000010
00001000
00000000
00010000
00000000
01000000
00000000
00100000
00000000
10000000
00000000
00010000
00100000
00010000
00100000
,  // measure 22
00010000
00000000
00001000
00000000
00000010
00000000
00000001
00000000
00000100
00000000
00000010
00000000
00001000
00000000
00010000
00001000
,  // measure 23
00010000
00001000
00010000
00000000
00100000
00000000
01000000
00000000
10000000
00000000
00100000
00000000
01000000
00000000
00100000
00000000
,  // measure 24
00010000
00001000
00000001
00000100
00000010
00001000
00010000
00100000
,  // measure 25
00010000
00000000
10000000
01000000
00010000
00000000
00001000
00000000
00000100
00000001
00000100
00000010
00001000
00000000
00010000
00100000
,  // measure 26
00010000
00000000
10000000
00100000
01000000
00000000
00010000
00000000
00100000
00000000
00001000
00000000
00000100
00010000
00000100
00010000
,  // measure 27
00000100
00000001
00000100
00000010
00000000
00001000
00000100
00010000
,  // measure 28
00001000
00000000
00100000
00000000
00010000
00000000
01000000
00000000
00100000
00000000
10000000
00000000
01000000
00000000
00100000
00010000
,  // measure 29
00100000
00000000
00001000
00010000
00001000
00000000
00010000
00000100
00010000
00000000
00001000
00000001
00000010
00000000
00010000
00100000
,  // measure 30
01000000
00000000
10000000
00000000
00100000
00000000
00010000
00000000
01000000
00000000
00010000
00000000
00001000
00010000
00001000
00010000
,  // measure 31
00001000
00000000
00000100
00000010
00001000
00000000
00000001
00000000
00002100
00000000
00000000
00000000
00010000
00000000
00000000
00000000
,  // measure 32
00103000
00000000
10000000
01000000
00100000
00010000
00100000
00000000
00001000
00000100
00000010
00000001
00000100
00000010
00001000
00000001
,  // measure 33
00000100
00000000
00010000
00000000
01000000
00000000
10000000
00000000
00100000
01000000
00010000
00100000
00010000
00000000
00001000
00010000
,  // measure 34
00001000
00000000
00000001
00000000
00000100
00000000
00000010
00000000
00001000
00000000
00010000
01000000
00100000
10000000
01000000
00100000
,  // measure 35
00010000
00000000
00001000
00010000
00001000
00000000
00000100
00000000
00000010
00000000
00000001
00000010
00000001
00000000
00000010
00000000
,  // measure 36
00001000
00000000
00010000
00100000
01000000
00000000
10000000
00000000
00010000
00000000
00100000
00000000
10000000
00000000
00100000
00000000
,  // measure 37
00010000
00000000
00010000
00001000
00010000
00000000
00000100
00001000
00000100
00000010
00000001
00000100
00001000
00000000
00020000
00000000
,  // measure 38
00000000
00000000
00130000
01000000
00100000
00000000
10000000
01000000
10000000
00010000
00100000
00010000
01000000
00000000
00100000
00001000
,  // measure 39
00010000
00000000
00001000
00000100
00001000
00000000
00000001
00001000
00000100
00000010
00000001
00000100
00000010
00000000
00002000
00000000
,  // measure 40
00000000
00000000
00013000
00000000
00100000
00000000
01000000
00000000
10000000
00100000
01000000
00010000
10000000
01000000
00100000
00010000
,  // measure 41
01000000
00000000
00100000
00000000
10000000
00000000
00100000
00000000
00010000
00100000
00010000
00000000
00001000
00000000
00000000
00000000
,  // measure 42
00000110
00000000
00000000
00000000
00000011
00000000
00001000
00000000
00000100
00000000
00010000
00000000
00001000
00010000
00001000
00010000
,  // measure 43
00002000
00203000
00320000
02030000
,  // measure 44
13000000
00000000
00000000
00100000
01000000
00000000
00000000
00010000
00001000
00000000
00000000
00000000
00000110
00000000
00000000
00000000
,  // measure 45
00000001
00000000
00000100
00000000
00000010
00000000
00001000
00010000
00001000
00000000
00100000
00000000
01000000
00000000
10010000
00000000
00000000
00000000
00010000
00000000
10000000
00000000
01000000
00000000
00010000
00001000
00000000
00000000
00000100
00010000
00000000
00000000
,  // measure 46
00001000
00000000
00000000
00000000
00000001
00000000
00000000
00000000
00000010
00000000
00000000
00000000
00001000
00000000
00000100
00000000
00000001
00000000
00000000
00000000
00000100
00000000
00000000
00000000
00001000
00000000
00000000
00000000
00011000
00000000
00000000
00000000
00000000
00000000
00000000
00000000
01000000
00000000
00000000
00000000
10000000
00000000
00000000
00000000
00010000
00000000
00000000
00000000
02200000
03300000
00000000
00000000
02200000
03300000
00000000
00000000
00010000
00000000
00000000
00000000
00001000
00000000
00000000
00000000
,  // measure 47
00000001
00000000
00000100
00001000
00000010
00000000
00001000
00000000
00000100
00000000
00000011
00000000
00000000
00000000
00000100
00000000
00001000
00000000
01000000
00000000
00100000
00010000
00000000
00000000
10000000
00100000
00000000
00000000
10000000
00000000
00100000
00000000
,  // measure 48
01000000
00000000
00000000
00000000
00110000
00000000
00000000
00000000
00000000
00000000
00000000
00000000
00001000
00000000
00000000
00000000
00000100
00000000
00000000
00000000
00000001
00000000
00000000
00000000
00000010
00000000
00000000
00000000
00000100
00000000
00000000
00000000
00001000
00000000
00000000
00000000
00020000
00000000
00000000
00000000
00002000
00003000
00000000
00000000
00000000
00000000
00000000
00000000
00100000
00000000
00000000
00000000
00000000
00000000
00000000
00000000
01000000
00000000
00000000
00000000
00000000
00000000
00000000
00000000
,  // measure 49
10030000
00000000
00000000
00000000
00100000
00000000
01000000
00000000
00000000
00000000
00010000
00000000
00001000
00000000
00010000
00000000
00001000
00000000
00000000
00000000
00000001
00001000
00000010
00000100
00000001
00000000
00000000
00000000
00000000
00000000
00000000
00000000
,  // measure 50
00001001
00000000
00000000
00000000
00000000
00000000
00000000
00000000
00010000
00000000
00000000
00000000
00110000
00000000
00000000
00000000
11000000
00000000
00000000
00000000
20020000
30030000
00000000
00000000
00000001
00000000
00001000
00000000
00000100
00000000
00000000
00000000
,  // measure 51
00001000
00000010
00000100
00000000
00001000
00010000
00100000
00000000
00010000
00100000
01000000
00000000
10000000
00000000
00010000
00000000
,  // measure 52
01000000
00000000
00100000
00000000
00010000
00100000
00010000
00000000
00001000
00000000
00000100
00000000
00000010
00000000
00001000
00000000
,  // measure 53
00000001
00000000
00000010
00000000
00000100
00000000
00011000
00000000
00000000
00000000
00010000
00100000
01000000
10000000
01000000
00000000
,  // measure 54
00010000
00000000
00010000
00001000
00010000
00001000
00000100
00010000
00000100
00010000
00001000
00000000
00000001
00000000
00000010
00000000
,  // measure 55
00000100
00010100
00010000
00110000
10000000
01000000
00100000
00010000
,  // measure 56
00001000
00010000
00001000
00000000
00000001
00000000
00000100
00001000
00000001
00000100
00000010
00000000
00001000
00010000
00001000
00000000
,  // measure 57
00100000
00000000
01000000
00000000
10000000
00100000
01000000
00000000
00010000
00000000
01000000
00000000
10000000
00100000
00010000
00000000
,  // measure 58
00001000
00000000
00000100
00001000
00000010
00001000
00000010
00001000
00000100
00000000
00000001
00000000
00001000
00100000
00001000
00000000
,  // measure 59
00100000
00010000
01000000
00000000
00100000
10000000
01000000
00000000
00020000
00000000
00000000
00000000
00031000
00000100
00001000
00000000
,  // measure 60
00000001
00000010
00000100
00000000
00000001
00000100
00000010
00000000
00002000
00000000
00000000
00000000
00013000
00100000
01000000
00000000
,  // measure 61
10000000
00100000
01000000
00000000
00010000
01000000
00100000
10000000
00010000
00100000
00010000
00000000
00001000
00000100
00001000
00000000
,  // measure 62
00000001
00000000
00001000
00000100
00000010
00000100
00001000
00000000
00010000
00000000
00100000
00000000
01000000
00000000
10000000
00000000
,  // measure 63
00100000
01000000
00010000
00011000
00000000
00001000
00000010
00000100
,  // measure 64
00000001
00000000
00000010
00000000
00000100
00000000
00001000
00000001
00001000
00000100
00001000
00000000
00000000
00000000
00101000
00000000
,  // measure 65
00000000
00100000
00010000
00000000
00000000
00010000
10000000
00000000
00000000
10000000
00100000
00000000
00000000
00100000
01000000
00000000
,  // measure 66
00000000
01000000
00010000
00000000
00000000
00010000
00001000
00010000
00000100
00001000
00000010
00000000
00000001
00000000
00000100
00000000
,  // measure 67
00001000
00010000
00100000
00001000
00100000
00010000
01000000
00100000
,  // measure 68
10000000
00000000
01100000
00000000
00000000
00000000
00011000
00000000
00010000
00001000
00010000
00000000
00000100
00000000
00000001
00000000
,  // measure 69
00001000
00000010
00001000
00000000
00000100
00000000
00010000
00000000
00001000
00000000
00010000
00000000
00100000
00000000
10000000
00000000
,  // measure 70
00100000
00000000
00011000
00000000
00000000
00000000
00001001
00000000
00000010
00000100
00001000
00000000
00000010
00000001
00000100
00000000
,  // measure 71
00001000
00000010
00000100
00000000
00001000
00010000
00100000
00000000
10000000
00010000
00100000
00000000
01000000
00010000
00100000
00000000
,  // measure 72
00010000
00001000
00010000
00000000
00000100
00001000
00000010
00000000
00000100
00000001
00001000
00000000
00000001
00001000
00000100
00000000
,  // measure 73
00000001
00000100
00001000
00000000
00010000
00100000
00010000
00000000
10000000
01000000
10000000
00000000
00100000
00000000
00010000
00000000
,  // measure 74
01000000
20020000
00000000
00000000
00000000
00000000
00000000
00000000
,  // measure 75
00000000
30030000
00000000
00000000
00000000
00000000
00000000
00000000
;
