#TITLE:Justify My Love;
#SUBTITLE:;
#ARTIST:Tess;
#TITLETRANSLIT:;
#SUBTITLETRANSLIT:;
#ARTISTTRANSLIT:;
#GENRE:Trance;
#CREDIT:;
#BANNER:Justify My Love.png;
#BACKGROUND:Justify My Love-bg.png;
#LYRICSPATH:;
#CDTITLE:./CDTITLES/Dancemania 18.PNG;
#MUSIC:Justify My Love.mp3;
#OFFSET:-0.475;
#SAMPLESTART:51.907;
#SAMPLELENGTH:15.000;
#SELECTABLE:YES;
#DISPLAYBPM:140.000;
#BPMS:0.000=139.990
;
#STOPS:
;
#BGCHANGES:;
#KEYSOUNDS:;
#ATTACKS:;

//---------------dance-single - ----------------
#NOTES:
     dance-single:
     :
     Easy:
     4:
     0.158,0.226,0.035,0.094,0.000,83.000,3.000,8.000,0.000,0.000,0.000,0.158,0.226,0.035,0.094,0.000,83.000,3.000,8.000,0.000,0.000,0.000:
0000
0000
0000
0000
,
0000
0000
0000
0000
,
0000
0000
0000
0000
,
0000
0000
0000
0000
,
1001
0000
0000
0000
,
1000
0000
0001
0000
,
1000
0000
0001
0000
,
0100
0000
0001
0000
,
0100
0000
0001
0000
,
2000
0000
0000
3000
,
0200
0000
0000
0300
,
2000
0000
0000
3000
,
0002
0000
0000
0003
,
2000
0000
0000
3000
,
0200
0000
0000
0300
,
2000
0000
0000
3000
,
0002
0000
0000
0003
,
1000
0010
1000
0001
,
1000
0010
1000
0001
,
0100
0010
0100
0001
,
0100
0010
0100
0001
,
1000
0000
0000
0000
,
0001
0000
0000
0000
,
1000
0000
0000
0000
,
0010
0000
1000
0001
,
0100
0000
0000
0000
,
0010
0000
0000
0000
,
0100
0000
0000
0000
,
0001
0000
1000
0100
,
1000
0000
0000
0000
,
1001
0000
0100
0010
,
1000
0000
0000
0000
,
0100
0000
0010
0001
,
1000
0000
0000
0000
,
0010
0000
0100
1000
,
0100
0000
0000
0000
,
0001
0000
0000
0000
,
1000
0100
0010
0000
,
0001
0000
0100
0010
,
1000
0000
0000
0000
,
0001
0000
0010
0100
,
1000
0000
0000
0000
,
0010
0000
0100
1000
,
0100
0000
0000
0000
,
0001
0000
1000
0100
,
1000
0000
0000
0000
,
0001
0000
0010
0100
,
1000
0000
0000
0000
,
1001
0000
0000
0000
;

//---------------dance-single - ----------------
#NOTES:
     dance-single:
     :
     Medium:
     7:
     0.296,0.340,0.047,0.071,0.000,166.000,4.000,6.000,0.000,0.000,0.000,0.296,0.340,0.047,0.071,0.000,166.000,4.000,6.000,0.000,0.000,0.000:
0000
0000
0000
0000
,
0000
0000
0000
0000
,
0000
0000
0000
0000
,
0000
0000
0100
0100
,
1001
0000
0000
0000
,
0010
1000
0100
0000
0010
0001
0100
0000
,
0010
1000
0100
0000
0010
0001
0100
0000
,
0010
0010
1000
0000
0100
0010
0001
0000
,
1000
1000
0100
0000
0010
0001
1000
0000
,
0002
0000
0000
0000
,
0000
0000
0000
0000
0000
0103
0010
1000
,
0200
0000
0000
0000
,
0000
0000
0000
0000
0000
0310
0001
1000
,
0020
0000
0000
0000
,
0000
0000
0000
0000
0000
1030
0100
0001
,
0200
0000
0000
0000
,
0000
0000
0000
0000
0000
1300
0001
0100
,
0000
0010
0000
0010
0000
1000
0000
1000
,
0000
0010
0000
0010
0000
0100
0000
0001
,
0000
1000
0000
1000
0000
0100
0000
0100
,
0000
0010
0000
0010
0000
0001
0000
1000
,
0010
1000
0001
1000
,
0001
0010
0100
1000
,
0001
1000
0001
0100
,
0001
0010
0100
1000
,
0001
0100
0001
1000
,
0100
1000
0100
0010
,
0001
0100
0001
1000
,
0100
0010
0100
0001
,
0100
0000
1000
0001
0000
0000
1000
0000
,
1001
0100
0100
0010
,
1000
0100
1000
0000
0001
0000
1000
0000
,
0010
1000
0010
0000
0100
0000
0001
0000
,
1000
0100
1000
0000
0001
0000
0100
0000
,
0010
1000
0010
0000
0100
0000
0001
0000
,
1000
0100
0010
0000
0001
0000
1000
0000
,
0010
0100
1000
0000
0100
0000
0010
0000
,
1000
0100
0010
0000
0001
0000
1000
0000
,
0010
0100
0001
0000
1000
0000
0100
0000
,
0010
0000
0001
1000
0000
0000
0010
0000
,
0000
0000
0100
1000
0000
0000
0100
0000
,
0000
0000
0001
1000
0000
0000
0100
0000
,
0000
0000
0010
0001
0000
0000
1000
0000
,
0000
0000
0010
0100
0000
0000
0001
0000
,
0000
0000
1000
0100
0000
0000
0010
0000
,
0000
0000
0001
1000
0000
0000
0100
0000
,
0000
0000
0010
0100
0000
0000
1000
0000
,
2002
0000
0000
3003
,
1001
0000
0000
0000
;

//---------------dance-single - ----------------
#NOTES:
     dance-single:
     :
     Hard:
     13:
     0.581,0.686,0.024,0.578,0.560,294.000,2.000,49.000,0.000,0.000,0.000,0.581,0.686,0.024,0.578,0.560,294.000,2.000,49.000,0.000,0.000,0.000:
0000
0000
0000
0000
,
0000
0000
0000
0000
,
0000
0000
0000
0000
,
0000
0000
0000
0100
0001
1000
0100
1000
,
0002
0000
0103
0010
0000
0000
0000
0000
,
1000
0000
2000
0000
3001
0100
0001
1000
,
0001
0000
0002
0000
0013
0100
0010
0001
,
1000
0000
2000
0000
3001
0010
0100
1000
,
0001
0000
0002
0000
1003
0100
0010
0001
,
1000
0000
1000
0000
0100
0010
0200
0000
,
1000
0000
1300
0000
0001
0100
0002
0000
,
0010
0000
0013
0000
0100
1000
0200
0000
,
1000
0000
1300
0000
0010
0100
0010
0000
,
1000
0000
0100
0000
1000
0001
0200
0000
,
0310
0000
1000
0000
0010
0100
0002
0000
,
0013
0000
0100
0000
1000
0100
0020
0000
,
0031
0000
1000
0000
0010
1000
0200
0000
,
0010
0010
0010
0310
,
0001
1000
0100
0000
0010
0001
2000
0000
,
0010
0010
0010
3010
,
0100
1000
0100
0000
0001
0010
0100
0000
,
1000
0010
0000
2000
0000
0000
3000
0000
0001
0010
0000
0002
0000
0000
0003
0000
,
1000
0010
0000
2000
0000
0000
3000
0000
0001
0010
0000
0002
0000
0000
0003
0000
,
1000
0001
0000
0200
0000
0000
0300
0000
0001
1000
0000
0200
0000
0000
0300
0000
,
1000
0001
0000
0200
0000
0000
0300
0000
0001
1000
0000
0200
0000
0000
0300
0000
,
1000
0010
0000
1000
0000
0001
1000
0001
1000
0010
0000
1000
0000
0001
1000
0001
,
0100
0001
0000
0100
0000
0010
0100
0010
0100
0001
0000
0100
0000
0010
0100
0010
,
1000
0010
0000
1000
0000
0001
0100
0001
1000
0010
0000
1000
0000
0001
0100
0001
,
1000
0100
0000
1000
0000
0001
0010
0001
1000
0100
0000
1000
0000
0001
0010
0001
,
2000
3000
0002
0003
,
1001
2002
0000
3003
,
0010
0000
1000
0001
0200
0000
0310
1000
,
0200
0000
0310
0001
2000
0000
3010
0100
,
0002
0000
1003
0100
0020
0000
0031
0100
,
2000
0000
3100
0001
2000
0000
3100
0001
,
0200
0000
1300
0001
0200
0000
0310
1000
,
0200
0000
0310
0001
2000
0000
3010
0100
,
0002
0000
1003
0100
0020
0000
0031
0100
,
2000
0000
3100
0001
2000
0000
3100
0000
,
1000
0010
0000
2000
0000
0000
3000
0000
0001
0010
0000
0002
0000
0000
0003
0000
,
1000
0010
0000
2000
0000
0000
3000
0000
0001
0010
0000
0002
0000
0000
0003
0000
,
1000
0001
0000
0200
0000
0000
0300
0000
0001
1000
0000
0200
0000
0000
0300
0000
,
1000
0001
0000
0200
0000
0000
0300
0000
0001
1000
0000
0200
0000
0000
0300
0000
,
1000
0010
0000
1000
0000
0001
1000
0001
1000
0010
0000
1000
0000
0001
1000
0001
,
0100
0001
0000
0100
0000
0010
0100
0010
0100
0001
0000
0100
0000
0010
0100
0010
,
1000
0010
0000
1000
0000
0001
0100
0001
1000
0010
0000
1000
0000
0001
0100
0001
,
1000
0100
0000
1000
0000
0001
0010
0001
1000
0100
0000
1000
0000
0001
0100
0000
,
0010
1000
0001
0010
0100
0000
1000
0001
,
0200
0000
0300
0000
;

//---------------dance-double - ----------------
#NOTES:
     dance-double:
     :
     Easy:
     3:
     0.165,0.170,0.059,0.083,0.000,86.000,5.000,7.000,0.000,0.000,0.000,0.165,0.170,0.059,0.083,0.000,86.000,5.000,7.000,0.000,0.000,0.000:
00000000
00000000
00000000
00000000
,
00000000
00000000
00000000
00000000
,
00000000
00000000
00000000
00000000
,
00000000
00000000
00000000
00000000
,
10010000
00000000
00000000
00000000
,
01000000
00000000
00001000
00010000
,
00001000
00000000
00000100
00001000
,
00000100
00000000
00000001
00001000
,
00000001
00000000
00001000
00000100
,
00001000
00000000
00001000
00000000
,
00001000
00000000
00001000
00000000
,
00010000
00000000
00010000
00000000
,
00010000
00000000
00010000
00000000
,
00100000
00000000
00100000
00000000
,
00010000
00000000
00010000
00000000
,
01000000
00000000
01000000
00000000
,
00001000
00000000
00001000
00000000
,
00000100
00000000
00000010
00000000
,
00001000
00000100
00001000
00000000
,
00000001
00000000
00000100
00000000
,
00000010
00001000
00000010
00000000
,
00011000
00000000
00000000
00000000
,
02000000
00000000
00000000
03000000
,
20000000
00000000
00000000
30000000
,
00020000
00000000
00000000
00030000
,
10010000
00000000
00000000
00000000
,
02000000
00000000
00000000
03000000
,
00002000
00000000
00000000
00003000
,
00020000
00000000
00000000
00030000
,
00011000
00000000
00000000
00000000
,
00000000
00000000
00000000
00000000
,
00000010
00000000
00000000
00000000
,
00001000
00000000
00000001
00000100
,
00000001
00000000
00000000
00000000
,
00001000
00000000
00000100
00001000
,
00000100
00000000
00000000
00000000
,
00010000
00000000
01000000
10000000
,
01000000
00000000
00000000
00000000
,
00100000
00000000
00001000
00010000
,
00001000
00000000
00000100
00000000
,
00000001
00000010
00000100
00000000
,
00010000
00000000
00001000
00000000
,
01000000
00100000
10000000
00000000
,
01000000
00000000
00100000
00000000
,
00001000
00010000
00000100
00000000
,
00001000
00000000
00000001
00000000
,
00000100
00001000
00000100
00000000
,
00000002
00000000
00000000
00000003
,
00001001
00000000
00000000
00000000
;

//---------------dance-double - ----------------
#NOTES:
     dance-double:
     :
     Medium:
     7:
     0.323,0.311,0.094,0.295,0.000,159.000,8.000,25.000,0.000,0.000,0.000,0.323,0.311,0.094,0.295,0.000,159.000,8.000,25.000,0.000,0.000,0.000:
00000000
00000000
00000000
00000000
,
00000000
00000000
00000000
00000000
,
00000000
00000000
00000000
00000000
,
00000000
00000000
00000010
00001000
,
00000100
00000000
00010000
00001000
00000000
00000000
00000000
00000000
,
00011000
00000000
01000000
00010000
,
10010000
00000000
01000000
00010000
,
00011000
00000000
00000010
00001000
,
00001001
00000000
00000100
00001000
,
00011000
00001000
00010000
00100000
,
01000000
10000000
01000000
00100000
,
00010000
00001000
00000100
00000010
,
00000001
00000010
00000100
00001000
,
00010000
00100000
01000000
10000000
,
01000000
00100000
00010000
00001000
,
00000100
00000010
00000001
00000010
,
00000100
00001000
00010000
00100000
,
02000000
03000000
00020000
00030000
,
00200000
00000000
00300000
00000000
00001000
00010000
00001000
00000000
,
00000020
00000030
00000200
00000300
,
00002000
00000000
00003000
00000000
00000001
00000100
00000001
00000000
,
00001000
00000000
00000100
00001000
00000100
00000000
00010000
00001000
,
00010000
00000000
01000000
00010000
01000000
00000000
00100000
00000000
,
00100000
00000000
00010000
10000000
00010000
00000000
01000000
00010000
,
01000000
00000000
00001000
00010000
00001000
00000000
00010000
00000000
,
00010000
00000000
00000010
00001000
00000010
00000000
00000100
00000001
,
00000100
00000000
00000010
00001000
00000010
00000000
00010000
00000000
,
00010000
00000000
01000000
00010000
01000000
00000000
00100000
00010000
,
00100000
00000000
00010000
10000000
00010000
00000000
01000000
00000000
,
02000000
00000000
00000000
03000000
,
10010000
00000000
01000000
00000000
,
00002000
00003000
00000200
00000300
,
00000020
00000030
00002000
00003000
,
00000002
00000003
00000020
00000030
,
00000200
00000300
00002000
00003000
,
00020000
00030000
00200000
00300000
,
02000000
03000000
20000000
30000000
,
00020000
00030000
02000000
03000000
,
00002000
00003000
00020000
00030000
,
00011000
00000100
00000010
00000001
,
00001000
00000010
00000100
00001000
,
00010000
00100000
01000000
00010000
,
10000000
01000000
00100000
00010000
,
00001000
00000100
00000010
00000001
,
00001000
00000010
00000100
00001000
,
01000000
00010000
10000000
01000000
,
00100000
00001000
00010000
00001000
,
00020000
00030000
00002000
00003000
,
00011000
00000000
00000000
00000000
;

//---------------dance-double - ----------------
#NOTES:
     dance-double:
     :
     Hard:
     11:
     0.566,0.543,0.130,0.601,0.071,274.000,11.000,51.000,0.000,0.000,0.000,0.566,0.543,0.130,0.601,0.071,274.000,11.000,51.000,0.000,0.000,0.000:
00000000
00000000
00000000
00000000
,
00000000
00000000
00000000
00000000
,
00000000
00000000
00000000
00000000
,
00000000
00000000
00000000
10000000
00010000
01000000
00010000
01000000
,
00002000
00000000
00013000
00010000
00000000
00000000
00000020
00000000
,
00001000
00000000
00001030
00000000
00000001
00000010
00000200
00000000
,
00010000
00000000
00010300
00000000
00001000
01000000
00020000
00000000
,
10000000
00000000
10030000
00000000
00100000
01000000
00020000
00000000
,
00100000
00000000
00130000
00000000
00001000
00010000
00000100
00000000
,
00000010
00000000
00000001
00000000
00000010
00000000
00000100
00000010
00000100
00000000
00001000
00000000
00010000
00000000
00100000
00010000
,
00100000
00000000
01000000
00000000
10000000
00000000
00010000
10000000
00010000
00000000
01000000
00000000
00001000
00000000
00010000
00000000
,
00000010
00000000
00001000
00000000
00000001
00000000
00000100
00000001
00001000
00000000
00000100
00000000
00010000
00000000
00001000
00010000
,
01000000
00000000
00100000
00000000
00010000
00000000
10000000
00010000
01000000
00000000
00001000
00000000
00010000
00000000
00001000
00000000
,
00000100
00000000
00000010
00000000
00001000
00000000
00000001
00000100
00000010
00000000
00001000
00000000
00010000
00000000
00100000
00010000
,
10000000
00000000
00100000
00000000
00010000
00000000
00001000
00010000
00000010
00000000
00000100
00000000
00000001
00000000
00001000
00000000
,
00000010
00000000
00010000
00000000
00001000
00000000
01000000
00010000
10000000
00000000
01000000
00000000
00100000
00000000
01000000
00010000
,
00000100
00000000
00001000
00000000
00000100
00000000
00001000
00000001
00001000
00000000
00000010
00000000
00010000
00000000
00001000
00000000
,
00010000
01000000
10000000
01000000
10000000
00100000
01000000
00100000
,
01000000
00010000
00001000
00000010
00000100
00000001
00000100
00000010
,
00001000
00010000
00100000
00010000
00100000
01000000
10000000
01000000
,
10000000
00010000
01000000
00001000
00010000
00001000
00000100
00001000
,
00000200
00000000
00000301
00002000
00000000
00003000
00000001
00002000
,
00000000
00003000
00000000
00000010
00010000
00001000
01000000
00100000
,
20000000
00000000
30010000
00200000
00000000
00302000
00000000
00023000
,
00000000
00030000
00000000
00000010
00001000
00000001
00000100
00001000
,
00000200
00000000
00000301
00002000
00000000
00003000
00000001
00002000
,
00000000
00003000
00000000
00000010
00010000
00001000
01000000
00100000
,
20000000
00000000
30010000
00200000
00000000
00302000
00000000
00023000
,
00000000
00030000
00000000
00000010
00001000
00000001
00000100
00001000
,
00000200
00000000
00000301
00002000
00000000
00003000
00000001
00002000
,
00000000
00003000
00000000
00011000
00001000
00001000
00010000
00010000
,
02000000
00000000
03100000
00020000
00000000
00030000
10000000
02000000
,
00000000
03000000
00000000
10010000
01000000
01000000
00001000
00001000
,
00010000
00000010
00001000
00000200
00000000
00000320
00000000
00000032
,
00000000
00000003
00000000
00001001
00000010
00000010
00010000
00010000
,
00002000
00000000
01003000
00020000
00000000
00030000
10000000
00200000
,
00000000
00300000
00000000
10010000
00100000
00100000
00001000
00001000
,
00000020
00000000
00000130
00002000
00000000
00003002
00000000
00000203
,
00000000
00000300
00000000
00011000
00100000
00100000
00010000
00010000
,
20000000
00000000
30100000
02000000
00000000
03000000
00010000
20000000
,
00000000
30000000
00000000
10010000
01000000
01000000
00001000
00001000
,
00020000
00000000
00030010
00002000
00000000
00003002
00000000
00000203
,
00000000
00000300
00000000
00000110
00000010
00000010
00001000
00001000
,
00020000
00000000
00130000
00020000
00000000
00030000
10000000
02000000
,
00000000
03000000
00000000
10010000
00100000
00100000
01000000
00000000
,
00002000
00000000
00013000
00002000
00000000
00003020
00000000
00000230
,
00000000
00000300
00000000
00001001
00000010
00000010
00001000
00001000
,
00011000
00000000
01000000
00010000
01000000
00000000
00001000
00010000
,
00022000
00000000
00033000
00000000
;

//---------------dance-single - ----------------
#NOTES:
     dance-single:
     :
     Beginner:
     1:
     0.074,0.057,0.000,0.000,0.000,44.000,0.000,0.000,0.000,0.000,0.000,0.074,0.057,0.000,0.000,0.000,44.000,0.000,0.000,0.000,0.000,0.000:
0000
0000
0000
0000
,
0000
0000
0000
0000
,
0000
0000
0000
0000
,
0000
0000
0000
0000
,
0000
0000
0000
0000
,
0001
0000
0000
0000
,
0001
0000
0000
0000
,
0001
0000
0000
0000
,
0001
0000
0000
0000
,
0001
0000
0000
0000
,
0001
0000
0000
0000
,
0001
0000
0000
0000
,
0001
0000
0000
0000
,
0001
0000
0000
0000
,
0001
0000
0000
0000
,
0001
0000
0000
0000
,
0001
0000
0000
0000
,
0001
0000
0000
0000
,
0001
0000
0000
0000
,
0001
0000
0000
0000
,
0001
0000
0000
0000
,
0001
0000
0000
0000
,
0001
0000
0000
0000
,
0001
0000
0000
0000
,
0001
0000
0000
0000
,
0001
0000
0000
0000
,
0001
0000
0000
0000
,
0001
0000
0000
0000
,
0001
0000
0000
0000
,
0001
0000
0000
0000
,
0001
0000
0000
0000
,
0001
0000
0000
0000
,
0001
0000
0000
0000
,
0001
0000
0000
0000
,
0001
0000
0000
0000
,
0001
0000
0000
0000
,
0001
0000
0000
0000
,
0001
0000
0000
0000
,
0001
0000
0000
0000
,
0001
0000
0000
0000
,
0001
0000
0000
0000
,
0001
0000
0000
0000
,
0001
0000
0000
0000
,
0001
0000
0000
0000
,
0001
0000
0000
0000
,
0001
0000
0000
0000
,
0001
0000
0000
0000
,
0001
0000
0000
0000
,
0001
0000
0000
0000
;

//---------------dance-single - ----------------
#NOTES:
     dance-single:
     :
     Challenge:
     14:
     0.664,0.520,0.189,0.071,1.000,372.000,16.000,6.000,0.000,0.000,0.000,0.664,0.520,0.189,0.071,1.000,372.000,16.000,6.000,0.000,0.000,0.000:
0000
0000
0000
0000
,
0000
0000
0000
0000
,
0000
0000
0000
0000
,
1001
0000
0001
0010
0100
1000
0100
0010
,
0002
0000
1003
0100
0012
0000
1003
0010
,
0100
0001
0000
1000
0000
0010
0000
1000
0000
0010
0000
0100
0000
0001
1000
0000
,
0010
0100
0000
0001
0000
1000
0000
0100
0000
0010
0000
1000
0000
0100
0001
0000
,
1000
0100
0000
0010
0000
0100
0000
1000
0000
0001
0000
0010
0000
0100
0001
0000
,
1000
0010
0000
0100
0000
0001
0000
0010
0000
0100
0000
1000
0000
0010
0001
0000
,
1000
0000
0100
0000
0001
0000
0100
1000
0000
0000
0010
0000
1000
0000
0010
0001
,
0000
0000
0010
0000
0001
0000
0100
1000
0000
0000
0001
0000
0100
0000
1010
0000
,
0000
0000
1000
0000
0001
0000
0100
0010
0000
0000
1000
0000
0100
0000
0010
0001
,
0000
0000
0100
0000
1000
0000
0001
0010
0000
0000
0100
0000
0010
0000
0001
0000
,
1000
0000
0010
0000
0100
0000
0001
0010
0000
0000
0001
0000
1000
0000
0100
0010
,
0000
0000
0001
0000
1000
0000
0010
0001
0000
0000
0100
0000
1000
0000
0100
0000
,
0000
0000
0010
0000
1000
0000
0100
0001
0000
0000
1000
0000
0001
0000
0100
0010
,
0000
0000
0001
0000
1000
0000
0100
0010
0000
0000
1000
0000
0001
0010
0100
1000
,
0001
0011
0110
1100
,
0010
0001
0020
0000
0130
0001
2000
0000
,
3010
0001
0010
0100
0010
1000
0010
0001
,
1100
0110
0011
1001
,
0001
0100
0000
0010
0000
1000
0000
0100
0000
0010
0000
0001
0000
0100
0010
0000
,
1000
0100
0000
0010
0000
0100
0000
1000
0000
0001
0000
0010
0000
0100
1000
0000
,
0001
0100
0000
0010
0000
1000
0000
0010
0000
0100
0000
0001
0000
0100
1000
0000
,
0010
0001
0000
0100
0000
0010
0000
0100
0000
0010
0000
1000
0000
0100
0001
0000
,
1000
0010
0000
0001
0000
0100
0000
0001
0000
1000
0000
0100
0000
0001
1000
0000
,
0010
0001
0000
0100
0000
0010
0000
1000
0000
0010
0000
0100
0000
1000
0010
0000
,
0001
1000
0000
0100
0000
0010
0000
0001
0000
0100
0000
0010
0000
0001
1000
0000
,
0100
0010
0000
0001
0000
1000
0000
0100
0000
0010
0000
0001
0000
0100
0010
0000
,
1001
0011
1001
0011
,
1001
0000
0010
0001
0010
0100
1000
0001
,
0010
0100
0000
1000
0000
0010
0000
0001
0000
0010
0000
0100
0000
0001
1000
0000
,
0100
0010
0000
1000
0000
0100
0000
0010
0000
0001
0000
1000
0000
0010
0100
0000
,
0001
0010
0000
0100
0000
0010
0000
0001
0000
0010
0000
0100
0000
1000
0001
0000
,
0010
0100
0000
1000
0000
0100
0000
0001
0000
0100
0000
1000
0000
0010
0001
0000
,
0100
0010
0000
1000
0000
0100
0000
0001
0000
0100
0000
0010
0000
0001
0100
0000
,
0010
1000
0000
0100
0000
0010
0000
0001
0000
0010
0000
0001
0000
0010
0100
0000
,
1000
0010
0000
0100
0000
1000
0000
0010
0000
0100
0000
0010
0000
1000
0001
0000
,
0010
0100
0000
1000
0000
0010
0000
0100
0000
0001
0000
1000
0000
0001
0100
0000
,
1000
0010
0000
0100
0000
0001
0000
0010
0000
0100
0000
1000
0000
0001
0100
0000
,
1000
0010
0000
0100
0000
0001
0000
0010
0000
0100
0000
1000
0000
0010
0100
0000
,
1000
0001
0000
0100
0000
0010
0000
1000
0000
0010
0000
0100
0000
0001
0010
0000
,
1000
0001
0000
0100
0000
1000
0000
0100
0000
0010
0000
0001
0000
0100
0010
0000
,
1000
0001
0000
0100
0000
0010
0000
0001
0000
0010
0000
0100
0000
0001
1000
0000
,
0010
0001
0000
0100
0000
0010
0000
1000
0000
0001
0000
0100
0000
1000
0001
0000
,
0100
0010
0000
1000
0000
0001
0000
0010
0000
0100
0000
1000
0000
0010
0001
0000
,
1000
0100
0000
0010
0000
0001
0000
0010
0000
0100
0000
1000
0000
0001
0100
0000
,
1000
0001
0000
0100
0000
0010
0000
1000
0000
0100
0000
0001
0000
0100
0010
0000
,
2002
0000
0000
0000
,
3003
0000
0000
0000
;

//---------------dance-double - ----------------
#NOTES:
     dance-double:
     :
     Challenge:
     14:
     0.712,0.772,0.141,0.071,1.000,405.000,12.000,6.000,0.000,0.000,0.000,0.712,0.772,0.141,0.071,1.000,405.000,12.000,6.000,0.000,0.000,0.000: // measure 0
00000000
00000000
00000000
00000000
,  // measure 1
00000000
00000000
00000000
00000000
,  // measure 2
00000000
00000000
00000000
00000000
,  // measure 3
00001001
00000000
00000001
00000010
00000100
00001000
00000100
00000010
,  // measure 4
00020000
00000000
00031000
00001000
00021000
00000000
00130000
00100000
,  // measure 5
00001000
00010000
00001000
00010000
00000000
00000010
00000000
00001000
00000000
00000010
00000000
00000100
00000000
00000001
00001000
00000000
,  // measure 6
00100000
01000000
00100000
01000000
00000000
10000000
00000000
01000000
00000000
00100000
00000000
10000000
00000000
01000000
00010000
00000000
,  // measure 7
00001000
00000100
00001000
00000010
00000000
00000100
00000000
00001000
00000000
00000001
00000000
00000010
00000000
00000100
00000001
00000000
,  // measure 8
00001000
00010000
00100000
00001000
00000000
01000000
00000000
00100000
00000000
01000000
00000000
10000000
00000000
00100000
00010000
00000000
,  // measure 9
00001000
00000000
00000100
00000000
00000001
00000000
00000100
00001000
00000000
00000000
00000010
00000000
00001000
00000000
00000010
00010000
,  // measure 10
00000000
00000000
00100000
00000000
00010000
01000000
00100000
10000000
00000000
00000000
00001000
00000000
00001000
00000000
00011000
00000000
,  // measure 11
00000000
00000000
00001000
00000000
00000001
00000000
00000100
00000010
00000000
00000000
00001000
00000000
00000100
00000000
00000001
00001000
,  // measure 12
00000000
00000000
00010000
00000000
10000000
00000000
00010000
00100000
00000000
00000000
01000000
00000000
00100000
00000000
00010000
00000000
,  // measure 13
00001000
00000000
00000010
00000000
00000100
00000000
00000001
00000010
00000000
00000000
00000001
00000000
00000100
00001000
00000100
00001000
,  // measure 14
00000000
00000000
00011000
00000000
00010000
00100000
01000000
20000000
00000000
00000000
30100000
00000000
00010000
00000000
00001000
00000000
,  // measure 15
00000000
00000000
00000010
00000000
00001000
00000000
00000100
00000001
00000000
00000000
00001000
00000000
00000001
00000000
00000100
00000010
,  // measure 16
00000000
00000000
00010000
00000000
10000000
00000000
01000000
00100000
00000000
00000000
10000000
00000000
00010000
00001000
00010000
00001000
,  // measure 17
00010000
00011000
00011000
00011000
,  // measure 18
00100000
00010000
00001000
00000000
00010000
00010000
00001000
00000000
,  // measure 19
00000010
00000001
00000010
00000100
00000010
00001000
00000001
00000100
,  // measure 20
00010000
00100000
00010000
00100000
00010000
00001000
00010000
00001000
00010000
00001000
00000100
00001000
00000100
00001000
00000100
00001000
,  // measure 21
00000001
00000100
00001000
00000010
00000000
00001000
00000000
00000100
00000000
00000010
00000000
00000001
00000000
00000100
00000010
00001000
,  // measure 22
00010000
00100000
00010000
00100000
00000000
01000000
00000000
10000000
00000000
01000000
00000000
00100000
00000000
00010000
00001000
00010000
,  // measure 23
00001000
00000100
00001000
00000100
00000000
00000010
00000000
00000001
00000000
00000100
00000000
00001000
00000000
00000100
00001000
00010000
,  // measure 24
00100000
00010000
00100000
01000000
00000000
00100000
00000000
11000000
00000000
00100000
00000000
00010000
00000000
00000010
00001000
00000100
,  // measure 25
00001000
00000010
00000100
00000001
00000000
00000100
00000000
00000001
00000000
00001000
00000000
00000100
00000000
00000001
00001000
00000000
,  // measure 26
00100000
00010000
00100000
01000000
00000000
00100000
00000000
10000000
00000000
00100000
00000000
01000000
00000000
00001000
00100000
00010000
,  // measure 27
00001000
00000001
00000100
00000010
00000000
00000100
00000000
00001000
00000000
00000010
00000000
00000100
00000000
00001000
00000001
00000010
,  // measure 28
00000100
00001000
00000100
00001000
00000000
00000100
00000000
00001000
00000000
00010000
00000000
00001000
00000000
00010000
00001000
00010000
,  // measure 29
00001000
00011000
00011000
00011000
,  // measure 30
00012000
00000000
00000000
00010000
00010000
00010000
00010000
00013000
,  // measure 31
00000100
00000010
00000000
00000001
00000000
00000100
00000000
00001000
00000000
00000100
00000000
00000010
00000000
00001000
00000001
00000000
,  // measure 32
00010000
00100000
00000000
10000000
00000000
01000000
00000000
00100000
00000000
00010000
00000000
10000000
00000000
00100000
00010000
00000000
,  // measure 33
00001000
00000100
00000000
00000010
00000000
00000100
00000000
00001000
00000000
00000100
00000000
00000010
00000000
00000001
00001000
00000000
,  // measure 34
00100000
01000000
00000000
10000000
00000000
01000000
00000000
00010000
00000000
01000000
00000000
10000000
00000000
00100000
00010000
00000000
,  // measure 35
00001000
00000100
00000000
00000001
00000000
00000010
00000000
00001000
00000000
00000100
00000000
00001000
00000000
00000001
00000100
00000000
,  // measure 36
00010000
10000000
00000000
01000000
00000000
00100000
00000000
00010000
00000000
01000000
00000000
10000000
00000000
00100000
00010000
00000000
,  // measure 37
00001000
00000100
00000000
00000010
00000000
00000001
00000000
00000100
00000000
00000010
00000000
00000100
00000000
00000001
00001000
00000000
,  // measure 38
00100000
01000000
00000000
10000000
00000000
00100000
00000000
01000000
00000000
00010000
00000000
10000000
00000000
00100000
00010000
00000000
,  // measure 39
00001000
00000100
00000000
00000010
00000000
00001000
00000000
00000100
00000000
00000010
00000000
00000001
00000000
00001000
00000100
00000000
,  // measure 40
00010000
00100000
00000000
01000000
00000000
00010000
00000000
00100000
00000000
01000000
00000000
10000000
00000000
00100000
00010000
00000000
,  // measure 41
00001000
00000001
00000000
00000100
00000000
00000010
00000000
00001000
00000000
00000010
00000000
00000100
00000000
00000001
00000010
00000000
,  // measure 42
00001000
00010000
00000000
01000000
00000000
10000000
00000000
01000000
00000000
00100000
00000000
00010000
00000000
01000000
00100000
00000000
,  // measure 43
00001000
00000001
00000000
00000100
00000000
00000010
00000000
00000001
00000000
00000010
00000000
00000100
00000000
00000001
00001000
00000000
,  // measure 44
00100000
00010000
00000000
01000000
00000000
00100000
00000000
10000000
00000000
00010000
00000000
01000000
00000000
00100000
00010000
00000000
,  // measure 45
00000100
00000010
00000000
00001000
00000000
00000001
00000000
00000010
00000000
00000100
00000000
00001000
00000000
00000010
00000100
00000000
,  // measure 46
00010000
01000000
00000000
00100000
00000000
00010000
00000000
00100000
00000000
01000000
00000000
10000000
00000000
00010000
00100000
00000000
,  // measure 47
00001000
00000001
00000000
00000100
00000000
00000010
00000000
00001000
00000000
00000100
00000000
00000001
00000000
00000100
00002000
00000000
,  // measure 48
00020000
00000000
00033000
00000000
;
