#VERSION:0.81;
#TITLE:Gotta Dance;
#SUBTITLE:;
#ARTIST:NAOKI feat. Aleisha G;
#TITLETRANSLIT:;
#SUBTITLETRANSLIT:;
#ARTISTTRANSLIT:;
#GENRE:;
#ORIGIN:;
#CREDIT:;
#BANNER:Gotta Dance.png;
#BACKGROUND:Gotta Dance-bg.png;
#PREVIEWVID:;
#JACKET:Gotta Dance-jacket.png;
#CDIMAGE:;
#DISCIMAGE:;
#LYRICSPATH:;
#CDTITLE:./CDTITLES/DanceDanceRevolution X2.png;
#MUSIC:Gotta Dance.mp3;
#OFFSET:0.737;
#SAMPLESTART:65.440;
#SAMPLELENGTH:15.000;
#SELECTABLE:YES;
#DISPLAYBPM:145.000;
#BPMS:0.000=145.749,
4.000=145.000;
#STOPS:;
#DELAYS:;
#WARPS:;
#TIMESIGNATURES:0.000=4=4;
#TICKCOUNTS:0.000=4;
#COMBOS:0.000=1;
#SPEEDS:0.000=1.000=0.000=0;
#SCROLLS:0.000=1.000;
#FAKES:;
#LABELS:0.000=Song Start;
#BGCHANGES:;
#KEYSOUNDS:;
#ATTACKS:
;

//---------------dance-single - ----------------
#NOTEDATA:;
#CHARTNAME:;
#STEPSTYPE:dance-single;
#DESCRIPTION:;
#CHARTSTYLE:;
#DIFFICULTY:Beginner;
#METER:2;
#RADARVALUES:0.099,0.116,0.010,0.000,0.000,66.000,1.000,0.000,0.000,0.000,0.000,0.000,0.000,0.099,0.116,0.010,0.000,0.000,66.000,1.000,0.000,0.000,0.000,0.000,0.000,0.000;
#CREDIT:;
#OFFSET:0.737;
#BPMS:0.000=145.749
,4.000=145.000
;
#STOPS:;
#DELAYS:;
#WARPS:;
#TIMESIGNATURES:0.000=4=4
;
#TICKCOUNTS:0.000=4
;
#COMBOS:0.000=1
;
#SPEEDS:0.000=1.000=0.000=0
;
#SCROLLS:0.000=1.000
;
#FAKES:;
#LABELS:0.000=Song Start
;
#DISPLAYBPM:145.000;
#NOTES:
0000
0000
0000
0000
,
0000
0000
0000
0000
,
0000
0000
0000
0000
,
0000
0000
0000
0000
,
0000
0000
0000
0000
,
1000
0000
0000
0000
,
0000
0000
0000
0000
,
0001
0000
0000
0000
,
0000
0000
0000
0000
,
1000
0000
0000
0000
,
1000
0000
0000
0000
,
0001
0000
0000
0000
,
0001
0000
0000
0000
,
0010
0000
0000
0000
,
0000
0000
0000
0000
,
1000
0000
1000
0000
,
1000
0000
0000
0000
,
0001
0000
0001
0000
,
0001
0000
0000
0000
,
1000
0000
1000
0000
,
1000
0000
0000
0000
,
0001
0000
0001
0000
,
0001
0000
0000
0000
,
1000
0000
0000
0000
,
0010
0000
0000
0000
,
1000
0000
0001
0000
,
0001
0000
0000
0000
,
0001
0000
0000
0000
,
0010
0000
0000
0000
,
0001
0000
1000
0000
,
1000
0000
0000
0000
,
0010
0000
0000
0000
,
1000
0000
0000
0000
,
0010
0000
0000
0000
,
0001
0000
0000
0000
,
0100
0000
0000
0000
,
1000
0000
0000
0000
,
0001
0000
0000
0000
,
1001
0000
0000
0000
,
0000
0000
0000
0000
,
0001
0000
0001
0000
,
0001
0000
0001
0000
,
1000
0000
1000
0000
,
1000
0000
1000
0000
,
0001
0000
0001
0000
,
0001
0000
0001
0000
,
1000
0000
1000
0000
,
1000
0000
1000
0000
,
0001
0000
0001
0000
,
0001
0000
0000
0000
,
1000
0000
1000
0000
,
1000
0000
0000
0000
,
0001
0000
0001
0000
,
0001
0000
0000
0000
,
1000
0000
1000
0000
,
1000
0000
0000
0000
,
0100
0000
0000
0000
,
;

//---------------dance-single - ----------------
#NOTEDATA:;
#CHARTNAME:;
#STEPSTYPE:dance-single;
#DESCRIPTION:;
#CHARTSTYLE:;
#DIFFICULTY:Easy;
#METER:3;
#RADARVALUES:0.146,0.148,0.072,0.124,0.000,80.000,7.000,12.000,0.000,0.000,0.000,0.000,0.000,0.146,0.148,0.072,0.124,0.000,80.000,7.000,12.000,0.000,0.000,0.000,0.000,0.000;
#CREDIT:;
#OFFSET:0.737;
#BPMS:0.000=145.749
,4.000=145.000
;
#STOPS:;
#DELAYS:;
#WARPS:;
#TIMESIGNATURES:0.000=4=4
;
#TICKCOUNTS:0.000=4
;
#COMBOS:0.000=1
;
#SPEEDS:0.000=1.000=0.000=0
;
#SCROLLS:0.000=1.000
;
#FAKES:;
#LABELS:0.000=Song Start
;
#DISPLAYBPM:145.000;
#NOTES:
0000
0000
0000
0000
,
0000
0000
0000
0000
,
0000
0000
0000
0000
,
0000
0000
0000
0000
,
0000
0000
0000
0000
,
1001
0000
0000
0000
,
0000
0000
0000
0000
,
1001
0000
0000
0000
,
0000
0000
0000
0000
,
0001
0000
0010
0000
,
1000
0000
0000
0000
,
1000
0000
0010
0000
,
0001
0000
1000
0000
,
0020
0000
0000
0030
,
0000
0000
0000
0000
,
1000
0000
1000
0000
,
0002
0000
0003
0000
,
1000
0000
1000
0000
,
1001
0000
0000
0000
,
0001
0000
0001
0000
,
2000
0000
3000
0000
,
0001
0000
0001
0000
,
0110
0000
0000
0000
,
1000
0000
0001
0000
,
0010
0000
0000
0000
,
0001
0000
1000
0000
,
0001
0001
0001
0000
,
1000
0000
0001
0000
,
0010
0000
0000
0000
,
0100
0000
0010
0000
,
0100
0000
0000
0000
,
2000
0000
3000
0000
,
0020
0000
0030
0000
,
0200
0000
0300
0000
,
0002
0000
0003
0000
,
0000
0000
1000
1000
,
0000
0000
0001
0001
,
0000
0000
1000
0000
,
0001
0000
2002
0000
,
3003
0000
0000
0000
,
0001
0001
0010
0000
,
1000
0000
0010
0000
,
0001
0001
0010
0000
,
1000
0000
1000
0000
,
0001
0001
0010
0000
,
1000
0000
0010
0000
,
1000
1000
0010
0000
,
0001
0000
1000
0000
,
1000
0000
1000
0000
,
0002
0000
0003
0000
,
1000
0000
1000
0000
,
1001
0000
0000
0000
,
0001
0000
0001
0000
,
2000
0000
3000
0000
,
0001
0000
0001
0000
,
0110
0000
0000
0000
,
0200
0000
0000
0000
,
0000
0300
0000
0000
;

//---------------dance-single - ----------------
#NOTEDATA:;
#CHARTNAME:;
#STEPSTYPE:dance-single;
#DESCRIPTION:;
#CHARTSTYLE:;
#DIFFICULTY:Medium;
#METER:6;
#RADARVALUES:0.330,0.384,0.207,0.196,0.010,185.000,20.000,19.000,0.000,0.000,0.000,0.000,0.000,0.330,0.384,0.207,0.196,0.010,185.000,20.000,19.000,0.000,0.000,0.000,0.000,0.000;
#CREDIT:;
#OFFSET:0.737;
#BPMS:0.000=145.749
,4.000=145.000
;
#STOPS:;
#DELAYS:;
#WARPS:;
#TIMESIGNATURES:0.000=4=4
;
#TICKCOUNTS:0.000=4
;
#COMBOS:0.000=1
;
#SPEEDS:0.000=1.000=0.000=0
;
#SCROLLS:0.000=1.000
;
#FAKES:;
#LABELS:0.000=Song Start
;
#DISPLAYBPM:145.000;
#NOTES:
0000
0000
0000
0000
,
0000
0000
0000
0000
,
0000
0000
0000
0000
,
0000
0000
0000
0000
,
0000
0000
0000
0000
,
1001
0000
0001
0000
,
1000
0010
0100
0000
,
1001
0000
1000
0000
,
0100
0010
0100
0110
,
0001
0100
0001
0101
,
1000
0010
0100
0001
,
1000
0100
1000
1100
,
0002
2003
3002
0103
,
0010
0000
0010
0000
0010
0100
0010
0100
,
0020
0000
0000
0030
,
1000
0100
1000
0001
,
0010
0000
0100
0000
0001
0010
0001
0000
,
0001
0100
0001
1000
,
0100
0000
0000
0000
0000
0000
0000
0000
0010
0000
0000
0010
0000
0000
0010
0000
,
1000
0100
1000
0001
,
0010
0000
0100
0000
0001
0010
0001
0000
,
0001
0100
0001
1000
,
0110
0000
0000
0000
,
1000
1000
1000
0010
,
0100
0100
0001
1001
,
0010
0010
0100
0110
,
1000
0001
1001
0000
,
0001
0001
0001
0010
,
0100
0100
1000
1001
,
0010
0000
0000
1000
0001
0000
0000
0100
,
0010
0000
0000
1000
0000
0000
1001
0000
,
0200
0000
0310
0001
,
2000
0000
3010
0100
,
0002
0013
0020
0130
,
2000
3020
0230
0300
,
0001
1000
0001
2000
0000
0000
3000
0000
,
0100
0010
0100
0020
0000
0000
0030
0000
,
0001
0101
0010
1010
,
0100
0110
2002
0000
,
3003
0000
0000
0000
,
1000
0100
0001
0101
,
1000
0010
0100
0100
,
0001
0100
1000
1100
,
0200
0000
0010
0310
,
1000
0100
0001
0101
,
1000
0010
0100
0100
,
0001
0100
1000
1100
,
0002
0000
2003
0000
,
3001
0100
0001
1000
,
0010
0000
0100
0000
1000
0010
1000
0000
,
1000
0100
1000
0001
,
0100
0000
0000
0000
0000
0000
0000
0000
0010
0000
0000
0010
0000
0000
0010
0000
,
0001
0100
0001
1000
,
0010
0000
0100
0000
1000
0010
1000
0000
,
1000
0100
1000
0001
,
0110
0000
0010
0000
,
0200
0000
0000
0000
,
0000
0300
0000
0000
,
;

//---------------dance-single - ----------------
#NOTEDATA:;
#CHARTNAME:;
#STEPSTYPE:dance-single;
#DESCRIPTION:;
#CHARTSTYLE:;
#DIFFICULTY:Hard;
#METER:10;
#RADARVALUES:0.510,0.503,0.217,0.186,0.114,307.000,21.000,18.000,0.000,0.000,0.000,0.000,0.000,0.510,0.503,0.217,0.186,0.114,307.000,21.000,18.000,0.000,0.000,0.000,0.000,0.000;
#CREDIT:;
#OFFSET:0.737;
#BPMS:0.000=145.749
,4.000=145.000
;
#STOPS:;
#DELAYS:;
#WARPS:;
#TIMESIGNATURES:0.000=4=4
;
#TICKCOUNTS:0.000=4
;
#COMBOS:0.000=1
;
#SPEEDS:0.000=1.000=0.000=0
;
#SCROLLS:0.000=1.000
;
#FAKES:;
#LABELS:0.000=Song Start
;
#DISPLAYBPM:145.000;
#NOTES:
0000
0000
0000
0000
,
0000
0000
0000
0000
,
0000
0000
0000
0000
,
0000
0000
0000
0000
,
0000
0000
0000
0000
,
1001
0000
0010
0000
,
0100
1000
0001
0100
,
1001
0000
0100
0000
,
0010
0000
1000
0000
0100
0010
0100
0000
,
0011
0000
0100
0010
0001
0000
0100
0010
,
0001
0000
0010
0100
0010
0001
0100
0010
,
1010
0000
0100
0010
1000
0000
0100
0010
,
2000
3020
0230
0301
,
1000
0100
0010
0001
0010
0100
1000
0010
,
0200
0000
0000
0300
,
0001
0000
0100
0000
0010
0000
1000
0000
0010
0000
0100
0001
0000
1000
0100
0000
,
0010
0001
0100
0010
1000
0001
0100
0001
,
1000
0000
0100
0000
0010
0000
0001
0000
0010
0000
0100
1000
0000
0010
0100
0000
,
0010
0000
0000
0000
0101
0000
0000
0000
0001
0000
0000
1100
0000
0000
0110
0000
,
0001
0000
0100
0000
0010
0000
1000
0000
0010
0000
0100
0001
0000
1000
0100
0000
,
0010
0001
0100
0010
1000
0001
0100
0001
,
1000
0000
0100
0000
0010
0000
0001
0000
0010
0000
0001
1000
0000
0001
0100
0000
,
0010
0000
0000
1000
0000
0000
0100
0000
0000
1000
0000
0000
0100
0000
0010
0000
,
0001
0000
0100
0000
0010
1000
0100
0000
,
0010
0000
0100
0000
1000
0010
0100
0000
,
0001
0000
0100
0000
0010
0000
1000
0100
,
0001
0000
0100
1000
0010
0000
0101
0000
,
1000
0000
0100
0000
0010
0001
0100
0010
,
1000
0010
1000
0000
0100
0010
0100
0000
,
1000
0000
0001
0100
0000
0010
0000
1000
,
0010
0100
0000
0110
0000
0001
1001
0000
,
1000
0010
0200
0000
0001
0000
1300
0000
,
0001
0010
0100
0020
0000
0031
0100
0000
,
0010
1000
0200
0000
0010
0000
1300
0000
,
0002
0103
2000
3100
,
0010
0100
0010
2000
0000
0100
3100
0000
,
0010
0001
0010
0002
0000
1000
1003
0000
,
0010
1000
0100
0000
0001
0100
1000
0100
,
1000
0010
0100
0010
0200
0000
0000
0000
,
0020
0000
0000
0330
,
1010
0000
0100
0010
1010
0000
0100
0010
,
2000
0000
3010
0100
0010
1000
0100
0010
,
0011
0000
0100
0010
0011
0000
0100
0010
,
1000
0001
2000
0000
0100
0000
3010
0000
,
1010
0000
0100
0010
1010
0000
0100
0010
,
2000
0000
3010
0100
0010
1000
0100
0010
,
0011
0000
0100
0010
0001
0010
0100
0010
,
0002
0010
1000
1003
,
1000
0000
0100
0000
0010
0000
0001
0000
0010
0000
0100
1000
0000
0001
0100
0000
,
0010
1000
0100
0010
0001
1000
0100
1000
,
0001
0000
0100
0000
0010
0000
1000
0000
0010
0000
0100
0001
0000
0010
0100
0000
,
0010
0000
0000
0000
1100
0000
0000
0000
1000
0000
0000
0101
0000
0000
0110
0000
,
1000
0000
0100
0000
0010
0000
0001
0000
0010
0000
0100
1000
0000
0001
0100
0000
,
0010
1000
0100
0010
0001
1000
0100
1000
,
0001
0000
0100
0000
0010
0000
1000
0000
0010
0000
1000
0001
0000
1000
0100
0000
,
0010
0000
0000
1001
0000
0000
0100
0000
0000
0001
0000
0000
0100
0000
0010
0000
,
2000
0000
0000
0000
,
0000
3000
0000
0000
;

//---------------dance-double - ----------------
#NOTEDATA:;
#CHARTNAME:;
#STEPSTYPE:dance-double;
#DESCRIPTION:;
#CHARTSTYLE:;
#DIFFICULTY:Easy;
#METER:5;
#RADARVALUES:0.243,0.236,0.062,0.217,0.000,138.000,6.000,21.000,0.000,0.000,0.000,0.000,0.000,0.243,0.236,0.062,0.217,0.000,138.000,6.000,21.000,0.000,0.000,0.000,0.000,0.000;
#CREDIT:;
#OFFSET:0.737;
#BPMS:0.000=145.749
,4.000=145.000
;
#STOPS:;
#DELAYS:;
#WARPS:;
#TIMESIGNATURES:0.000=4=4
;
#TICKCOUNTS:0.000=4
;
#COMBOS:0.000=1
;
#SPEEDS:0.000=1.000=0.000=0
;
#SCROLLS:0.000=1.000
;
#FAKES:;
#LABELS:0.000=Song Start
;
#DISPLAYBPM:145.000;
#NOTES:
00000000
00000000
00000000
00000000
,
00000000
00000000
00000000
00000000
,
00000000
00000000
00000000
00000000
,
00000000
00000000
00000000
00000000
,
00000000
00000000
00000000
00000000
,
10010000
00000000
00000000
00000000
,
00010000
00000000
00001000
00000000
,
00001001
00000000
00000000
00000000
,
00010000
00001000
00010000
00000000
,
00000010
00000100
00000001
00000100
,
00001000
00000000
00010000
00000000
,
00100000
01000000
10000000
01000000
,
00002000
00003000
00020000
00030000
,
00022000
00000000
00000000
00000000
,
00033000
00000000
00000000
00000000
,
00000001
00000100
00000010
00000000
,
00010000
00000000
01000000
00000000
,
10000000
01000000
00100000
00000000
,
00001000
00000000
00011000
00000000
,
00000001
00000100
00000010
00000000
,
00010000
00000000
01000000
00000000
,
10000000
01000000
00100000
00000000
,
00002000
00000000
00013000
00000000
,
00001000
00010000
00000010
00000000
,
00010000
00001000
01000000
00000000
,
00010000
00100000
00001000
00010000
,
00002000
00003000
00000020
00000030
,
00001000
00010000
00000010
00000000
,
00010000
00000010
00001000
00000000
,
00000100
00010000
00001000
00200000
,
01000000
01000000
01300000
00000000
,
20000000
00000000
31000000
00010000
,
00002000
00000000
00003010
00000100
,
00002000
00000000
00003001
00000100
,
00002000
00000000
00013000
00001000
,
00200000
00000000
01300000
01000000
,
00020000
00000000
00031000
00001000
,
00100000
00100000
00001000
00001000
,
00010000
00000010
00000200
00000000
,
00000300
00000000
00000000
00000000
,
00000010
00001000
00000001
00000100
,
00001000
00001000
00010000
00000000
,
00100000
00010000
10000000
01000000
,
00200000
00000000
00001000
00301000
,
00100000
00010000
10000000
01000000
,
00010000
00010000
00001000
00000000
,
00000010
00000100
00010000
00000100
,
00002000
00000000
00000020
00003030
,
00000001
00000100
00000010
00000000
,
00010000
00000000
01000000
00000000
,
10000000
01000000
00100000
00000000
,
00001000
00000000
00011000
00000000
,
00000001
00000100
00000010
00000000
,
00010000
00000000
01000000
00000000
,
10000000
01000000
00100000
00000000
,
00002000
00000000
00013000
00000000
,
00022000
00000000
00000000
00000000
,
00000000
00033000
00000000
00000000
,
;

//---------------dance-double - ----------------
#NOTEDATA:;
#CHARTNAME:;
#STEPSTYPE:dance-double;
#DESCRIPTION:;
#CHARTSTYLE:;
#DIFFICULTY:Medium;
#METER:7;
#RADARVALUES:0.403,0.384,0.238,0.310,0.000,220.000,23.000,30.000,0.000,0.000,0.000,0.000,0.000,0.403,0.384,0.238,0.310,0.000,220.000,23.000,30.000,0.000,0.000,0.000,0.000,0.000;
#CREDIT:;
#OFFSET:0.737;
#BPMS:0.000=145.749
,4.000=145.000
;
#STOPS:;
#DELAYS:;
#WARPS:;
#TIMESIGNATURES:0.000=4=4
;
#TICKCOUNTS:0.000=4
;
#COMBOS:0.000=1
;
#SPEEDS:0.000=1.000=0.000=0
;
#SCROLLS:0.000=1.000
;
#FAKES:;
#LABELS:0.000=Song Start
;
#DISPLAYBPM:145.000;
#NOTES:
00000000
00000000
00000000
00000000
,
00000000
00000000
00000000
00000000
,
00000000
00000000
00000000
00000000
,
00000000
00000000
00000000
00000000
,
00000000
00000000
00000000
00000000
,
00001001
00000000
00000200
00000000
,
00020300
00000000
00031000
00000000
,
10010000
00000000
02000000
00000000
,
03001000
00000000
00010000
00000000
00001000
00010000
00001000
00000000
,
00110000
01000000
10100000
01000000
,
00010000
00000000
00100000
00000000
00001000
00010000
00000100
00000000
,
00000011
00000100
00001010
00000100
,
00020000
00030010
00002000
00103000
,
00022000
00000000
00000000
00000000
,
00033000
00000000
00000000
00000000
,
10000000
00100000
01000000
00010000
00100000
00000000
01000000
00000000
,
00010000
00001000
00100000
00000000
00001000
00010000
00000010
00000000
,
00000001
00000010
00000100
00001000
00000010
00000000
00001100
00000000
,
00020000
00000010
00032000
01003000
,
10000000
00100000
01000000
00010000
00100000
00000000
01000000
00000000
,
00010000
00001000
00100000
00000000
00001000
00010000
00000010
00000000
,
00000001
00000010
00000100
00001000
00000010
00000000
00000110
00000000
,
00001000
00000000
00010000
00000000
,
00001000
00000010
00000100
00010000
,
00001000
00000000
00100000
00001000
00010000
00000000
00000000
00000000
,
00000010
00000000
00000100
00000000
00000001
00000010
00001000
00010000
,
00002000
00000000
02003000
00000000
03100000
00010000
00001000
00000000
,
00010000
00100000
01000000
01001000
,
00100000
00010000
00100000
00010000
00000000
00000000
01000000
00000000
,
00200000
00320000
00032000
00003020
,
00000031
00000100
00000000
00000100
00000000
00000100
00000010
00000000
,
00002000
00000000
00000001
00003100
,
00020000
00000000
00100000
00031000
,
02000000
00000000
00100000
13000000
,
00020000
00000000
00100000
01030000
,
00200000
00000000
00000000
00302000
00000000
00010000
00013000
00000000
,
00000020
00000000
00000000
00000230
00000000
00000001
00000301
00000000
,
00000010
00000100
00000100
00000000
00010000
00001000
00001000
00000000
,
01000000
00100000
00100000
20000000
00020000
00000000
00000000
00000000
,
30030000
00000000
00000000
00000000
,
00110000
00000000
01000000
00000000
10100000
00000000
01000000
00001000
,
00010000
00000000
00101000
00000000
00001000
00010000
00000100
00000000
,
00001010
00000000
00000100
00000000
00000011
00000000
00000100
00010000
,
00000020
00000001
00001000
00000130
,
00001010
00000000
00000100
00000000
00000011
00000000
00000100
00010000
,
00001000
00000000
00010010
00000000
00010000
00001000
01000000
00000000
,
00110000
00000000
01000000
00000000
10100000
00000000
01000000
00100000
,
01000000
00010000
00001000
00000010
,
00000001
00000010
00000100
00001000
00000010
00000000
00000100
00000000
,
00001000
00010000
00000010
00000000
00010000
00001000
00100000
00000000
,
10000000
00100000
01000000
00010000
00100000
00000000
01010000
00000000
,
00002000
00100000
00023000
00030100
,
00000001
00000010
00000100
00001000
00000010
00000000
00000100
00000000
,
00001000
00010000
00000010
00000000
00010000
00001000
00100000
00000000
,
10000000
00100000
01000000
00010000
00100000
00000000
01100000
00000000
,
00010000
00000000
00001000
00000000
,
00022000
00000000
00000000
00000000
,
00000000
00033000
00000000
00000000
,
;

//---------------dance-double - ----------------
#NOTEDATA:;
#CHARTNAME:;
#STEPSTYPE:dance-double;
#DESCRIPTION:;
#CHARTSTYLE:;
#DIFFICULTY:Hard;
#METER:11;
#RADARVALUES:0.505,0.473,0.279,0.207,0.114,295.000,27.000,20.000,0.000,0.000,0.000,0.000,0.000,0.505,0.473,0.279,0.207,0.114,295.000,27.000,20.000,0.000,0.000,0.000,0.000,0.000;
#CREDIT:;
#OFFSET:0.737;
#BPMS:0.000=145.749
,4.000=145.000
;
#STOPS:;
#DELAYS:;
#WARPS:;
#TIMESIGNATURES:0.000=4=4
;
#TICKCOUNTS:0.000=4
;
#COMBOS:0.000=1
;
#SPEEDS:0.000=1.000=0.000=0
;
#SCROLLS:0.000=1.000
;
#FAKES:;
#LABELS:0.000=Song Start
;
#DISPLAYBPM:145.000;
#NOTES:
00000000
00000000
00000000
00000000
,
00000000
00000000
00000000
00000000
,
00000000
00000000
00000000
00000000
,
00000000
00000000
00000000
00000000
,
00000000
00000000
00000000
00000000
,
10200000
00000000
00010000
00000000
,
02300000
00000000
03010000
00001000
,
00000021
00000000
00001000
00000000
,
00000130
00000000
00000100
00000000
00000010
00000100
00000010
00000000
,
00000101
00000000
00000010
00010000
00000100
00000000
00000010
00000100
,
00000001
00000010
00001000
00010000
01000000
00100000
00100000
00000000
,
11000000
00000000
00100000
00001000
01000000
00000000
00100000
01000000
,
00010000
00101000
00001000
00010010
,
00001000
00000100
00010000
00001000
00100000
00001000
00010000
00000010
,
00002000
00000000
00000000
00003000
,
00000001
00000000
00000010
00000000
00001000
00000000
00000010
00000000
00000001
00000000
00000000
00000100
00000000
00000000
00001000
00000000
,
00020000
00000000
00000000
00001000
00000000
00000000
00130000
00000000
00020000
00000000
00000000
00001000
00000000
00000000
00031000
00000000
,
01000000
00000000
00100000
00000000
00010000
00000000
00100000
00000000
10000000
00000000
00000000
00010000
00000000
00000000
00001000
00000000
,
00000010
00000000
00000000
00000000
00000100
00000000
00000000
00000000
00001010
00000000
00000000
00010100
00000000
00000000
01000000
00000000
,
10000000
00000000
00100000
00000000
00010000
00000000
00100000
00000000
10000000
00000000
00000000
01000000
00000000
00000000
00010000
00000000
,
00002000
00000000
00000000
00010000
00000000
00000000
00003010
00000000
00002000
00000000
00000000
00010000
00000000
00000000
00013000
00000000
,
00001000
00000000
00000010
00000000
00001000
00000000
00000010
00000000
00000001
00000000
00000000
00000100
00000000
00000000
00001000
00000000
,
00010000
00000000
00000000
00000100
00000000
00000000
00000010
00000000
00000000
00001000
00000000
00000000
00010000
00000000
00001000
00000000
,
01000000
00000000
00010000
00000000
10000000
00000000
00100000
00010000
,
00001000
00000000
00010000
01000000
00100000
00000000
01000000
00000000
,
10000000
00100000
00010000
00000000
00001000
00000010
00000001
00000000
,
00001000
00000100
00010000
00000100
00001000
00000001
00000100
00000000
,
00000010
00000000
00001000
00000000
00000001
00000000
00000010
00001000
,
00010000
00001000
00000100
00000000
00000001
00000010
00000100
00000000
,
00000001
00000000
00000100
00001100
00000000
00010000
00011000
00000000
,
01000000
00100000
00000000
00010000
00000000
01000000
01100000
00000000
,
10000000
01000000
00010000
00002000
00000000
00013000
00001000
00000000
,
01000000
00100000
00010000
00002000
00000000
00013000
01000000
00000000
,
00100000
00001000
00010000
00000020
00000000
00000130
00000010
00000100
,
00000001
00001100
00011000
00001010
,
00000100
00000001
00000010
00002000
00000000
00010000
00013000
00000000
,
00100000
10000000
00010000
00200000
00000000
00001000
00301000
01000000
,
00010000
00100000
01000000
10000000
00100000
00010000
00001000
00010000
,
00001000
00000010
00000100
00001000
00000002
00000000
00000000
00000000
,
00000000
00000100
00000100
00000103
,
00000101
00000000
00000010
00010000
00010100
00000000
00000010
00000100
,
00000001
00000010
00001000
00010000
01000000
00100000
00100000
01000000
,
11000000
00000000
00100000
00001000
01001000
00000000
00100000
01000000
,
00100000
00001000
00010000
00001000
01000000
00100000
01000000
00000000
,
11000000
00000000
00100000
00001000
01001000
00000000
00100000
01000000
,
10000000
00100000
00010000
00001000
00000100
00000010
00000010
00000100
,
00000101
00000000
00000010
00010000
00000100
00001000
00000010
00000100
,
00000001
00001100
00011000
00110000
,
10000000
00000000
00100000
00000000
00010000
00000000
00100000
00000000
10000000
00000000
00000000
01000000
00000000
00000000
00010000
00000000
,
00002000
00000000
00000000
00010000
00000000
00000000
00003010
00000000
00002000
00000000
00000000
00010000
00000000
00000000
00013000
00000000
,
00000100
00000000
00000010
00000000
00001000
00000000
00000010
00000000
00000001
00000000
00000000
00001000
00000000
00000000
00010000
00000000
,
00100000
00000000
00000000
00000000
01000000
00000000
00000000
00000000
00110000
00000000
00000000
01001000
00000000
00000000
00000100
00000000
,
00000001
00000000
00000010
00000000
00001000
00000000
00000010
00000000
00000001
00000000
00000000
00000100
00000000
00000000
00001000
00000000
,
00020000
00000000
00000000
00001000
00000000
00000000
00130000
00000000
00020000
00000000
00000000
00001000
00000000
00000000
00031000
00000000
,
00010000
00000000
00100000
00000000
00010000
00000000
00100000
00000000
10000000
00000000
00000000
01000000
00000000
00000000
00010000
00000000
,
00001000
00000000
00000000
01000000
00000000
00000000
00100000
00000000
00000000
00010000
00000000
00000000
00001000
00000000
00010000
00000000
,
00022000
00000000
00000000
00000000
,
00000000
00033000
00000000
00000000
;

//---------------dance-single - ----------------
#NOTEDATA:;
#CHARTNAME:;
#STEPSTYPE:dance-single;
#DESCRIPTION:;
#CHARTSTYLE:;
#DIFFICULTY:Challenge;
#METER:13;
#RADARVALUES:0.649,0.578,0.268,0.145,0.480,400.000,26.000,14.000,0.000,0.000,0.000,0.000,0.000,0.649,0.578,0.268,0.145,0.480,400.000,26.000,14.000,0.000,0.000,0.000,0.000,0.000;
#CREDIT:;
#OFFSET:0.737;
#BPMS:0.000=145.749
,4.000=145.000
;
#STOPS:;
#DELAYS:;
#WARPS:;
#TIMESIGNATURES:0.000=4=4
;
#TICKCOUNTS:0.000=4
;
#COMBOS:0.000=1
;
#SPEEDS:0.000=1.000=0.000=0
;
#SCROLLS:0.000=1.000
;
#FAKES:;
#LABELS:0.000=Song Start
;
#DISPLAYBPM:145.000;
#NOTES:
// measure 0
0000
0000
0000
0000
,  // measure 1
0000
0000
0000
0000
,  // measure 2
0000
0000
0000
0000
,  // measure 3
0000
0000
0000
0000
,  // measure 4
0000
0000
0000
0000
,  // measure 5
0110
0000
0000
0000
0000
0000
0100
0010
0200
0000
0000
0000
0000
0000
0301
1000
,  // measure 6
0002
0000
0000
0000
0000
0000
0103
1000
0100
0000
0010
0000
0100
0000
0010
0000
,  // measure 7
1001
0000
0000
0000
0000
0000
0010
1000
0200
0000
0000
0000
0000
0000
0310
0001
,  // measure 8
0100
1000
0100
0010
1100
0000
0011
0000
,  // measure 9
1001
0000
0000
0000
0100
0000
0010
0100
0010
0000
0000
0000
0100
0000
0010
0001
,  // measure 10
0010
0000
0000
0000
0010
0000
0100
1000
0100
0000
0001
0000
0010
0000
0100
0000
,  // measure 11
1010
0000
0000
0000
0001
0000
1000
0100
0010
0000
0000
0000
0001
0000
0010
0100
,  // measure 12
1000
1010
0110
0011
,  // measure 13
1000
0010
0001
0010
1000
0100
0001
0100
,  // measure 14
0020
0000
0000
0000
,  // measure 15
0031
0000
0100
0000
1000
0100
0000
1000
0100
0000
0010
0001
0000
0100
0010
0000
,  // measure 16
0001
0000
0100
0000
1000
0100
0000
0010
0100
0000
0001
0010
0000
0100
1000
0000
,  // measure 17
0001
0000
0100
0000
0010
1000
0000
0001
1000
0000
0100
0010
0000
1000
0001
0000
,  // measure 18
0010
0100
0010
0000
1000
0000
0100
0000
1002
0000
0000
1000
0000
0000
1003
0000
,  // measure 19
0010
0000
0100
0000
0010
0001
0000
0100
0010
0000
1000
0100
0000
0010
0100
0000
,  // measure 20
0010
0000
0001
0000
0100
0010
0000
1000
0100
0000
0001
0010
0000
0100
0010
0000
,  // measure 21
1000
0000
0100
0000
0010
0100
0000
0010
1000
0000
0001
0100
0000
0010
1000
0000
,  // measure 22
0001
0010
0000
0010
0100
0000
0100
1000
0000
1000
0001
0000
0001
0000
0100
0000
,  // measure 23
0010
0001
0100
0001
0000
1000
0000
1000
,  // measure 24
0010
0001
0010
1000
0100
0010
0100
0010
,  // measure 25
0001
0100
0010
1000
0000
0110
0000
0001
,  // measure 26
1001
1010
0000
0011
0000
0101
1100
0000
,  // measure 27
1000
0001
0100
0001
0000
1000
0100
0010
,  // measure 28
0100
0000
1000
0000
0100
0000
0001
0000
1000
0000
0010
1000
0100
0000
0001
0000
,  // measure 29
0010
0000
1000
1100
0000
0001
0100
0010
,  // measure 30
0100
1000
0000
1001
0000
0001
0010
0000
,  // measure 31
1000
0000
0010
0000
0200
0000
0001
0000
0000
0000
1300
0010
1000
0000
0100
0000
,  // measure 32
0001
0000
0010
0000
0100
0000
0020
0000
0000
0000
0031
0010
0100
0000
1000
0000
,  // measure 33
0010
0000
1000
0000
0200
0000
0010
0000
0000
0000
1300
0001
1000
0000
0000
0000
,  // measure 34
0010
0000
0001
0000
0100
0000
0010
0000
1000
0000
0000
0001
0000
0000
0100
0000
,  // measure 35
0010
0000
0100
0000
0010
0000
2000
0000
0000
0000
3100
1000
0100
0000
0001
0100
,  // measure 36
0010
0000
0001
0000
0010
0000
0002
0000
0000
0000
1003
0010
1000
0000
0001
0100
,  // measure 37
0010
0000
1000
0000
0010
0000
0001
0000
0100
1000
0100
1000
0100
0000
0001
0000
,  // measure 38
1000
0010
0100
0001
0010
0100
1000
0001
,  // measure 39
2002
0000
0000
3003
,  // measure 40
0011
0000
0000
0000
0100
0000
0010
1000
0010
0000
0000
0000
0100
0000
0010
0100
,  // measure 41
2000
0000
0000
0000
3010
0000
0100
0001
0010
0000
1000
0000
0100
0000
0010
0000
,  // measure 42
1010
0000
0000
0000
0100
0000
0010
0001
0010
0000
0000
0000
0100
0000
0010
0100
,  // measure 43
1000
0001
1000
0100
0010
0000
1001
0000
,  // measure 44
1010
0000
0000
0000
0100
0000
0010
0001
1000
0000
0000
0000
1000
0000
0100
0010
,  // measure 45
0001
0000
0000
0000
0010
0000
0100
1000
0001
0000
0010
0000
0100
0000
1000
0000
,  // measure 46
0011
0000
0000
0000
0100
0000
0010
0001
0010
0000
0100
0000
1000
0000
0010
0100
,  // measure 47
0001
0000
0000
0000
0010
0000
0000
0000
0100
0000
0000
0000
1000
0001
1000
0001
,  // measure 48
1000
0000
0100
0000
0010
0001
0000
0001
0100
0000
1000
0010
0000
0001
0100
0000
,  // measure 49
0010
0000
1000
0000
0100
0001
0000
0001
0010
0000
1000
0100
0000
0001
0100
0000
,  // measure 50
0001
0000
0100
0000
0010
0001
0000
0100
1000
0000
0001
0100
0000
0100
1000
0000
,  // measure 51
0010
1000
0010
0000
0100
0000
0001
0000
0120
0000
0000
0100
0000
0000
0130
0000
,  // measure 52
0001
0000
1000
0000
0010
0100
0000
0001
0010
0000
0100
1000
0000
1000
0010
0000
,  // measure 53
0001
0000
1000
0000
0100
1000
0000
1000
0001
0000
1000
0100
0000
0010
0100
0000
,  // measure 54
0001
0000
0100
0000
0010
1000
0000
0100
0010
0000
1000
0100
0000
0010
0001
0000
,  // measure 55
1000
0100
0000
0100
0010
0000
0010
0001
0000
0001
0010
0000
0010
0000
0100
0000
,  // measure 56
1001
0000
0000
0000
;

//---------------dance-double - ----------------
#NOTEDATA:;
#CHARTNAME:;
#STEPSTYPE:dance-double;
#DESCRIPTION:;
#CHARTSTYLE:;
#DIFFICULTY:Challenge;
#METER:14;
#RADARVALUES:0.656,0.578,0.227,0.083,0.501,415.000,22.000,8.000,0.000,0.000,0.000,0.000,0.000,0.656,0.578,0.227,0.083,0.501,415.000,22.000,8.000,0.000,0.000,0.000,0.000,0.000;
#CREDIT:;
#OFFSET:0.737;
#BPMS:0.000=145.749
,4.000=145.000
;
#STOPS:;
#DELAYS:;
#WARPS:;
#TIMESIGNATURES:0.000=4=4
;
#TICKCOUNTS:0.000=4
;
#COMBOS:0.000=1
;
#SPEEDS:0.000=1.000=0.000=0
;
#SCROLLS:0.000=1.000
;
#FAKES:;
#LABELS:0.000=Song Start
;
#DISPLAYBPM:145.000;
#NOTES:
00000000
00000000
00000000
00000000
,
00000000
00000000
00000000
00000000
,
00000000
00000000
00000000
00000000
,
00000000
00000000
00000000
00000000
,
00000000
00000000
00000000
00000000
,
00000011
00000000
00000000
00000000
00001000
00000000
00000100
00010000
00000100
00000000
00000000
00000000
00010000
00000000
00100000
00001000
,
00100000
00000000
00000000
00000000
00100000
00000000
01000000
10000000
01000000
00000000
00010000
00000000
10000000
00000000
00100000
00000000
,
01100000
00000000
00000000
00000000
00010000
00000000
00100000
10000000
01000000
00000000
00000000
00000000
00001000
00000000
00100000
00010000
,
00001000
00000100
00000001
00000100
00001010
00000000
00011000
00000000
,
10010000
00000000
00000000
00000000
00010000
00000000
10000000
01000000
00100000
00000000
00000000
00000000
10000000
00000000
01000000
00010000
,
00100000
00000000
00000000
00000000
00001000
00000000
00100000
00010000
00001000
00000000
00000010
00000000
00000100
00000000
00000001
00000000
,
00001100
00000000
00000000
00000000
00000100
00000000
00000001
00000010
00001000
00000000
00000000
00000000
00000100
00000000
00001000
00010000
,
01000000
10100000
00110000
01000000
,
00010000
10000000
01000000
00100000
00001000
00000010
00000100
00000001
,
00002000
00000000
00000000
00003000
,
00000001
00000000
00000010
00000000
00000100
00001000
00000000
00000010
00000100
00000000
00000001
00000010
00000000
00000010
00000100
00000000
,
00010000
00000000
00100000
00000000
10000000
00100000
00000000
00100000
01000000
00000000
00010000
10000000
00000000
01000000
00100000
00000000
,
00001000
00000000
00000100
00000000
00000001
00000010
00000000
00000100
00001000
00000000
00000001
00000100
00000000
00000100
00001000
00000000
,
00010000
00100000
00010000
00000000
10000000
00000000
00100000
00000000
10010000
00000000
00000000
01000000
00000000
00000000
00010000
00000000
,
00001000
00000000
00000010
00000000
00000100
00001000
00000000
00000100
00000010
00000000
00001000
00000001
00000000
00000001
00000010
00000000
,
00010000
00000000
00100000
00000000
10000000
00010000
00000000
00010000
00100000
00000000
01000000
10000000
00000000
00100000
00010000
00000000
,
00001000
00000000
00000010
00000000
00000100
00000001
00000000
00000001
00000010
00000000
00001000
00000010
00000000
00000001
00000100
00000000
,
00010000
01000000
00000000
00100000
01000000
00000000
10000000
01000000
00000000
00010000
00100000
00000000
00010000
00000000
01000000
00000000
,
00100000
00010000
01000000
00100000
00000000
10000000
00000000
00010000
,
00001000
00010000
00100000
00001000
00010000
00000100
00001000
00010000
,
00001000
00000100
00000001
00000100
00000000
00001000
00000000
00000001
,
00000100
00001000
00000010
00000100
00000001
00001000
00001010
00000000
,
00010000
01000000
10000000
01000000
00000000
00010000
10000000
00100000
,
01000000
00010000
10000000
00100000
00010000
00000100
00001000
00010000
,
00001000
00000000
00000010
00001010
00000000
00000001
00000100
00001000
,
00000010
00000000
00000100
00000000
00000000
00000000
00011000
00000000
00000000
00000000
00101000
00000000
00110000
00000000
00010000
10000000
,
01000000
00000000
00100000
00000000
02000000
00000000
00010000
00000000
00000000
00000000
13000000
00100000
10000000
00000000
01000000
00000000
,
00001000
00000000
00000100
00000000
00001000
00000000
00000020
00000000
00000000
00000000
00000130
00000001
00001000
00000000
00000010
00000000
,
00010000
00000000
00100000
00000000
02000000
00000000
10000000
00000000
00000000
00000000
03010000
01000000
00100000
00000000
00000000
00000000
,
00100000
00010000
00000000
00000000
10000000
01000000
00000000
00000000
00010000
00000000
00000000
00001000
00000000
00000000
00010000
00000000
,
00000100
00000000
00001000
00000000
00010000
00000000
00000200
00000000
00000000
00000000
00001300
00000010
00001000
00000000
00000001
00000100
,
00000010
00000000
00001000
00000000
00000010
00000000
00000200
00000000
00000000
00000000
00001300
00000001
00001000
00000000
00010000
00100000
,
01000000
00000000
00010000
00000000
00100000
00000000
01000000
00000000
00100000
01000000
10000000
01000000
00100000
00000000
00010000
00000000
,
00001000
00000010
00000001
00000100
00001000
00000010
00000100
00000010
,
00002002
00000000
00000000
00003003
,
00011000
00000000
00001000
00000000
00010000
00000000
00100000
10000000
01000000
00000000
00000000
00000000
10000000
00000000
00100000
01000000
,
00010000
00000000
00000000
00000000
00001000
00000000
01000000
00010000
00100000
00000000
00010000
00000000
00000100
00000000
00001000
00000000
,
00001100
00000000
00000100
00000000
00000010
00000000
00000001
00001000
00000100
00000000
00000000
00000000
00000010
00000000
00001000
00100000
,
00010000
00000000
10000000
00100000
01000000
00000000
00010000
00100000
10000000
00000000
00010000
00000000
01010000
00000000
00000000
00000000
,
00011000
00000000
00010000
00000000
00000100
00000000
00001000
00010000
00100000
00000000
00000000
00000000
00001000
00000000
00000001
00000100
,
00000010
00000000
00000000
00000000
00001000
00000000
00000100
00001000
00000010
00000000
00000001
00000000
00000010
00000000
00000100
00000000
,
00001100
00000000
00010000
00000000
00001000
00000000
00010000
00100000
00010000
00000000
01000000
00000000
10000000
00000000
00100000
01000000
,
00100000
00000000
00000000
00000000
00010000
00000000
00000000
00000000
10000000
00000000
00000000
00000000
00100000
00010000
10000000
00010000
,
00100000
00000000
00001000
00000000
00100000
00010000
00000000
00010000
00000100
00000000
00001000
00000010
00000000
00010000
00001000
00000000
,
00000010
00000000
00000100
00000000
00000001
00000010
00000000
00000001
00000010
00000000
00000100
00000001
00000000
00001000
00000010
00000000
,
00010000
00000000
00001000
00000000
00000100
00001000
00000000
00010000
00001000
00000000
00100000
00010000
00000000
00010000
10000000
00000000
,
01000000
00100000
01000000
00000000
00010000
00000000
00100000
00000000
10010000
00000000
00000000
00100000
00000000
00000000
00010000
00000000
,
00001000
00000000
00100000
00000000
00001000
00010000
00000000
00001000
00010000
00000000
00000100
00001000
00000000
00000010
00000001
00000000
,
00000010
00000000
00000100
00000000
00001000
00000010
00000000
00001000
00000100
00000000
00000001
00000010
00000000
00000010
00000100
00000000
,
00010000
00000000
00100000
00000000
00001000
00010000
00000000
00100000
00010000
00000000
10000000
01000000
00000000
00100000
00010000
00000000
,
10000000
01000000
00000000
00100000
01000000
00000000
00010000
01000000
00000000
00100000
10000000
00000000
00010000
00000000
00100000
00000000
,
00011000
00000000
00000000
00000000
;
