#VERSION:0.81;
#TITLE:Go For The Top;
#SUBTITLE:;
#ARTIST:U1 overground;
#TITLETRANSLIT:;
#SUBTITLETRANSLIT:;
#ARTISTTRANSLIT:;
#GENRE:;
#ORIGIN:;
#CREDIT:;
#BANNER:Go For The Top.png;
#BACKGROUND:Go For The Top-bg.png;
#PREVIEWVID:;
#JACKET:Go For The Top-jacket.png;
#CDIMAGE:;
#DISCIMAGE:;
#LYRICSPATH:;
#CDTITLE:./CDTITLES/DanceDanceRevolution X3 VS 2ndMIX.png;
#MUSIC:Go For The Top.ogg;
#OFFSET:0.000;
#SAMPLESTART:13.990;
#SAMPLELENGTH:15.000;
#SELECTABLE:YES;
#DISPLAYBPM:74.000:180.000;
#BPMS:0.000=180.000,
163.000=152.000,
164.000=130.000,
165.000=90.000,
166.000=74.000,
167.000=360.000,
171.000=180.000;
#STOPS:152.000=0.083,
152.250=0.083,
152.500=0.083,
152.750=0.083,
153.000=0.083,
153.250=0.083,
153.500=0.083,
153.750=0.083,
167.000=0.667;
#DELAYS:;
#WARPS:;
#TIMESIGNATURES:0.000=4=4;
#TICKCOUNTS:0.000=4;
#COMBOS:0.000=1;
#SPEEDS:0.000=1.000=0.000=0;
#SCROLLS:0.000=1.000;
#FAKES:;
#LABELS:0.000=Song Start;
#BGCHANGES:;
#KEYSOUNDS:;
#ATTACKS:
;

//---------------dance-single - ----------------
#NOTEDATA:;
#CHARTNAME:;
#STEPSTYPE:dance-single;
#DESCRIPTION:;
#CHARTSTYLE:;
#DIFFICULTY:Beginner;
#METER:6;
#RADARVALUES:0.247,0.276,0.052,0.135,0.000,148.000,5.000,13.000,0.000,0.000,0.000,0.000,0.000,0.247,0.276,0.052,0.135,0.000,148.000,5.000,13.000,0.000,0.000,0.000,0.000,0.000;
#CREDIT:;
#OFFSET:0.000;
#BPMS:0.000=180.000
,163.000=152.000
,164.000=130.000
,165.000=90.000
,166.000=74.000
,167.000=360.000
,171.000=180.000
;
#STOPS:152.000=0.083
,152.250=0.083
,152.500=0.083
,152.750=0.083
,153.000=0.083
,153.250=0.083
,153.500=0.083
,153.750=0.083
,167.000=0.667
;
#DELAYS:;
#WARPS:;
#TIMESIGNATURES:0.000=4=4
;
#TICKCOUNTS:0.000=4
;
#COMBOS:0.000=1
;
#SPEEDS:0.000=1.000=0.000=0
;
#SCROLLS:0.000=1.000
;
#FAKES:;
#LABELS:0.000=Song Start
;
#DISPLAYBPM:74.000:180.000;
#NOTES:
0000
0000
0000
0000
,
0000
0000
0000
0000
,
0000
0000
0000
0000
,
0000
0000
0000
0000
,
0000
0000
0000
0000
,
0000
0000
0000
0000
,
0000
0000
0000
0000
,
0100
0100
0100
0000
,
0010
0010
0010
0000
,
0001
1000
0001
1000
,
0100
0100
0000
0000
,
0020
0000
0000
0000
,
0000
0030
0001
0100
,
0001
0000
0010
0000
,
1000
0000
0001
0100
,
0020
0000
0000
0030
,
1000
0100
1000
0000
,
0020
0000
0000
0030
,
0001
1000
0001
1000
,
0000
0001
0000
0100
,
0000
1000
0001
1000
,
0000
0010
0000
0100
,
0010
1000
0100
0010
,
0000
0001
0000
0100
,
0000
0010
0100
0010
,
0000
0001
0000
0100
,
2002
0000
0000
3003
,
1000
0001
0100
0000
,
1000
0010
0100
0000
,
0001
1000
0010
0000
,
0001
0100
0010
0000
,
0200
0000
0000
0000
,
0000
0000
0000
0300
,
0020
0000
0000
0000
,
0000
0000
0000
0030
,
1000
0100
0001
0000
,
1000
0100
0001
0000
,
1000
0100
0001
0000
,
0200
0000
0000
0300
0001
0000
0010
0000
,
1000
0000
0001
0010
,
1000
0000
0001
0000
,
0200
0000
0000
0300
,
0000
0000
0000
0010
,
0000
1000
0000
0100
,
0000
0001
0000
1000
,
0001
1000
0001
0100
,
0000
0010
0000
2002
,
0000
0000
0000
0000
,
0000
0000
3003
0001
,
1000
0001
1000
0100
,
0100
0010
0010
0020
,
0000
0000
0030
0200
,
0000
0000
0300
0001
,
1000
0001
0000
0110
,
0000
1001
0000
0010
,
0001
0100
0000
0010
,
1000
0100
0000
0010
,
0001
0100
0010
1000
,
0100
0100
0100
0010
,
0100
1000
0000
0001
,
1000
0001
0000
0100
,
0010
1000
0001
1000
,
0100
0010
0000
0001
,
1000
0100
1000
0010
,
0001
0100
0010
1000
,
0100
0010
0010
0100
,
0100
1001
0000
0000
;

//---------------dance-single - ----------------
#NOTEDATA:;
#CHARTNAME:;
#STEPSTYPE:dance-single;
#DESCRIPTION:;
#CHARTSTYLE:;
#DIFFICULTY:Easy;
#METER:8;
#RADARVALUES:0.435,0.450,0.354,0.219,0.000,237.000,34.000,21.000,0.000,0.000,0.000,0.000,0.000,0.435,0.450,0.354,0.219,0.000,237.000,34.000,21.000,0.000,0.000,0.000,0.000,0.000;
#CREDIT:;
#OFFSET:0.000;
#BPMS:0.000=180.000
,163.000=152.000
,164.000=130.000
,165.000=90.000
,166.000=74.000
,167.000=360.000
,171.000=180.000
;
#STOPS:152.000=0.083
,152.250=0.083
,152.500=0.083
,152.750=0.083
,153.000=0.083
,153.250=0.083
,153.500=0.083
,153.750=0.083
,167.000=0.667
;
#DELAYS:;
#WARPS:;
#TIMESIGNATURES:0.000=4=4
;
#TICKCOUNTS:0.000=4
;
#COMBOS:0.000=1
;
#SPEEDS:0.000=1.000=0.000=0
;
#SCROLLS:0.000=1.000
;
#FAKES:;
#LABELS:0.000=Song Start
;
#DISPLAYBPM:74.000:180.000;
#NOTES:
0000
0000
0000
0000
,
0000
0000
0000
0000
,
0000
0000
0000
0000
,
0000
0000
0000
0000
,
0000
0000
0000
0000
,
0000
0000
0000
0000
,
0000
0000
0000
0000
,
0011
0001
0100
1010
,
1000
0100
0001
0100
,
0110
0100
0010
0001
,
1001
0000
0100
0010
,
0002
1000
0100
1000
,
0100
1000
0103
0010
,
2000
0001
0100
0001
,
0100
0001
3100
0010
,
0002
0010
0010
0010
,
0100
0100
0103
0010
,
2000
0100
0100
0100
,
0010
0010
3010
0100
,
0001
1000
0100
0000
0010
0000
0001
0000
,
1000
0100
0011
0101
,
0001
1000
0010
0000
0010
0000
1000
0000
,
1100
0101
1010
0011
,
1000
0001
0100
0000
0010
0000
0100
0000
,
1000
0100
0010
0010
,
1000
0001
0100
0000
0010
0000
1000
0000
,
0002
0023
0230
1300
,
0001
0001
0100
0101
,
1000
0000
1000
0000
0100
1000
0100
0000
,
0001
0010
0001
0110
,
1000
0000
0010
0000
1000
0100
0010
0000
,
0001
0010
1000
0100
,
0001
0010
0001
0000
1000
0100
1000
0000
,
1002
0010
1000
0103
,
2001
0100
0001
3010
,
1000
0100
0001
0100
,
1000
0100
0001
0100
,
1000
0100
0001
0100
,
1000
0100
0010
0001
0100
0000
1000
0000
,
0100
0001
0100
1000
,
0100
0001
0100
0010
,
1000
0200
0000
0300
,
0000
0000
0000
0011
,
0001
0100
1010
1000
,
0100
0001
0100
1001
,
0100
0010
0001
0120
,
1000
0001
1030
0220
,
0000
0000
0000
0000
,
0000
0000
0330
1001
,
0100
0000
0010
0000
0001
0000
0100
0010
,
0100
0010
0100
0020
,
0000
0000
0000
0230
,
0000
0302
0000
1003
,
0010
0000
0001
0000
0010
0000
1000
0100
,
1000
0000
0001
0100
0001
0000
1000
0000
,
0100
0001
0100
1010
,
0001
0010
1000
0011
,
0100
1000
0100
0110
,
0010
0000
0010
0100
0010
0000
1100
0000
,
0020
0001
0130
0101
,
0020
1000
0130
1010
,
0200
0001
1300
1001
,
0010
0000
1000
0001
0100
0000
0011
0000
,
2000
0100
3010
1100
,
0002
0100
0013
1001
,
0100
0000
0010
1000
0001
0000
0101
0000
,
1010
1100
1001
0000
;

//---------------dance-single - ----------------
#NOTEDATA:;
#CHARTNAME:;
#STEPSTYPE:dance-single;
#DESCRIPTION:;
#CHARTSTYLE:;
#DIFFICULTY:Medium;
#METER:12;
#RADARVALUES:0.591,0.590,0.281,0.167,0.026,354.000,27.000,16.000,0.000,0.000,0.000,0.000,0.000,0.591,0.590,0.281,0.167,0.026,354.000,27.000,16.000,0.000,0.000,0.000,0.000,0.000;
#CREDIT:;
#OFFSET:0.000;
#BPMS:0.000=180.000
,163.000=152.000
,164.000=130.000
,165.000=90.000
,166.000=74.000
,167.000=360.000
,171.000=180.000
;
#STOPS:152.000=0.083
,152.250=0.083
,152.500=0.083
,152.750=0.083
,153.000=0.083
,153.250=0.083
,153.500=0.083
,153.750=0.083
,167.000=0.667
;
#DELAYS:;
#WARPS:;
#TIMESIGNATURES:0.000=4=4
;
#TICKCOUNTS:0.000=4
;
#COMBOS:0.000=1
;
#SPEEDS:0.000=1.000=0.000=0
;
#SCROLLS:0.000=1.000
;
#FAKES:;
#LABELS:0.000=Song Start
;
#DISPLAYBPM:74.000:180.000;
#NOTES:
0000
0000
0000
0000
,
0000
0000
0000
0000
,
0000
0000
0000
0000
,
0000
0000
0000
0000
,
0000
0000
0000
0000
,
0000
0000
0000
0000
,
0000
0000
0000
0000
,
0001
0100
0001
1000
0100
1000
0001
0010
,
0001
1000
0010
1000
0100
0010
0100
0000
,
1000
0001
1000
0000
0001
1000
0001
0000
,
1100
0101
0200
0310
,
0001
1000
0010
0000
1000
0000
0001
0000
,
1000
0001
0100
0000
0001
0000
0011
0000
,
0100
1000
0001
0000
0100
0000
0001
0000
,
1000
0001
0100
0000
0001
0000
1001
0000
,
1000
0100
0010
0100
1000
0100
0010
0100
,
1000
0010
0100
0010
1000
0010
0100
0010
,
1000
0001
0010
0001
1000
0001
0010
0001
,
0100
0010
1000
0010
0100
0010
1000
0000
,
0001
0010
0200
0000
0310
0001
1000
0000
,
1000
0100
0020
0000
0031
0100
1000
0000
,
1000
0100
0020
0000
1030
0001
0100
0000
,
0001
0100
0001
1000
0001
0010
0001
0000
,
1000
0001
0020
0000
0130
1000
0001
0000
,
0001
1000
0020
0000
1030
0100
0001
0000
,
0001
0100
0020
0000
0031
1000
0001
0000
,
1020
0100
0001
0130
,
0001
0100
1000
0000
0100
0000
0001
0000
,
1000
0010
0001
0000
0010
0000
1000
0000
,
0001
0010
1000
0000
0010
0000
0001
0000
,
1000
0100
0001
0000
0100
0000
0010
0000
,
0001
0100
0010
0100
1000
0100
0010
0100
,
0001
0100
1000
0100
0001
0100
1000
0100
,
0010
0001
0010
0100
0010
1000
0010
0100
,
0010
0001
0010
1000
0010
0001
0010
1000
,
0001
0000
0100
0000
0010
1000
0100
0000
,
0010
0000
0101
0000
0010
0001
0100
0000
,
0001
0000
1010
0000
0100
0001
0010
0000
,
1100
0110
0011
1001
0100
0000
1010
0000
,
0100
0001
0010
0000
0100
0000
1001
0000
,
0010
1000
0001
0000
0100
0000
0010
0000
,
1000
0100
0010
0001
0100
0010
0200
0000
,
0000
0000
0000
0000
0300
0000
1010
0010
,
0000
0101
0100
0000
1100
1000
0000
0011
,
0001
0000
1000
0001
1000
0000
1001
0000
,
1000
1100
0000
0001
0101
0000
0011
0000
,
1010
0000
0100
0010
0100
0000
1000
0100
,
1000
0001
0100
0001
1000
0010
1000
0001
,
0010
0001
0100
0010
0100
0000
0010
1000
,
0001
0000
0010
0001
1000
0000
0101
0000
,
1100
0020
2030
3002
,
0000
0000
0000
0023
,
0000
0230
0000
1300
,
0100
0000
0010
0001
1000
0000
0001
0100
,
0100
0000
1000
0100
0100
0000
0010
0001
,
0100
0000
0010
1000
0001
0000
0100
0001
,
0010
0000
0100
1000
0001
0000
0020
0000
,
0001
0000
0230
0000
1000
0000
0310
0001
,
0010
0001
1000
0100
0010
0000
0001
0100
,
0010
0100
0001
1000
0100
0000
0010
0001
,
1000
0010
0100
1000
0100
0000
0010
1000
,
0010
0100
0001
1000
0100
0010
0100
1000
,
0100
0010
0001
1000
0010
0000
0100
0001
,
1000
0100
0010
0001
0100
0000
0100
0001
,
0100
0010
1000
0001
0100
0000
0010
1000
,
1010
0000
0000
0000
0000
0000
0010
0000
0000
0001
0000
0000
0011
0000
0000
0000
0000
0000
0001
0000
1000
0000
0001
0000
,
1000
0000
0000
0000
0001
0000
0000
0000
1000
0000
0000
0000
0100
0000
0000
0000
0000
0000
0000
0000
0000
0010
0000
0000
0000
0000
0000
0000
0000
0000
0110
0000
0000
0000
0000
0000
0000
0000
0000
0000
0000
0000
0000
0000
0000
0000
0000
0000
;

//---------------dance-single - ----------------
#NOTEDATA:;
#CHARTNAME:;
#STEPSTYPE:dance-single;
#DESCRIPTION:;
#CHARTSTYLE:;
#DIFFICULTY:Hard;
#METER:15;
#RADARVALUES:0.808,0.972,0.219,0.302,0.411,493.000,21.000,29.000,0.000,0.000,0.000,0.000,0.000,0.808,0.972,0.219,0.302,0.411,493.000,21.000,29.000,0.000,0.000,0.000,0.000,0.000;
#CREDIT:;
#OFFSET:0.000;
#BPMS:0.000=180.000
,163.000=152.000
,164.000=130.000
,165.000=90.000
,166.000=74.000
,167.000=360.000
,171.000=180.000
;
#STOPS:152.000=0.083
,152.250=0.083
,152.500=0.083
,152.750=0.083
,153.000=0.083
,153.250=0.083
,153.500=0.083
,153.750=0.083
,167.000=0.667
;
#DELAYS:;
#WARPS:;
#TIMESIGNATURES:0.000=4=4
;
#TICKCOUNTS:0.000=4
;
#COMBOS:0.000=1
;
#SPEEDS:0.000=1.000=0.000=0
;
#SCROLLS:0.000=1.000
;
#FAKES:;
#LABELS:0.000=Song Start
;
#DISPLAYBPM:74.000:180.000;
#NOTES:
0000
0000
0000
0000
,
0000
0000
0000
0000
,
0000
0000
0000
0000
,
0000
0000
0000
0000
,
0000
0000
0000
0000
,
0000
0000
0000
0000
,
0000
0000
0000
0000
,
1001
0010
0010
0001
0010
0010
1001
0100
,
0100
0000
1000
0000
0100
0000
0100
0000
0010
0001
0010
0000
0100
1000
0100
0000
,
0010
0001
0100
0010
1000
0100
0010
0001
,
1001
0110
0020
0230
,
0301
0010
0100
1000
0100
0010
0001
0100
,
0001
0000
1000
0000
0010
0000
0001
0000
0010
0000
0000
0100
0010
0000
1000
0000
,
0001
0100
0001
0010
1000
0010
0100
1000
,
1000
0100
0010
0001
0101
0000
1100
0000
,
0100
1000
0100
0000
1000
0000
0001
0000
0010
0001
0010
0000
0001
0000
1000
0000
,
0010
1000
0010
0000
1000
0000
0010
0000
0100
0001
0100
0000
0010
0000
1000
0000
,
0010
0100
0010
0000
0100
0000
0001
0000
1000
0010
1000
0000
0010
0000
0100
0000
,
0001
0100
0001
0000
0100
0010
0100
0000
0010
1000
0010
0000
1000
0001
1000
0000
,
0001
0100
0200
0000
0310
1000
0100
0010
,
0001
0100
0200
0000
0310
1000
0010
0001
,
0010
1000
2000
0000
3100
0001
0100
1000
,
0001
0010
0001
0000
0010
0100
0010
0000
0100
1000
0100
0000
1000
0001
1000
0000
,
0010
0100
0200
0000
0301
0010
0100
1000
,
0010
0100
0200
0000
1300
0100
0001
0100
,
1000
0100
0200
0000
0310
1000
0100
0010
,
0001
0010
0100
0010
0100
1000
0100
1000
0010
0100
0000
0000
,
0001
0100
1000
0100
0001
0001
0100
0010
,
1000
0100
0001
0100
1000
1000
0010
0000
,
0001
0010
1000
0010
0001
0001
0010
0100
,
0001
0010
1000
0010
0001
0001
0100
0000
,
0001
1000
0001
1000
0001
1000
0001
1000
0001
1000
0001
1000
0001
1000
0001
0000
,
1000
0000
0010
0000
0100
0010
0001
0000
0010
0000
1000
0000
0001
0010
0100
0000
,
0010
0100
0010
0100
0010
0100
0010
0100
0010
0100
0010
0100
0010
0100
0010
0000
,
0001
0000
0100
0000
0010
0100
1000
0000
0100
0000
0001
0000
1000
0100
0010
0000
,
0001
0100
0010
1000
0100
0001
0010
1000
,
0100
0010
0001
1000
0010
0001
0100
1000
,
0001
0010
0100
1000
0001
0010
1000
0100
,
0002
0203
2300
3200
0302
2003
3020
0032
0013
0000
1000
0000
0001
0000
0100
0000
,
0010
0001
0100
1000
0010
0100
0001
1000
,
0100
0001
0010
1000
0001
0010
0100
1000
,
0002
0203
0320
2030
3002
0103
0220
0000
,
0000
0000
0000
0000
0330
0000
0011
0001
,
0001
1010
1000
1000
0110
0010
0010
0110
,
0100
0100
0001
1000
0001
1000
1001
0000
,
0001
0001
0100
1000
1000
0100
0110
0000
,
0110
0000
0010
0100
0010
0000
0001
0010
,
0010
1000
0010
0010
0001
0100
0100
1000
,
0100
0000
0100
0000
0010
1000
0010
0000
0100
0001
0100
0000
0010
0000
1000
0000
,
0100
0010
0001
0100
0010
1000
1001
0000
,
0110
0020
0032
2000
,
0000
0000
0003
0200
,
3000
0000
0020
0000
0300
0000
0031
0100
,
0010
1000
0001
0010
0100
0000
0011
0001
,
0101
0000
1010
1000
1100
0000
0100
0001
,
1000
0010
1000
0001
0100
0001
0010
0100
,
0010
0001
0100
1000
0100
0010
0200
0000
,
1000
0000
0000
0000
0010
0000
0000
0000
0301
0000
0000
0000
1000
0100
1000
0000
,
0010
0100
0010
0000
0100
0010
0100
0000
0001
0010
0001
0000
0100
0000
0001
0000
,
0100
0010
0000
0010
1000
0100
1000
0000
0001
0000
0010
0000
0100
0000
0010
0000
,
0100
1000
0000
1000
0001
0010
0001
0000
0100
0000
0010
0000
1000
0000
0001
0000
,
0100
0001
1000
0000
0001
0000
0100
0000
0010
1000
0001
0000
0010
0000
0001
1000
,
0001
1000
0000
0000
0010
0000
1000
0001
1000
0001
0000
0000
0100
0000
0010
1000
,
0100
0000
0010
0000
0001
0000
0100
0000
0001
0100
0001
0000
1000
0000
0100
0000
,
1000
0100
1000
0000
0001
0000
0010
0001
0010
0001
0000
0001
0100
0000
0010
1000
,
0010
0000
0000
1000
0000
0000
0000
0000
0000
1000
0000
0000
0100
0000
0000
0010
0000
0000
0001
0000
0000
0000
0000
0000
0100
0000
0000
0010
0000
0000
1000
0000
0000
0000
0000
0000
0001
0000
0000
0000
0001
0000
0000
0000
0010
0000
0000
0000
,
0100
0000
0000
0000
0100
0000
0000
0000
1000
0000
0000
0000
0001
0000
0000
0000
0000
0000
0000
0000
0000
1000
0000
0000
0000
0000
0000
0000
0000
0000
1001
0000
0000
0000
0000
0000
0000
0000
0000
0000
0000
0000
0000
0000
0000
0000
0000
0000
;

//---------------dance-single - ----------------
#NOTEDATA:;
#CHARTNAME:;
#STEPSTYPE:dance-single;
#DESCRIPTION:;
#CHARTSTYLE:;
#DIFFICULTY:Challenge;
#METER:18;
#RADARVALUES:1.000,1.000,0.375,0.469,1.000,622.000,36.000,45.000,0.000,0.000,0.000,0.000,0.000,1.000,1.000,0.375,0.469,1.000,622.000,36.000,45.000,0.000,0.000,0.000,0.000,0.000;
#CREDIT:;
#OFFSET:0.000;
#BPMS:0.000=180.000
,163.000=152.000
,164.000=130.000
,165.000=90.000
,166.000=74.000
,167.000=360.000
,171.000=180.000
;
#STOPS:152.000=0.083
,152.250=0.083
,152.500=0.083
,152.750=0.083
,153.000=0.083
,153.250=0.083
,153.500=0.083
,153.750=0.083
,167.000=0.667
;
#DELAYS:;
#WARPS:;
#TIMESIGNATURES:0.000=4=4
;
#TICKCOUNTS:0.000=4
;
#COMBOS:0.000=1
;
#SPEEDS:0.000=1.000=0.000=0
;
#SCROLLS:0.000=1.000
;
#FAKES:;
#LABELS:0.000=Song Start
;
#DISPLAYBPM:74.000:180.000;
#NOTES:
0000
0000
0000
0000
,
0000
0000
0000
0000
,
0000
0000
0000
0000
,
0000
0000
0000
0000
,
0000
0000
0000
0000
,
0000
0000
0000
0000
,
0000
0000
0000
0000
,
0010
0001
0010
0000
0100
1000
0100
1000
0001
0000
0100
0000
0010
1000
0010
0000
,
0100
0001
1000
0100
1000
0000
0010
0000
0100
0001
0100
0000
0010
1000
0010
0000
,
1000
0100
0010
0000
0100
0010
0001
0000
0010
0001
1000
0000
0001
1000
0010
0000
,
0100
0001
1000
0000
0001
1000
0010
0000
0200
0000
0000
0000
0320
0000
0000
0000
,
1030
0000
0100
0000
0010
0001
0100
0000
0001
0000
1000
0000
0010
0100
0010
0000
,
1000
0000
0001
0000
0100
0010
1000
0010
0100
0000
0000
0100
0001
0000
0010
0000
,
0001
0000
0100
0000
0010
1000
0010
0000
0100
0000
0001
0000
1000
0001
0100
0000
,
0001
0000
0010
0000
0100
0010
0100
0000
2200
0000
3000
0000
0002
0000
0303
0000
,
1000
0100
1000
0000
1000
0001
1000
0000
1000
0010
1000
0000
1000
0100
1000
0000
,
0001
0100
0001
0000
0001
1000
0001
0000
0001
0010
0001
0000
0001
0100
0001
0000
,
0010
0001
0010
0000
0010
0100
0010
0000
0010
1000
0010
0000
0010
0001
0010
0000
,
0100
1000
0100
0000
0100
0010
0100
0000
0100
0001
0100
0000
0100
1000
0100
0000
,
1000
0000
0010
0000
0021
0000
0000
0130
0000
0010
1000
0000
0100
0000
0010
0000
,
0001
0000
0010
0000
1020
0000
0000
0130
1000
0100
0010
0100
0001
0100
0010
0001
,
0100
0000
0010
0000
1020
0000
0000
0130
0000
0010
1000
0000
0100
0000
0010
0000
,
0001
0100
0010
1000
0100
0010
0001
0100
0010
1000
0010
0100
0001
0010
0001
1000
,
0100
0000
0010
0000
1020
0000
0000
0130
0000
0010
0001
0000
0100
0000
0100
0000
,
0001
0000
0010
0000
0021
0000
0000
0130
1000
0100
0010
0001
0010
0100
1000
0010
,
1000
0000
0010
0000
0021
0000
0000
0130
0000
0010
0100
0000
0001
0000
1000
0000
,
0001
0001
0100
1000
1000
0100
0001
0010
0100
1001
0000
0000
,
1000
0001
0100
0000
1000
0001
0010
0000
1000
0010
0100
0000
1000
0100
0001
0000
,
0001
0100
0010
0000
0001
1000
0010
0000
0001
1000
0100
0000
0001
0100
1000
0000
,
0100
0010
0001
0000
0100
1000
0010
0000
0100
0010
0001
0000
0100
1000
0001
0000
,
0010
1000
0001
0000
0010
0100
1000
0000
0010
1000
0100
0000
0010
0100
0001
0000
,
1000
0001
0100
0010
1000
0001
0010
0100
1000
0010
0100
0001
1000
0100
0010
0100
,
0002
0100
0013
0000
0002
1000
0013
0000
0002
1000
0103
0000
0002
0100
1003
0000
,
0100
0010
0001
1000
0100
1000
0010
1000
0100
0010
0001
0010
0100
1000
0001
0100
,
0020
1000
0031
0000
0020
0100
0031
0000
0020
1000
0130
1000
0020
0100
0031
0000
,
1000
0000
0010
0100
0000
0010
0001
0000
1000
0000
0100
0000
0001
0000
0100
0000
,
1000
0000
0100
0010
0000
0001
0010
0000
1000
0000
0010
0000
0001
0000
0010
0000
,
1000
0000
0001
1000
0000
0100
0010
0000
0001
0000
0100
0000
1000
0000
0100
0000
,
0002
0003
0020
0030
2000
3000
0200
0300
0020
0030
0002
0003
0200
0300
2000
3000
0010
0000
0000
0000
0001
0000
1000
0000
0000
0000
1000
0000
0010
0000
0000
0000
,
1000
0000
0100
0000
0001
0000
0100
0000
1000
0000
0001
0100
0000
0100
0010
0000
,
0001
0000
0010
0000
1000
0000
0010
0000
0001
0000
0010
1000
0000
0001
0100
0000
,
2000
3100
0020
0031
0200
0310
0002
0003
2200
3300
0202
0303
0220
0000
0000
0000
,
0000
0000
0000
0000
0330
0000
1100
0010
,
0010
0101
0010
0010
1100
0010
0001
0101
,
0010
1000
1010
0100
0011
0100
1001
0000
,
1100
1000
0010
0101
0001
0010
0110
0000
,
0110
0000
0000
0000
1000
0000
0001
0000
1000
0000
0001
0000
0010
0001
0010
0000
,
0100
1000
0100
1000
0001
0000
0100
0000
0010
1000
0010
0000
0100
0001
1000
0100
,
1000
0000
0010
0000
0100
0001
0100
0000
0010
1000
0010
0000
0010
1000
0100
0000
,
1000
0100
0001
0000
0100
1000
0010
0000
1000
0010
0001
0000
0010
1000
0100
0000
,
0010
0001
0100
0000
2000
0020
3030
0000
0002
0200
0303
0000
2002
0000
0000
0000
,
0000
0000
3000
0200
,
0003
0000
0020
0000
0300
0000
1030
0100
,
0010
0001
1000
0000
0010
0000
0100
0000
0001
1000
0010
0000
0101
0000
0110
0000
,
1100
0000
1100
0110
0101
0000
0010
1000
,
0001
0010
0100
0000
0001
0000
0100
0000
0010
0001
0100
0000
0010
0000
0100
0000
,
0010
1000
0100
0000
1000
0000
0010
0000
1000
0100
0010
0000
0100
0000
0000
0000
,
1001
0000
0000
0000
0100
0000
0000
0000
1001
0000
0000
0000
0010
1000
0010
0000
,
0010
0100
0010
0000
0010
0001
0010
0100
0010
1000
0010
0000
0100
0000
0010
0100
,
0010
1000
0000
0001
0100
1000
0100
0010
1000
0001
0100
0000
0010
0000
1000
0100
,
0010
0100
0000
1000
0001
0100
0010
0100
1000
0100
0001
0000
1000
0100
0001
0100
,
0010
0001
0010
0100
1000
0001
0100
0010
0001
0010
1000
0001
0100
0000
0001
1000
,
0100
0010
0000
0010
0100
0000
1000
0001
0100
0010
0000
0010
1000
0001
0100
1000
,
0100
0010
1000
0001
0100
1000
0100
0010
1000
0100
0010
0001
1000
0100
0001
0100
,
0010
0001
1000
0100
0001
0000
0100
1000
0001
1000
0000
1000
0001
0000
0001
0010
,
0100
0000
0000
1000
0000
0000
0000
0000
0000
1000
0000
0000
0001
0000
0000
0010
0000
0000
1000
0000
0000
0001
0000
0000
0100
0000
0000
1000
0000
0000
0010
0000
0000
0100
0000
0000
0001
0000
0000
0000
0010
0000
0000
0000
0011
0000
0000
0000
,
0100
0000
0000
0000
1000
0000
0000
0000
1100
0000
0000
0000
1001
0000
0000
0000
0000
0000
0000
0000
0000
0110
0000
0000
0000
0000
0000
0000
0000
0000
1001
0000
0000
0000
0000
0000
0000
0000
0000
0000
0000
0000
0000
0000
0000
0000
0000
0000
;

//---------------dance-double - ----------------
#NOTEDATA:;
#CHARTNAME:;
#STEPSTYPE:dance-double;
#DESCRIPTION:;
#CHARTSTYLE:;
#DIFFICULTY:Easy;
#METER:8;
#RADARVALUES:0.433,0.450,0.354,0.177,0.000,240.000,34.000,17.000,0.000,0.000,0.000,0.000,0.000,0.433,0.450,0.354,0.177,0.000,240.000,34.000,17.000,0.000,0.000,0.000,0.000,0.000;
#CREDIT:;
#OFFSET:0.000;
#BPMS:0.000=180.000
,163.000=152.000
,164.000=130.000
,165.000=90.000
,166.000=74.000
,167.000=360.000
,171.000=180.000
;
#STOPS:152.000=0.083
,152.250=0.083
,152.500=0.083
,152.750=0.083
,153.000=0.083
,153.250=0.083
,153.500=0.083
,153.750=0.083
,167.000=0.667
;
#DELAYS:;
#WARPS:;
#TIMESIGNATURES:0.000=4=4
;
#TICKCOUNTS:0.000=4
;
#COMBOS:0.000=1
;
#SPEEDS:0.000=1.000=0.000=0
;
#SCROLLS:0.000=1.000
;
#FAKES:;
#LABELS:0.000=Song Start
;
#DISPLAYBPM:74.000:180.000;
#NOTES:
00000000
00000000
00000000
00000000
,
00000000
00000000
00000000
00000000
,
00000000
00000000
00000000
00000000
,
00000000
00000000
00000000
00000000
,
00000000
00000000
00000000
00000000
,
00000000
00000000
00000000
00000000
,
00000000
00000000
00000000
00000000
,
00011000
00000100
00000010
00000100
,
00001001
00000010
00000100
00001000
,
00011000
00100000
01000000
00100000
,
10010000
00000000
01000000
00100000
,
00020000
00100000
10000000
00100000
,
01000000
00100000
00031000
00000100
,
00002000
00000010
00000001
00000010
,
00000100
00000010
00013000
01000000
,
00010000
01010000
00010000
10010000
,
00010000
00110000
00100000
00010000
,
00001000
00001100
00001000
00001001
,
00001000
00001010
00000100
00001000
,
00000010
00000100
00000010
00000000
00000001
00000000
00000100
00000000
,
00001000
00010000
00011000
00011000
,
00100000
01000000
00100000
00000000
10000000
00000000
01000000
00000000
,
00110000
11000000
01010000
00101000
,
00010000
00001000
00010000
00000000
00000100
00000000
00000010
00000000
,
00000001
00000100
00001001
00001001
,
00000010
00000100
00000010
00000000
00000100
00000000
00000001
00000000
,
00000200
00002300
00023000
02030000
,
03100000
00010000
10000000
00100000
,
00010000
00001000
00010000
00000100
,
00001000
00000010
00000001
00000010
,
00000100
00000001
00000100
00001000
,
00010000
00001000
00010000
00001000
,
01000000
00010000
01000000
00010000
01000000
00000000
00000000
00000000
,
00001000
00010000
00001000
00010000
,
00000010
00001000
00000010
00001000
00000010
00000000
00000000
00000000
,
00001000
00000010
00000001
00000010
,
00001000
00000001
00000100
00001000
,
00010000
01000000
10000000
01000000
,
00020000
00030000
00002000
00003000
00000100
00000000
00000001
00000000
,
00000100
00001000
00010000
01000000
,
10000000
01000000
00010000
00001000
,
00000100
00000010
00000002
00000003
,
00000000
00000000
00000000
00000001
,
00000100
00000000
00000100
00000000
00000010
00000000
00000000
00001000
,
00001000
00000100
00000010
00000001
,
00000100
00001000
00010000
01000000
,
00100000
01000000
00010000
00011000
,
00000100
00000010
00000100
00001001
,
00000010
00000100
00001000
00011000
,
00100000
01000000
00100000
10010000
,
00000000
01000000
00100000
02000000
,
00000000
00000000
00000000
03002000
,
00000000
00023000
00000000
00031000
,
00000100
00000000
00000001
00000000
00001000
00000000
00000001
00000010
,
00000001
00000000
00001000
00000010
00001000
00000000
00000001
00000000
,
00000010
00000100
00001000
00010100
,
00001000
00010000
00100000
01010000
,
00100000
01000000
10000000
10010000
,
10010000
00000000
10000000
01000000
00100000
00000000
00110000
00000000
,
00020000
00100000
01030000
00001000
,
00020000
00001000
00030010
00000100
,
00000020
00000000
00001000
00000000
00000130
00000000
00000001
00001000
,
00000001
00000000
00000001
00000100
00001000
00000000
00011000
00000000
,
00002000
00100000
00013000
00110000
,
20000000
00010000
31000000
10100000
,
01000000
00000000
00100000
00010000
00100000
00000000
00101000
00000000
,
00011000
00010100
00001100
00000000
;

//---------------dance-double - ----------------
#NOTEDATA:;
#CHARTNAME:;
#STEPSTYPE:dance-double;
#DESCRIPTION:;
#CHARTSTYLE:;
#DIFFICULTY:Medium;
#METER:11;
#RADARVALUES:0.549,0.555,0.240,0.104,0.026,336.000,23.000,10.000,0.000,0.000,0.000,0.000,0.000,0.549,0.555,0.240,0.104,0.026,336.000,23.000,10.000,0.000,0.000,0.000,0.000,0.000;
#CREDIT:;
#OFFSET:0.000;
#BPMS:0.000=180.000
,163.000=152.000
,164.000=130.000
,165.000=90.000
,166.000=74.000
,167.000=360.000
,171.000=180.000
;
#STOPS:152.000=0.083
,152.250=0.083
,152.500=0.083
,152.750=0.083
,153.000=0.083
,153.250=0.083
,153.500=0.083
,153.750=0.083
,167.000=0.667
;
#DELAYS:;
#WARPS:;
#TIMESIGNATURES:0.000=4=4
;
#TICKCOUNTS:0.000=4
;
#COMBOS:0.000=1
;
#SPEEDS:0.000=1.000=0.000=0
;
#SCROLLS:0.000=1.000
;
#FAKES:;
#LABELS:0.000=Song Start
;
#DISPLAYBPM:74.000:180.000;
#NOTES:
00000000
00000000
00000000
00000000
,
00000000
00000000
00000000
00000000
,
00000000
00000000
00000000
00000000
,
00000000
00000000
00000000
00000000
,
00000000
00000000
00000000
00000000
,
00000000
00000000
00000000
00000000
,
00000000
00000000
00000000
00000000
,
00000010
00001000
00000010
00010000
00000100
00010000
00001000
00100000
,
00001000
01000000
00010000
01000000
00001000
00100000
00001000
00000000
,
00010000
00001000
00000100
00000000
00000001
00000100
00001000
00000000
,
00010000
00011000
02000000
03200000
,
10300000
01000000
00100000
00000000
10000000
01000000
00100000
00000000
,
10000000
00010000
00100000
00001000
,
00010000
00001000
00000100
00000000
00010000
00001000
00000100
00000000
,
00000001
00000010
00000100
00001001
,
00000001
00000100
00000001
00000000
00001000
00000001
00001000
00000000
,
00000010
00001000
00000010
00000000
00010000
00000010
00010000
00000000
,
00001000
00010000
00001000
00000000
00100000
00001000
00100000
00000000
,
00010000
00100000
00010000
00000000
10000000
00010000
10000000
00000000
,
01000000
00100000
01000000
00000000
00100000
00000000
01000000
00000000
,
10000000
00100000
00010000
00000000
00001000
00010000
00001000
00010000
,
00001000
00000100
00000010
00000000
00000100
00001000
00010000
00000000
,
00010000
00001000
00000100
00000000
00000100
00000010
00000001
00000000
,
00001000
00000010
00000100
00000000
00000010
00001000
00000001
00000000
,
00000001
00000100
00001000
00000000
00010000
00001000
00010000
00001000
,
00010000
01000000
00100000
00000000
01000000
00010000
00001000
00000000
,
00011000
00001010
00011000
00110000
,
00010000
01000000
10000000
00000000
01000000
00000000
00100000
00000000
,
10000000
01000000
00010000
00000000
00001000
00000000
00010000
00000000
,
00001000
00000100
00000001
00000000
00000100
00000000
00000010
00000000
,
00001000
00000010
00000001
00000000
00000010
00000000
00000100
00000000
,
00000001
00000100
00000001
00000100
00001000
00000100
00001000
00000100
,
00000001
00000100
00001000
00000000
00000001
00000100
00001000
00000000
,
00010000
01000000
00010000
01000000
10000000
01000000
10000000
01000000
,
00010000
01000000
10000000
00000000
00010000
01000000
10000000
00000000
,
00010000
00000000
10010000
00000000
10000000
01000000
00100000
00000000
,
00010000
00000000
01010000
00000000
01000000
00100000
00010000
00000000
,
00001000
00000000
00011000
00000000
00010000
00001000
00000100
00000000
,
00000001
00000010
00001000
00010000
00000010
00000000
00000101
00000000
,
00000001
00000010
00000100
00000000
00001000
00000000
00001010
00000000
,
00000010
00000100
00001000
00000000
00010000
00000000
00011000
00000000
,
00001000
00010000
00100000
00000000
01000000
00000000
20000000
00000000
,
00000000
00000000
00000000
00000000
30000000
00000000
01000000
01000000
,
00000000
00100000
00100000
00000000
00010000
00010000
00000000
10000000
,
10000000
00000000
00010000
10000000
00010000
00000000
10010000
00000000
,
00100000
01100000
00000000
00010000
00011000
00000000
00010100
00000000
,
00001100
00000000
00000010
00000001
00000100
00000000
00000010
00001000
,
00000010
00010000
00000100
00010000
00001000
00100000
00001000
01000000
,
00010000
01000000
00001000
00100000
00001000
00000000
00010000
00001000
,
00000100
00000000
00000001
00000100
00001000
00000000
00010000
00000000
,
00011000
02000000
03200000
20300000
,
00000000
00000000
00000000
32000000
,
00000000
03020000
00000000
00031000
,
00011000
00000000
00001000
00000100
00000001
00000000
00000010
00000100
,
00000100
00000000
00001000
00000001
00000001
00000000
00000010
00000000
,
00001100
00000000
00001000
00000100
00010000
00000000
00001000
00000000
,
00101000
00000000
00100000
00010000
10000000
00000000
02000000
00000000
,
00010000
00000000
03200000
00000000
00010000
00000000
01300000
10000000
,
01000000
10000000
00010000
00100000
00010000
00000000
00100000
00001000
,
00010000
00000000
00000100
00001000
00000010
00000000
00000100
00000001
,
00001000
00000000
00000010
00000100
00001000
00000000
00010000
00001000
,
00010000
00000100
00001000
00000100
00010000
00001000
00010000
00001000
,
00100000
00000000
00001000
00010000
01000000
00000000
00100000
00010000
,
10000000
00010000
00100000
00001000
00010000
00000000
00001000
00010000
,
00001000
00100000
00001000
00010000
00001000
00000000
00010000
00000100
,
00001100
00000000
00000000
00000000
00000000
00000000
00000010
00000000
00000000
00001000
00000000
00000000
00001100
00000000
00000000
00000000
00000000
00000000
00000010
00000000
00000001
00000000
00000010
00000000
,
00000001
00000000
00000000
00000000
00000010
00000000
00000000
00000000
00000001
00000000
00000000
00000000
00000100
00000000
00000000
00000000
00000000
00000000
00000000
00000000
00000000
00000100
00000000
00000000
00000000
00000000
00000000
00000000
00000000
00000000
00000010
00000000
00000000
00000000
00000000
00000000
00000000
00000000
00000000
00000000
00000000
00000000
00000000
00000000
00000000
00000000
00000000
00000000
;

//---------------dance-double - ----------------
#NOTEDATA:;
#CHARTNAME:;
#STEPSTYPE:dance-double;
#DESCRIPTION:;
#CHARTSTYLE:;
#DIFFICULTY:Hard;
#METER:14;
#RADARVALUES:0.792,0.972,0.323,0.292,0.359,473.000,31.000,28.000,0.000,0.000,0.000,0.000,0.000,0.792,0.972,0.323,0.292,0.359,473.000,31.000,28.000,0.000,0.000,0.000,0.000,0.000;
#CREDIT:;
#OFFSET:0.000;
#BPMS:0.000=180.000
,163.000=152.000
,164.000=130.000
,165.000=90.000
,166.000=74.000
,167.000=360.000
,171.000=180.000
;
#STOPS:152.000=0.083
,152.250=0.083
,152.500=0.083
,152.750=0.083
,153.000=0.083
,153.250=0.083
,153.500=0.083
,153.750=0.083
,167.000=0.667
;
#DELAYS:;
#WARPS:;
#TIMESIGNATURES:0.000=4=4
;
#TICKCOUNTS:0.000=4
;
#COMBOS:0.000=1
;
#SPEEDS:0.000=1.000=0.000=0
;
#SCROLLS:0.000=1.000
;
#FAKES:;
#LABELS:0.000=Song Start
;
#DISPLAYBPM:74.000:180.000;
#NOTES:
00000000
00000000
00000000
00000000
,
00000000
00000000
00000000
00000000
,
00000000
00000000
00000000
00000000
,
00000000
00000000
00000000
00000000
,
00000000
00000000
00000000
00000000
,
00000000
00000000
00000000
00000000
,
00000000
00000000
00000000
00000000
,
00011000
00010000
00001000
00000100
00000010
00000100
00000110
00000001
,
00000100
00000000
00000010
00000000
00000100
00000000
00001000
00000000
00010000
00001000
00010000
00000000
00001000
00010000
00001000
00000000
,
00011000
00001000
00010000
01000000
00100000
01000000
01100000
10000000
,
10010000
10010000
02000000
03200000
,
00310000
10000000
01000000
00100000
00010000
01000000
00100000
00010000
,
00001000
00000000
00010000
00000000
00001000
00000000
00000100
00000000
00000010
00000000
00000000
00000010
00001000
00000000
00000001
00000000
,
00000100
00000001
00000010
00000100
00001000
00000010
00000100
00001000
,
00010000
00001000
00010000
00100000
02000000
00000000
03200000
00000000
,
10300000
01000000
10000000
00000000
01000000
00000000
00100000
00000000
00010000
00100000
00010000
00000000
00100000
00000000
01000000
00000000
,
10000000
00010000
10000000
00000000
00010000
00000000
00100000
00000000
00001000
00010000
00001000
00000000
00010000
00000000
00000100
00000000
,
00001000
00000010
00001000
00000000
00000010
00000000
00000100
00000000
00000001
00001000
00000001
00000000
00001000
00000000
00000010
00000000
,
00000100
00000001
00000100
00000000
00000001
00000000
00001000
00000000
00000100
00010000
00000100
00000000
00010000
00000000
00001000
00000000
,
00100000
00010000
00200000
00000000
01300000
10000000
00100000
00010000
,
00001000
00010000
00002000
00000000
00003010
00000001
00000010
00001000
,
00010000
00001000
00000200
00000000
00000310
00000100
00000001
00000010
,
00000100
00000100
00010000
00010000
00001000
00001000
00100000
00100000
,
00010000
01000000
00200000
00000000
01300000
10000000
01000000
00010000
,
00100000
00001000
00020000
00000000
00030100
00000001
00000100
00001000
,
00000001
00001000
00000020
00000000
00000130
00000001
00001001
00000000
,
00000010
00001000
00000010
00010000
00000100
00010000
00001000
00100000
00001000
00010000
00000000
00000000
,
00001000
00010000
01000000
10000000
00100000
10000000
01000000
00010000
,
00001000
00000100
00000001
00000010
00001000
00000010
00000001
00000100
,
00001000
00010000
00100000
10000000
01000000
10000000
00100000
00010000
,
00001000
00000010
00000001
00000100
00001000
00000100
00000001
00000010
,
00000001
00001000
00000001
00001000
00000001
00001000
00000001
00001000
00000001
00001000
00000001
00001000
00000001
00001000
00000001
00000000
,
00000100
00000010
00001000
00000100
00010000
00001000
00100000
00010000
,
10000000
00010000
10000000
00010000
10000000
00010000
10000000
00010000
10000000
00010000
10000000
00010000
10000000
00010000
10000000
00000000
,
00100000
01000000
00010000
00100000
00001000
00010000
00000100
00001000
,
00000001
00000000
00000010
00000000
00000000
00000110
00000000
00000000
00001000
00000000
00000001
00000000
00000100
00000000
00001000
00000000
,
00010000
00000000
00001000
00000000
00000000
00101000
00000000
00000000
00001000
00000000
00010000
00000000
01000000
00000000
10000000
00000000
,
00010000
00000000
10000000
00000000
00000000
01100000
00000000
00000000
10000000
00000000
01000000
00000000
00010000
00000000
00001000
00000000
,
00000200
00000302
00000023
00002030
00023000
00230000
20300000
30020000
10030000
00000000
00100000
00000000
00000000
01100000
00000000
00000000
,
00010000
00000000
10000000
00000000
01000000
00000000
00010000
00000000
00001000
00000000
00010000
00000000
00000000
00010010
00000000
00000000
,
00010000
00000000
00001000
00000000
00000100
00000000
00000001
00000000
00001000
00000000
00000001
00000000
00000000
00000110
00000000
00000000
,
00000002
00000203
00002300
00023000
02030000
13000000
22000000
00000000
,
00000000
00000000
00000000
00000000
33000000
00000000
10000000
00100000
,
00100000
01000000
00010000
00010000
00100000
00001000
00001000
00010000
,
00000100
00000100
00001000
00000010
00000100
00000001
00001001
00000000
,
00000001
00000001
00000100
00001000
00001000
00000100
00000110
00000000
,
00001001
00000000
00000100
00001000
00010000
00000000
00011000
00001000
,
00010000
01000000
00100000
01000000
01100000
10000000
01000000
00100000
,
01000000
00000000
00010000
00000000
00001000
00010000
00001000
00000000
00010000
00001000
00010000
00000000
00011000
00000000
00010000
00000000
,
00001000
00000100
00000010
00000100
00000110
00000001
00001001
00000000
,
00001001
00000011
00001100
00020010
,
00000000
00000000
00000000
00032000
,
00000000
00000000
00203000
00000000
00000000
00000000
01300000
10000000
,
01000000
00100000
00010000
01000000
00010000
00100000
00001000
00001000
,
00101000
00000000
00010000
00010000
00010100
00000000
00001000
00000010
,
00000001
00000010
00000100
00000001
00000010
00001000
00010000
00001000
,
00100000
00010000
01000000
10000000
01000000
00100000
01000000
00000000
,
10100000
00000000
00000000
00000000
01000000
00000000
00000000
00000000
00101000
00000000
00000000
00000000
00001000
00010000
00001000
00000000
,
00010000
00000000
00000100
00000000
00001000
00000001
00001000
00000000
00000010
00000000
00000100
00000000
00000001
00000000
00001000
00000000
,
00000100
00000010
00000000
00000010
00000100
00001000
00000100
00000000
00010000
00000000
00001000
00000000
00100000
00000000
00001000
00000000
,
01000000
00010000
00000000
00010000
00100000
01000000
00100000
00000000
00010000
00000000
10000000
00000000
00100000
00000000
00010000
00000000
,
00100000
01000000
00100000
00000000
10000000
00000000
00010000
00000000
00100000
00000000
00100000
00000000
00001000
00000000
00010000
00001000
,
00010000
00001000
00000000
00000000
00010000
00000000
00000010
00001000
00000010
00001000
00000000
00000000
00000001
00000000
00000010
00000001
,
00000010
00000000
00000001
00000000
00000100
00000000
00000010
00000000
00001000
00000100
00001000
00000000
00000001
00000000
00000100
00000000
,
00001000
00000000
00010000
00000000
00100000
00000000
01000000
00010000
01000000
00010000
00000000
00010000
10000000
00000000
00010000
00100000
,
00010000
00000000
00000000
00100000
00000000
00000000
00000000
00000000
00000000
00100000
00000000
00000000
00010000
00000000
00000000
00000000
00000000
00000000
01000000
00000000
00000000
00000000
00000000
00000000
00100000
00000000
00000000
00000000
00000000
00000000
10000000
00000000
00000000
00000000
00000000
00000000
00010000
00000000
00000000
00000000
10000000
00000000
00000000
00000000
01000000
00000000
00000000
00000000
,
00010000
00000000
00000000
00000000
00001000
00000000
00000000
00000000
00000100
00000000
00000000
00000000
00000001
00000000
00000000
00000000
00000000
00000000
00000000
00000000
00000000
00001000
00000000
00000000
00000000
00000000
00000000
00000000
00000000
00000000
00001001
00000000
00000000
00000000
00000000
00000000
00000000
00000000
00000000
00000000
00000000
00000000
00000000
00000000
00000000
00000000
00000000
00000000
;

//---------------dance-single - ----------------
#NOTEDATA:;
#CHARTNAME:;
#STEPSTYPE:dance-single;
#DESCRIPTION:;
#CHARTSTYLE:;
#DIFFICULTY:Edit;
#METER:18;
#RADARVALUES:1.000,1.000,0.500,0.177,1.000,625.000,48.000,17.000,0.000,0.000,0.000,0.000,0.000,1.000,1.000,0.500,0.177,1.000,625.000,48.000,17.000,0.000,0.000,0.000,0.000,0.000;
#CREDIT:;
#OFFSET:0.000;
#BPMS:0.000=180.000
,163.000=152.000
,164.000=130.000
,165.000=90.000
,166.000=74.000
,167.000=360.000
,171.000=180.000
;
#STOPS:152.000=0.083
,152.250=0.083
,152.500=0.083
,152.750=0.083
,153.000=0.083
,153.250=0.083
,153.500=0.083
,153.750=0.083
,167.000=0.667
;
#DELAYS:;
#WARPS:;
#TIMESIGNATURES:0.000=4=4
;
#TICKCOUNTS:0.000=4
;
#COMBOS:0.000=1
;
#SPEEDS:0.000=1.000=0.000=0
;
#SCROLLS:0.000=1.000
;
#FAKES:;
#LABELS:0.000=Song Start
;
#DISPLAYBPM:74.000:180.000;
#NOTES:
// measure 0
0000
0000
0000
0000
,  // measure 1
0000
0000
0000
0000
,  // measure 2
0000
0000
0000
0000
,  // measure 3
0000
0000
0000
0000
,  // measure 4
0000
0000
0000
0000
,  // measure 5
0000
0000
0000
0000
,  // measure 6
0000
0000
0000
0000
,  // measure 7
0001
0100
0010
0000
0010
0000
1000
0100
0010
0000
0010
0000
1000
0010
0100
0000
,  // measure 8
0100
0000
0001
0010
0100
0000
0100
0000
0001
0100
0010
0000
1000
0100
0010
0000
,  // measure 9
0101
0001
1000
0010
1010
0010
0010
0001
,  // measure 10
1001
0000
0000
0000
0110
0000
0000
0000
0001
0100
0000
0000
1000
0100
0000
0000
,  // measure 11
1001
0000
0100
0000
1000
0000
0100
0000
0010
1000
0100
0000
0001
0000
0010
0000
,  // measure 12
1000
0000
0010
0000
0001
0000
0100
0000
0110
0000
0001
0100
0000
1000
0100
0000
,  // measure 13
1001
0100
1000
0010
0001
1000
0100
0001
,  // measure 14
1000
0100
0010
0001
0101
0000
1001
0000
,  // measure 15
0100
1000
0100
0000
0001
0010
0001
0000
0100
0010
0100
0000
0001
0100
0001
0000
,  // measure 16
0100
1000
0100
1000
0010
0100
0001
0000
0100
0001
0100
0001
0010
0100
1000
0000
,  // measure 17
0001
0010
0100
1000
0010
0100
1000
0100
0001
1000
0100
0010
0001
1000
0100
0000
,  // measure 18
0001
0100
0010
0100
0010
1000
0100
0010
0100
0010
0001
0100
0010
0100
0010
0000
,  // measure 19
1000
0000
0100
0000
0110
0000
0000
0110
0000
0001
0010
0000
1100
0000
0110
0000
,  // measure 20
0001
0000
0100
0000
0110
0000
0000
0000
0001
0100
0010
1000
0001
0100
0010
1000
,  // measure 21
0001
0000
1000
0000
1001
0000
0000
0110
0000
0010
0001
0000
0110
0000
1010
0000
,  // measure 22
0100
0010
0100
0001
0010
0100
1000
0001
0010
1000
0010
0001
0100
0010
1000
0001
,  // measure 23
0100
0000
0010
0000
0110
0000
0000
1001
0000
0001
0100
0000
0101
0000
1100
0000
,  // measure 24
1000
0000
0010
0000
0011
0000
0000
0000
1000
0010
0100
0001
1000
0010
0100
0001
,  // measure 25
1000
0000
0100
0000
0110
0000
0000
1001
0000
0001
0010
0000
1100
0000
0110
0000
,  // measure 26
0001
0001
0010
0100
0100
1000
0010
0100
0010
0110
0000
0000
,  // measure 27
0001
0010
0100
0000
0001
0010
1000
0000
0010
0001
1000
0000
0010
1000
0100
0000
,  // measure 28
1000
0001
0100
0000
0001
1000
0100
0000
1000
0100
0001
0000
0010
0100
0001
0000
,  // measure 29
1000
0010
0001
0000
0100
0010
1000
0000
0001
0010
0100
0000
1000
0001
0100
0000
,  // measure 30
0010
1000
0001
0000
0100
1000
0010
0000
0100
0001
0010
0000
0001
0100
1000
0000
,  // measure 31
0010
1000
0010
1000
0010
1000
0010
1000
0010
1000
0010
1000
0010
1000
0010
1000
,  // measure 32
0001
0100
0001
0100
0001
0100
0001
0100
0001
0100
0001
0100
0001
0100
0001
0100
,  // measure 33
0001
0010
0001
0010
0001
0010
0001
0010
0001
0010
0001
0010
0001
0010
0001
0010
,  // measure 34
0100
1000
0100
1000
0100
1000
0100
1000
0100
1000
0100
1000
0100
1000
0100
1000
,  // measure 35
0001
0000
0100
0000
0001
0100
0000
1000
0100
0000
0010
1000
0000
0001
0010
0000
,  // measure 36
0100
0000
0010
0000
0001
0100
0000
1000
0010
0000
0001
0100
0000
0010
1000
0000
,  // measure 37
0001
0000
0010
0000
0100
0010
0000
0100
0001
0000
0010
1000
0000
0100
1000
0000
,  // measure 38
0002
0003
0200
0300
0020
0030
0002
0003
2000
3000
0020
0030
0002
0003
2000
3000
0100
0000
0000
0000
1000
0000
0000
0000
0001
0000
0100
0000
0000
0000
0001
0000
,  // measure 39
0010
0000
0001
0100
0000
1000
0100
0000
0010
0000
0100
0000
1000
0010
0000
0001
,  // measure 40
0010
0000
0100
1000
0000
0100
0001
0000
0100
0000
0010
0000
1000
0001
0010
0100
,  // measure 41
2000
0000
0100
0000
3020
0000
0001
0000
0230
0000
1000
0000
0302
0000
0000
0000
0203
0000
0300
0000
0110
0000
0000
0000
2002
3003
0000
0000
0000
0000
0000
0000
,  // measure 42
0000
0000
0000
0000
0000
0000
0000
0000
0000
0000
0000
0000
0001
0010
0001
0000
,  // measure 43
0011
0000
1000
0010
1000
0000
1010
0000
0010
0100
0010
0000
0110
0000
0100
0010
,  // measure 44
0100
0000
0110
0000
0001
0100
0010
0000
1000
0100
0010
0000
1001
0000
0000
0000
,  // measure 45
1010
0100
0110
0001
0101
1000
1001
0000
,  // measure 46
0110
0000
0000
0000
0011
0000
0110
0000
1100
0000
0000
0000
0001
0100
1000
0000
,  // measure 47
0001
0000
0010
1000
0001
0000
0100
0000
1000
0001
0100
0000
0001
0000
0010
1000
,  // measure 48
0010
0000
0100
0000
0010
1000
0010
0000
0100
0001
0100
0000
0010
0001
0100
0000
,  // measure 49
0100
0000
0010
1000
0100
0000
0100
0000
0001
0100
0010
0000
0110
0000
0000
0000
,  // measure 50
0100
0000
0000
0000
0010
0100
0000
0000
0010
1000
0000
0000
2002
0000
0000
0000
,  // measure 51
0000
0000
0000
0000
0000
0000
0000
0000
0000
0000
0000
0003
0001
0000
0000
0000
,  // measure 52
0000
0000
0000
3000
1000
0000
0000
0000
0000
0000
0000
0000
0001
0000
0010
0000
,  // measure 53
0100
0000
0001
0010
1000
0010
0001
0000
0100
0000
0000
0000
0010
1000
0001
0100
,  // measure 54
0010
0000
0000
0000
0010
0001
1000
0100
0010
0000
0000
0000
0010
0000
0001
0000
,  // measure 55
0100
0000
1000
0010
0100
0010
0001
0000
0100
0000
0001
0000
0010
0000
0100
0000
,  // measure 56
0010
0000
0001
0000
0100
0010
0100
0010
0100
0000
0000
0000
0001
1000
0100
0000
,  // measure 57
0001
1000
0100
0000
1000
0001
0010
0000
1000
0001
0010
0000
1000
0100
1000
0001
,  // measure 58
0010
0100
0010
0000
0001
0100
0001
1000
0010
0100
0010
0000
0100
0000
0001
0000
,  // measure 59
0100
0010
0000
0010
1000
0100
1000
0000
0001
0100
0000
1000
0100
0000
0010
0000
,  // measure 60
0100
1000
0000
1000
0001
0010
0001
0000
0100
1000
0000
0001
1000
0000
0001
0000
,  // measure 61
0010
0001
0010
0001
1000
0000
0100
0010
0100
0010
0001
0000
0010
0100
0001
0100
,  // measure 62
0010
1000
0000
0000
0010
0100
1000
0100
0010
0001
0000
0000
0100
0000
0010
1000
,  // measure 63
0100
0000
0010
0100
0001
0000
0100
0000
0001
0100
0001
0000
1000
0010
0100
0001
,  // measure 64
1000
0100
0010
0000
0001
0000
0010
0001
0010
0001
0000
0001
1000
0010
1000
0100
,  // measure 65
0001
0000
0000
0100
0000
0000
1000
0000
0000
0010
0000
0000
0100
0000
0000
0010
0000
0000
1000
0000
0000
0010
0000
0000
0100
0000
0000
0010
0000
0000
0001
0000
0000
1000
0000
0000
0010
0000
0000
0000
0010
0000
0000
0000
0001
0000
0000
0000
,  // measure 66
0100
0000
0000
0000
0100
0000
0000
0000
1000
0000
0000
0000
1001
0000
0000
0000
0000
0000
0000
0000
0000
0110
0000
0000
0000
0000
0000
0000
0000
0000
1001
0000
0000
0000
0000
0000
0000
0000
0000
0000
0000
0000
0000
0000
0000
0000
0000
0000
;

//---------------dance-double - ----------------
#NOTEDATA:;
#CHARTNAME:;
#STEPSTYPE:dance-double;
#DESCRIPTION:;
#CHARTSTYLE:;
#DIFFICULTY:Edit;
#METER:18;
#RADARVALUES:0.976,1.000,0.354,0.167,1.000,606.000,34.000,16.000,0.000,0.000,0.000,0.000,0.000,0.976,1.000,0.354,0.167,1.000,606.000,34.000,16.000,0.000,0.000,0.000,0.000,0.000;
#CREDIT:;
#OFFSET:0.000;
#BPMS:0.000=180.000
,163.000=152.000
,164.000=130.000
,165.000=90.000
,166.000=74.000
,167.000=360.000
,171.000=180.000
;
#STOPS:152.000=0.083
,152.250=0.083
,152.500=0.083
,152.750=0.083
,153.000=0.083
,153.250=0.083
,153.500=0.083
,153.750=0.083
,167.000=0.667
;
#DELAYS:;
#WARPS:;
#TIMESIGNATURES:0.000=4=4
;
#TICKCOUNTS:0.000=4
;
#COMBOS:0.000=1
;
#SPEEDS:0.000=1.000=0.000=0
;
#SCROLLS:0.000=1.000
;
#FAKES:;
#LABELS:0.000=Song Start
;
#DISPLAYBPM:74.000:180.000;
#NOTES:
00000000
00000000
00000000
00000000
,
00000000
00000000
00000000
00000000
,
00000000
00000000
00000000
00000000
,
00000000
00000000
00000000
00000000
,
00000000
00000000
00000000
00000000
,
00000000
00000000
00000000
00000000
,
00000000
00000000
00000000
00000000
,
00001000
00001100
00000000
00000010
00010010
00000000
00100000
00101000
,
00000000
00000100
00001100
00000000
00001000
00010000
00001000
00000000
,
01000000
00100000
00001000
00010000
01000000
10000000
00100000
00010000
,
00000100
00000000
00000010
00000000
00000110
00000000
00000000
00000000
00002010
00000000
00000000
00003000
00120000
00000000
00000000
00030000
,
10010000
01000000
00001000
00100000
01000000
00001000
00010000
00000010
,
00001000
00000000
00000100
00000000
00000010
00000000
00000001
00000000
00001000
00000000
00000010
00001000
00000000
00010000
00001000
00000000
,
00000100
00010000
00001000
00100000
01000000
00100000
10000000
01000000
,
00010000
00001000
00000010
00000001
00001010
00000000
00001001
00000000
,
00000010
00001000
00000100
00000000
00001000
00010000
00000100
00000000
00000010
00001000
00000100
00000000
00010000
00001000
00100000
00000000
,
00000100
00010000
00001000
00000000
00100000
01000000
10000000
00000000
00010000
00001000
00100000
00000000
00000100
00001000
00010000
00000000
,
00000100
00000001
00000010
00001000
00000100
00010000
00100000
00000000
10000000
01000000
00010000
00100000
00001000
00010000
00000100
00000000
,
00000010
00000100
00001000
00000010
00000100
00000001
00001000
00000001
00000100
00001000
00000001
00000010
00001000
00000001
00000100
00000000
,
00011000
00000000
00001000
00000000
00010000
00000000
00000000
00100000
00000000
00001000
00010000
00000000
00000100
00000000
00010000
00000000
,
00001100
00000000
00000010
00000000
00000100
00000000
00000000
00000000
00000010
00001000
00000100
00010000
00001000
00100000
00010000
01000000
,
00100000
00000000
00010000
00000000
00001000
00000000
00000000
00000010
00000000
00010000
00001000
00000000
00010000
00000000
00100000
00000000
,
01000000
00010000
00001000
00010000
00001000
00000100
00000001
00000000
00000010
00001000
00010000
00001000
00010000
00100000
10000000
00000000
,
00110000
00000000
00100000
00000000
00001000
00000000
00000000
00000010
00000000
00010000
00000100
00000000
00010000
00000000
00001000
00000000
,
00000110
00000000
00000100
00000000
00010000
00000000
00000000
00000000
00100000
01000000
00010000
00100000
00001000
00010000
00000100
00001000
,
00000010
00000000
00001000
00000000
00000001
00000000
00000000
00010000
00000000
00000100
00001000
00000000
00000100
00000000
00000001
00000000
,
00001100
00000100
00000001
00000010
00001000
00010000
01000000
10000000
00100000
00110000
00000000
00000000
,
10000000
01000000
00010000
00001000
00000010
00000001
00000100
00001000
,
00010000
00000100
00001000
00000010
00010000
00100000
01000000
00010000
,
00001000
00000100
00000001
00000100
00010000
01000000
00100000
10000000
,
00010000
01000000
00001000
00100000
00000100
00010000
00000010
00001000
,
00000010
00000001
00000010
00000001
00000010
00000001
00000010
00000001
00000100
00000010
00000100
00000010
00000100
00000010
00000100
00000010
,
00001000
00000100
00001000
00000100
00001000
00000100
00001000
00000100
00010000
00001000
00010000
00001000
00010000
00001000
00010000
00001000
,
00100000
00010000
00100000
00010000
00100000
00010000
00100000
00010000
01000000
00100000
01000000
00100000
01000000
00100000
01000000
00100000
,
10000000
01000000
10000000
01000000
10000000
01000000
10000000
01000000
10000000
01000000
00100000
00010000
10000000
01000000
00100000
00010000
,
10010000
00000000
01000000
00000000
00100000
00001000
00000000
00010000
00000010
00000000
00001000
00000100
00000000
00000010
00000001
00000000
,
00000010
00000000
00001000
00000000
00000100
00010000
00000000
00001000
00100000
00000000
00010000
01000000
00000000
00001000
00010000
00000000
,
00000100
00000000
00000010
00000000
00000100
00000001
00000000
00001000
00000100
00000000
00000010
00001000
00000000
00100000
00010000
00000000
,
02000000
03000000
20000000
30000000
00200000
00300000
00020000
00030000
00000020
00000030
00002000
00003000
00000002
00000003
00000200
00000300
00011000
00000000
00000000
00000000
00000010
00000000
00000000
00000000
00000100
00000000
00010000
00000000
00000000
00000000
00100000
00000000
,
01000000
00000000
00010000
00001000
00000000
00010000
00000100
00000000
00001000
00000000
00001000
00000000
00000100
00000001
00000000
00000100
,
00000010
00000000
00001000
00000100
00000000
00010000
00001000
00000000
00010000
00000000
00100000
00000000
10000000
01000000
00100000
00010000
,
00001000
00000000
00000100
00000000
00000010
00000000
00000001
00000000
00000110
00000000
00000000
00000000
00011000
00000000
00000000
00000000
01100000
00000000
00000000
00000000
00011000
00000000
00000000
00000000
00000220
00000330
00000000
00000000
00000000
00000000
00000000
00000000
,
00000000
00000000
00000000
00000000
00000000
00000000
00000000
00000000
00000000
00000000
00000000
00000000
01000000
00001000
00010000
00000000
,
00000100
00000000
00000001
00001000
00000100
00000000
00000010
00000000
00001000
00000010
00000100
00000000
00000001
00000000
00000100
00010000
,
00001000
00000000
00100000
00000000
10000000
01000000
00010000
00000000
10000000
00100000
00010000
00000000
10010000
00000000
00000000
00000000
,
01010000
00000000
00010000
00000000
00010010
00000000
00000010
00000000
00000110
00000000
00000100
00000000
00000010
00001000
00000001
00000010
,
00010000
00001000
00000100
00000001
00000100
00010000
00001000
01000000
00100000
00010000
10000000
00000000
01000000
00010000
00100000
00000000
,
00001000
00000000
00010000
00000010
00000100
00000000
00001000
00000000
00000010
00000100
00000001
00000000
00000010
00000000
00010000
00000100
,
00001000
00000000
00000010
00000000
00000001
00000010
00000100
00001000
00010000
00100000
01000000
10000000
00100000
00000000
01000000
00000000
,
00010000
00100000
00010000
00001000
00000100
00000010
00000001
00000000
,
00000101
00010010
00000110
00002002
,
00000000
00000000
00000003
00020000
,
00003000
00000000
20000000
00000000
00030000
00000000
30010000
01000000
,
00100000
00000000
00010000
01000000
00010000
01000000
00100000
00000000
00001000
00000000
00000000
00000000
00001000
00000100
00000001
00000010
,
00001000
00000000
00000000
00000000
00100000
01000000
00001000
00010000
00000010
00000000
00000000
00000000
00001000
00010000
00001000
00000000
,
00010000
00000100
00010000
00000000
00001000
01000000
00001000
00000000
01000000
10000000
01000000
00000000
00100000
00001000
00100000
00000000
,
00010000
00000010
00010000
00000000
00000100
00001000
00000100
00000000
00000001
00000010
00001000
00000000
00000100
00000010
00000100
00000010
,
00010000
00001000
00010000
00001000
01000000
00100000
01000000
00100000
10000000
01000000
10000000
00000000
00010000
01000000
00010000
01000000
,
00001000
00010000
00001000
00010000
00000010
00001000
00000010
00001000
00000001
00000010
00000001
00000000
00000100
00000000
00000010
00000000
,
00001000
00000010
00000000
00000100
00000001
00001000
00000100
00000000
00000010
00000001
00000000
00000100
00001000
00000000
00000001
00000000
,
00000100
00000010
00000000
00000100
00000001
00001000
00000010
00000000
00000100
00001000
00000000
00000001
00000100
00000000
00010000
00000000
,
00001000
00000000
01000000
00000000
00010000
10000000
01000000
10000000
01000000
00100000
00010000
00000000
01000000
00100000
00010000
00001000
,
00000100
00000010
00000000
00000000
00000001
00000010
00001000
00010000
01000000
10000000
00000000
00000000
00000100
00010000
00000100
00000010
,
00001000
00000000
00000010
00000000
00000001
00000100
00000010
00000000
00001000
00000100
00010000
00000000
00001000
00100000
00010000
01000000
,
00100000
10000000
00010000
00000000
01000000
00000000
00100000
00010000
00100000
00010000
00000000
00010000
10000000
00100000
01000000
00010000
,
00100000
00000000
00000000
00001000
00000000
00000000
00010000
00000000
00000000
00000010
00000000
00000000
00001000
00000000
00000000
00000100
00000000
00000000
00000010
00000000
00000000
00000001
00000000
00000000
00000100
00000000
00000000
00001000
00000000
00000000
00010000
00000000
00000000
00100000
00000000
00000000
10000000
00000000
00000000
00000000
00100000
00000000
00000000
00000000
00010000
00000000
00000000
00000000
,
00001000
00000000
00000000
00000000
00000100
00000000
00000000
00000000
00000001
00000000
00000000
00000000
00000110
00000000
00000000
00000000
00000000
00000000
00000000
00000000
00000000
00011000
00000000
00000000
00000000
00000000
00000000
00000000
00000000
00000000
01100000
00000000
00000000
00000000
00000000
00000000
00000000
00000000
00000000
00000000
00000000
00000000
00000000
00000000
00000000
00000000
00000000
00000000
;

//---------------dance-double - ----------------
#NOTEDATA:;
#CHARTNAME:;
#STEPSTYPE:dance-double;
#DESCRIPTION:;
#CHARTSTYLE:;
#DIFFICULTY:Challenge;
#METER:18;
#RADARVALUES:0.991,1.000,0.281,0.250,1.000,615.000,27.000,24.000,0.000,0.000,0.000,0.000,0.000,0.991,1.000,0.281,0.250,1.000,615.000,27.000,24.000,0.000,0.000,0.000,0.000,0.000;
#CREDIT:;
#OFFSET:0.000;
#BPMS:0.000=180.000
,163.000=152.000
,164.000=130.000
,165.000=90.000
,166.000=74.000
,167.000=360.000
,171.000=180.000
;
#STOPS:152.000=0.083
,152.250=0.083
,152.500=0.083
,152.750=0.083
,153.000=0.083
,153.250=0.083
,153.500=0.083
,153.750=0.083
,167.000=0.667
;
#DELAYS:;
#WARPS:;
#TIMESIGNATURES:0.000=4=4
;
#TICKCOUNTS:0.000=4
;
#COMBOS:0.000=1
;
#SPEEDS:0.000=1.000=0.000=0
;
#SCROLLS:0.000=1.000
;
#FAKES:;
#LABELS:0.000=Song Start
;
#DISPLAYBPM:74.000:180.000;
#NOTES:
00000000
00000000
00000000
00000000
,
00000000
00000000
00000000
00000000
,
00000000
00000000
00000000
00000000
,
00000000
00000000
00000000
00000000
,
00000000
00000000
00000000
00000000
,
00000000
00000000
00000000
00000000
,
00000000
00000000
00000000
00000000
,
00100000
00010000
00100000
00000000
01000000
10000000
01000000
10000000
00100000
00000000
01000000
00000000
00010000
01000000
00010000
00000000
,
00100000
00001000
00010000
00001000
00010000
00000000
00000100
00000000
00001000
00000100
00001000
00000000
00000010
00000100
00000010
00000000
,
00000001
00000010
00000100
00000000
00000010
00000100
00001000
00000000
00000100
00001000
00010000
00000000
00001000
00010000
00100000
00000000
,
00010000
00100000
01000000
00000000
00100000
01000000
10000000
00000000
02000000
00000000
00000000
00000000
03200000
00000000
00000000
00000000
,
10300000
00010000
01000000
00100000
00010000
00100000
10000000
01000000
,
00100000
00000000
00010000
00000000
00100000
00001000
00100000
00000000
00001000
00000000
00000000
00100000
00001000
00000000
00010000
00000000
,
00000100
00001000
00000010
00000001
00000010
00000100
00000001
00001000
,
00000001
00000000
00000100
00000000
00000010
00001000
00000010
00000000
00000200
00000000
00000000
00000000
00000320
00000000
00000000
00000000
,
00000130
00000001
00000100
00000000
00000001
00001000
00000001
00000000
00001000
00000100
00001000
00000000
00000100
00010000
00000100
00000000
,
00010000
00001000
00010000
00000000
00001000
01000000
00001000
00000000
01000000
00010000
01000000
00000000
00010000
00100000
00010000
00000000
,
00100000
01000000
00100000
00000000
01000000
10000000
01000000
00000000
10000000
00010000
10000000
00000000
00010000
01000000
00010000
00000000
,
01000000
00001000
01000000
00000000
00001000
00010000
00001000
00000000
00010000
00000010
00010000
00000000
00000010
00001000
00000010
00000000
,
00000100
00000000
00000010
00000000
00000201
00000000
00000000
00000310
00000000
00000100
00000001
00000000
00000100
00000000
00001000
00000000
,
00010000
00000000
00001000
00000000
00021000
00000000
00000000
00031000
00100000
00001000
00010000
00001000
00100000
00001000
00010000
00001000
,
01000000
00000000
00010000
00000000
02100000
00000000
00000000
13000000
00000000
00010000
10000000
00000000
01000000
00000000
00100000
00000000
,
00010000
10000000
01000000
00100000
00010000
01000000
00010000
00100000
00001000
00010000
00001000
00010000
00000100
00001000
00000100
00001000
,
00000010
00000000
00000100
00000000
00000021
00000000
00000000
00000130
00000000
00000010
00000001
00000000
00000010
00000000
00001000
00000000
,
00010000
00000000
00001000
00000000
00021000
00000000
00000000
00031000
01000000
00001000
00010000
00001000
01000000
00001000
00010000
00001000
,
00100000
00000000
01000000
00000000
00210000
00000000
00000000
01300000
00000000
10000000
00100000
00000000
01000000
00000000
00100000
00000000
,
00010000
00100000
10000000
01000000
00010000
00001000
00000100
00000001
00000010
00001000
00000000
00000000
,
00000010
00000001
00001000
00000000
00000010
00001000
00000001
00000000
00000010
00000001
00000100
00000000
00000010
00001000
00000100
00000000
,
00001000
00000010
00000100
00000000
00000010
00001000
00000100
00000000
00010000
00000100
00001000
00000000
00000010
00010000
00001000
00000000
,
00010000
00001000
00100000
00000000
00001000
01000000
00010000
00000000
00100000
00010000
01000000
00000000
00100000
10000000
01000000
00000000
,
00100000
00010000
10000000
00000000
00100000
10000000
00010000
00000000
10000000
01000000
00100000
00000000
00010000
01000000
00100000
00000000
,
10000000
00010000
01000000
00100000
10000000
00010000
01000000
00100000
10000000
01000000
00100000
00010000
10000000
01000000
00100000
00010000
,
00100000
00001000
00100000
00000000
00001000
00010000
00001000
00000000
00010000
00000100
00010000
00000000
00000100
00001000
00000100
00000000
,
00001000
00000010
00000100
00000001
00001000
00000010
00000100
00000001
00000010
00000100
00001000
00000100
00000010
00000001
00000100
00000010
,
00001000
00000001
00001000
00000000
00000001
00000010
00000001
00000000
00000010
00000100
00000010
00000100
00001000
00000100
00001000
00000000
,
00000001
00000000
00000100
00000010
00000000
00000010
00000100
00000000
00000001
00000000
00000010
00000000
00001000
00000000
00010000
00000000
,
00001000
00000000
00010000
00001000
00000000
00001000
01000000
00000000
00010000
00000000
01000000
00000000
00100000
00000000
00000000
00000000
,
10000000
00000000
01000000
00100000
00000000
00100000
01000000
00000000
10000000
00000000
00100000
00000000
00010000
00000000
00100000
00000000
,
20000000
32000000
03200000
00320000
00032000
00003200
00000320
00000032
00001003
00000000
00000100
00000010
00000000
00000100
00000010
00000000
,
00000001
00000000
00000100
00000000
00001000
00000000
00010000
00000000
00001000
00000000
00010000
00001000
00000000
00100000
00010000
00000000
,
10000000
00000000
01000000
00000000
00100000
00000000
00010000
00000000
01000000
00000000
00010000
10000000
00000000
00010000
10000000
00000000
,
01000000
10000000
00100000
01000000
00010000
00100000
00001000
00010000
00000100
00000000
00001000
00000000
00000022
00000000
00000000
00000000
,
00000000
00000000
00000000
00000000
00000033
00000000
00001001
00000100
,
00000100
00001010
00000100
00000100
00011000
00010000
00010000
00010100
,
00000100
00000100
00011000
00010000
00001000
00010000
00011000
00000000
,
00100000
00100000
00010000
00100000
00100000
01000000
01100000
00000000
,
10010000
00000000
00000000
00000000
00010000
00000000
10000000
00000000
00010000
00000000
00000000
00000000
00100000
00010000
00100000
00000000
,
01000000
10000000
01000000
10000000
00100000
00000000
01000000
00000000
00010000
01000000
00010000
00000000
00100000
00001000
00010000
00001000
,
00010000
00000000
00000100
00000000
00001000
00000100
00001000
00000000
00000010
00000100
00000010
00000000
00000001
00000010
00000100
00000000
,
00000010
00000100
00001000
00000000
00000100
00001000
00010000
00000000
00001000
00010000
00100000
00000000
00010000
00100000
01000000
00000000
,
00100000
01000000
10000000
00000000
11000000
00000000
00000000
00000000
00110000
00000000
00000000
00000000
02002000
00000000
00000000
00000000
,
00000000
00000000
03000000
00020000
,
00003000
00000000
00000200
00000000
00030000
00000000
00000310
00000001
,
00000100
00000010
00001000
00000000
00000001
00000000
00000010
00000000
00000100
00001000
00000001
00000000
00000010
00000000
00000011
00000000
,
00001001
00000000
00000010
00001010
00001001
00000000
00000001
00000100
,
00000010
00010000
00001000
00000000
00010000
00000000
00001000
00000000
00100000
00010000
01000000
00000000
00100000
00000000
10000000
00000000
,
00010000
10000000
01000000
00000000
00100000
00000000
00001000
00000000
00010000
00001000
00010000
00000000
00000100
00000000
00000000
00000000
,
00001001
00000000
00000000
00000000
00000010
00000000
00000000
00000000
00011000
00000000
00000000
00000000
00010000
00001000
00010000
00000000
,
00001000
01000000
00001000
00000000
01000000
00100000
01000000
00010000
00100000
01000000
00100000
00010000
01000000
00000000
00010000
01000000
,
00100000
01000000
00000000
00100000
10000000
01000000
00100000
00010000
01000000
00010000
00100000
00000000
00010000
00000000
00100000
00010000
,
00100000
00001000
00000000
00010000
00001000
00010000
00000100
00001000
00000100
00000001
00000100
00000000
00001000
00000010
00000100
00000001
,
00001000
00000100
00000010
00000100
00000010
00000001
00001000
00000001
00000100
00000010
00000100
00000001
00001000
00000000
00000001
00000100
,
00000010
00001000
00000000
00001000
00000100
00000000
00010000
00001000
00100000
00010000
00000000
00100000
00010000
01000000
00010000
10000000
,
00100000
10000000
00010000
01000000
00100000
10000000
00010000
01000000
00100000
01000000
00010000
10000000
00010000
00100000
00001000
00010000
,
00000100
00010000
00000010
00001000
00000100
00000000
00000010
00000001
00001000
00000001
00000000
00000001
00000100
00000000
00000100
00000010
,
00001000
00000000
00000000
00000010
00000000
00000000
00000000
00000000
00000000
00000010
00000000
00000000
00001000
00000000
00000000
00000100
00000000
00000000
00010000
00000000
00000000
00001000
00000000
00000000
00010000
00000000
00000000
00000100
00000000
00000000
00001000
00000000
00000000
00000100
00000000
00000000
00000010
00000000
00000000
00000000
00001000
00000000
00000000
00000000
00010000
00000000
00000000
00000000
,
01000000
00000000
00000000
00000000
00100000
00000000
00000000
00000000
00010000
00000000
00000000
00000000
10010000
00000000
00000000
00000000
00000000
00000000
00000000
00000000
00000000
01100000
00000000
00000000
00000000
00000000
00000000
00000000
00000000
00000000
10010000
00000000
00000000
00000000
00000000
00000000
00000000
00000000
00000000
00000000
00000000
00000000
00000000
00000000
00000000
00000000
00000000
00000000
;
