#VERSION:0.80;
#TITLE:G2;
#SUBTITLE:;
#ARTIST:Aya;
#TITLETRANSLIT:;
#SUBTITLETRANSLIT:;
#ARTISTTRANSLIT:;
#GENRE:Drum & Bass;
#ORIGIN:;
#CREDIT:;
#BANNER:G2.png;
#BACKGROUND:G2-bg.png;
#LYRICSPATH:;
#CDTITLE:./CDTITLES/beatmania IIDX.png;
#MUSIC:G2.mp3;
#OFFSET:-1.484;
#SAMPLESTART:23.000;
#SAMPLELENGTH:15.000;
#SELECTABLE:YES;
#DISPLAYBPM:170.000;
#BPMS:0.000=170.040;
#STOPS:;
#DELAYS:;
#WARPS:;
#TIMESIGNATURES:0.000=4=4;
#TICKCOUNTS:0.000=4;
#COMBOS:0.000=1;
#SPEEDS:0.000=1.000=0.000=0;
#SCROLLS:0.000=1.000;
#FAKES:;
#LABELS:0.000=Song Start;
#BGCHANGES:-2.000=G2.avi=1.000=0=0=0=StretchNoLoop====,
99999=-nosongbg-=1.000=0=0=0 // don't automatically add -songbackground-
;
#KEYSOUNDS:;
#ATTACKS:;

//---------------dance-single - ----------------
#NOTEDATA:;
#CHARTNAME:;
#STEPSTYPE:dance-single;
#DESCRIPTION:;
#CHARTSTYLE:;
#DIFFICULTY:Beginner;
#METER:4;
#RADARVALUES:0.215,0.257,0.323,0.000,0.000,147.000,40.000,0.000,0.000,0.000,0.000,0.000,0.000,0.215,0.257,0.323,0.000,0.000,147.000,40.000,0.000,0.000,0.000,0.000,0.000,0.000;
#CREDIT:;
#OFFSET:-1.484;
#BPMS:0.000=170.040
;
#STOPS:;
#DELAYS:;
#WARPS:;
#TIMESIGNATURES:0.000=4=4
;
#TICKCOUNTS:0.000=4
;
#COMBOS:0.000=1
;
#SPEEDS:0.000=1.000=0.000=0
;
#SCROLLS:0.000=1.000
;
#FAKES:;
#LABELS:0.000=Song Start
;
#DISPLAYBPM:170.000;
#NOTES:
0000
0000
0000
0000
,
0000
0000
0000
0000
,
0010
0000
0000
1000
,
0000
0000
0100
0000
,
1000
0000
0000
1000
,
0000
0000
0010
0000
,
0100
0000
0000
0100
,
0000
0000
0010
0000
,
0001
0000
0000
1000
,
0000
0000
1000
0000
,
0010
0000
0000
0010
,
0000
0000
1000
0000
,
0100
0000
0000
0001
,
0000
0000
0010
0000
,
1000
0000
0000
0100
,
0000
0000
0000
0000
,
0010
0000
0010
0000
,
0100
0000
0100
0000
,
1000
0000
1000
0000
,
0001
0000
0001
0000
,
0010
0000
0010
0000
,
0100
0000
0100
0000
,
1000
0000
1000
0000
,
0001
0000
0001
0000
,
1000
0000
0001
0000
,
1000
0000
0110
0000
,
0001
0000
1000
0000
,
0001
0000
0110
0000
,
0010
0000
0100
0000
,
0010
0000
1001
0000
,
0001
0000
1001
0000
,
1001
0000
0000
0000
,
1000
0000
1000
0000
,
0001
0000
0001
0000
,
0110
0000
1000
0000
,
1001
0000
0001
0000
,
1001
0000
0001
0000
,
1001
0000
1000
0000
,
0110
0000
0001
0000
,
0110
0000
1000
0000
,
0110
0000
0110
0000
,
1001
0000
1001
0000
,
1001
0000
1001
0000
,
0110
0000
0110
0000
,
1000
0000
0001
0000
,
0010
0000
0010
0000
,
0100
0000
0100
0000
,
1000
0000
0010
0000
,
1001
0000
0010
0000
,
0100
0000
0100
0000
,
1000
0000
1000
0000
,
0001
0000
0001
0000
,
1001
0000
0010
0000
,
0110
0000
0100
0000
,
0110
0000
1000
0000
,
1001
0000
0001
0000
,
1000
0000
0001
0000
,
0010
0000
0110
0000
,
0001
0000
1000
0000
,
0010
0000
0110
0000
,
0010
0000
0100
0000
,
0010
0000
1001
0000
,
0001
0000
1000
0000
,
0001
0000
1000
0000
,
0110
0000
0110
0000
,
0110
0000
0000
0110
,
0000
0010
0000
1000
,
0000
0100
0000
0001
,
0000
0010
0000
0100
,
0000
1000
0000
0001
,
0000
0010
0000
0010
,
0000
1000
0000
0001
,
0000
0110
0000
0110
,
0000
1001
0000
1001
,
0000
0110
0000
0110
,
0000
1001
0000
1001
,
0000
1000
0000
1000
,
0000
0001
0000
0001
,
0000
0001
0000
1000
,
0000
1001
0000
0001
;

//---------------dance-single - ----------------
#NOTEDATA:;
#CHARTNAME:;
#STEPSTYPE:dance-single;
#DESCRIPTION:;
#CHARTSTYLE:;
#DIFFICULTY:Easy;
#METER:8;
#RADARVALUES:0.498,0.521,0.581,0.258,0.000,328.000,72.000,32.000,0.000,0.000,0.000,0.000,0.000,0.498,0.521,0.581,0.258,0.000,328.000,72.000,32.000,0.000,0.000,0.000,0.000,0.000;
#CREDIT:;
#OFFSET:-1.484;
#BPMS:0.000=170.040
;
#STOPS:;
#DELAYS:;
#WARPS:;
#TIMESIGNATURES:0.000=4=4
;
#TICKCOUNTS:0.000=4
;
#COMBOS:0.000=1
;
#SPEEDS:0.000=1.000=0.000=0
;
#SCROLLS:0.000=1.000
;
#FAKES:;
#LABELS:0.000=Song Start
;
#DISPLAYBPM:170.000;
#NOTES:
0000
0000
0000
0000
,
0000
0000
0000
0000
,
0010
0000
0000
0001
0000
0000
1000
0000
,
0000
0001
0000
0000
0100
0000
0001
0000
,
1000
0000
0000
0010
0000
0000
1000
0000
,
0000
0100
0000
0000
0010
0000
0001
0000
,
0100
0000
0000
0001
0000
0000
0100
0000
,
0000
0001
0000
0000
0010
0000
1000
0000
,
0001
0000
0000
0100
0000
0000
1000
0000
,
0000
0100
0000
0000
1000
0000
0001
0000
,
0010
0000
0000
1000
0000
0000
0010
0000
,
0000
0100
0000
0000
1000
0000
0001
0000
,
0100
0000
0000
0010
0000
0000
0001
0000
,
0000
1000
0000
0000
0010
0000
0100
0000
,
1000
0000
0000
0010
0000
0000
0100
0000
,
2002
0000
0000
3003
,
0010
0100
0010
0000
,
0100
0010
0100
0000
,
1000
0001
1000
0000
,
0001
1000
0001
0000
,
0010
0100
0010
0110
,
0100
0010
0100
0110
,
1000
0001
1000
1001
,
0001
1000
0001
1001
,
1000
1100
0001
0101
,
1000
0100
1100
1100
,
0001
0101
1000
1100
,
0001
0100
0101
0101
,
0010
1010
0100
1100
,
0010
1000
1010
1010
,
0001
1000
1001
1001
,
2002
0000
0000
3003
,
1000
0100
1000
0010
,
0001
0100
0001
0010
,
1100
0010
1000
0100
,
0011
0100
0001
0010
,
2001
0100
0001
3100
,
1002
0100
1000
0103
,
0120
1000
0001
1030
,
0210
0001
1000
0301
,
2100
3001
0201
0310
,
0012
1003
1020
0130
,
0012
1003
1020
0130
,
2100
3001
0201
0310
,
1000
0001
0100
0000
0001
1000
0100
0000
,
0010
0001
0100
0000
0010
1000
0100
0000
,
0100
1000
0010
0000
0100
0001
0010
0000
,
2000
3200
0320
0031
,
2010
0100
3010
1002
,
0100
0010
0103
1200
,
1000
0001
1300
0021
,
0001
1000
0031
1100
,
0012
0100
0013
0110
,
2100
0010
3100
0110
,
1200
0001
1300
1001
,
0021
1000
0031
1001
,
1000
0100
1100
0000
0001
0100
0101
0000
,
0010
1000
0001
0000
1100
0000
0101
0000
,
0001
0100
0101
0000
1000
0100
1100
0000
,
0010
0001
0100
0000
0101
0000
1100
0000
,
0010
1000
1010
0000
0100
1000
1100
0000
,
0010
0001
1000
0000
1010
0000
1010
0000
,
0001
0100
1000
0000
1000
0100
0001
0000
,
0001
0010
1000
0000
1000
0100
0001
0000
,
2200
3300
0101
0010
,
2200
3300
0000
0101
,
0010
1000
0010
0000
1000
0100
1000
0000
,
0100
0001
0100
0000
0001
0010
0001
0000
,
0010
0100
0010
0000
0100
0010
0100
0000
,
0010
0100
1000
0000
0100
0010
0001
0000
,
0100
0001
0010
0000
0100
1000
0010
0000
,
0001
0100
1000
0000
1000
0010
0001
0000
,
0001
0100
0101
0000
0100
1000
1100
0000
,
1000
1010
0010
0011
,
1000
0100
1100
0000
0100
0001
0101
0000
,
0001
0011
0010
1010
,
0001
0100
1000
0000
0001
0100
1000
0000
,
1000
0100
0001
0000
1000
0100
0001
0000
,
0010
1000
0001
0000
0010
0001
1000
0000
,
0001
0000
1001
0000
1000
0000
0001
2000
,
0000
0000
0000
3000
;

//---------------dance-single - ----------------
#NOTEDATA:;
#CHARTNAME:;
#STEPSTYPE:dance-single;
#DESCRIPTION:;
#CHARTSTYLE:;
#DIFFICULTY:Medium;
#METER:11;
#RADARVALUES:0.599,0.619,0.419,0.532,0.008,402.000,52.000,66.000,0.000,0.000,0.000,0.000,0.000,0.599,0.619,0.419,0.532,0.008,402.000,52.000,66.000,0.000,0.000,0.000,0.000,0.000;
#CREDIT:;
#OFFSET:-1.484;
#BPMS:0.000=170.040
;
#STOPS:;
#DELAYS:;
#WARPS:;
#TIMESIGNATURES:0.000=4=4
;
#TICKCOUNTS:0.000=4
;
#COMBOS:0.000=1
;
#SPEEDS:0.000=1.000=0.000=0
;
#SCROLLS:0.000=1.000
;
#FAKES:;
#LABELS:0.000=Song Start
;
#DISPLAYBPM:170.000;
#NOTES:
0000
0000
0000
0000
,
0000
0000
0000
0000
,
0001
0000
0000
1000
0000
0001
0200
0000
,
0000
0310
0000
0100
0001
0000
0010
0000
,
0002
0000
0003
1000
0000
0001
0020
0000
,
0000
0130
0000
1000
0001
0000
0010
0000
,
0002
0000
0000
0000
0000
0003
1000
0000
0000
0000
0001
0000
0200
0000
0000
0000
,
0000
0300
0010
0000
0000
0000
1000
0000
0010
0000
0000
0000
0001
0000
0000
0000
,
0010
0000
0000
1000
0002
0000
0000
1000
,
0000
0000
0000
1000
0000
0000
0003
1000
,
0010
0000
0000
0001
2000
0000
0000
0001
,
0000
0000
0000
0001
0000
0000
3000
0001
,
0100
0001
2002
3003
,
0200
0302
2003
3002
,
1003
0000
1000
0020
0030
0200
0310
0000
,
0110
0000
0001
1000
0100
0010
1001
0000
,
0110
0010
2000
3010
,
0100
1000
2000
3002
,
0100
0003
0000
0000
0010
0000
0000
0000
0002
0000
0000
0000
0013
0000
0000
0000
,
0100
0001
0002
2003
,
3010
0000
0001
0000
0200
0000
0310
0100
,
1000
0001
0010
0000
0020
0000
0032
0000
,
0013
0000
1000
0000
0200
0000
0310
0001
,
0010
1000
0010
0000
0020
0000
0230
0000
,
0310
0000
1001
0000
1001
0000
0100
0001
,
0100
0000
1001
0000
1001
0000
0010
1000
,
0100
0000
0011
0000
0011
0000
0100
0010
,
0100
0000
0110
0000
0110
0000
0010
1000
,
0001
0000
1001
0000
1001
0000
0001
1000
,
0001
0000
1010
0000
1010
0000
1000
0100
,
1000
0011
0011
0001
,
1010
0000
1000
0001
0100
0010
1001
0000
,
0201
0001
0301
0110
,
2001
0001
3001
0011
,
2001
0000
0000
0000
0001
0000
0000
0000
3001
0000
0000
0000
0200
0000
0000
0300
,
0002
0013
0010
0200
,
0301
0100
0001
0000
0100
0001
0200
0000
,
1300
0001
0100
0010
0001
0000
2000
0000
,
3001
0010
0200
0000
0301
0100
2000
0000
,
3001
0100
0010
0100
1000
0000
0110
0000
,
0001
1000
0001
0100
1000
0001
1000
0010
,
0100
1000
0001
0010
0100
1000
0010
0001
,
0010
1000
0001
0010
1000
0001
0100
1000
,
0100
0000
1000
0010
0100
0001
1010
0000
,
1000
0010
2000
0000
3010
1000
0020
0000
,
0031
1000
0010
0100
1000
0000
0002
0000
,
1003
0100
0020
0000
1030
0010
0002
0000
,
1003
0000
0000
0100
0000
0000
0010
0000
0000
0001
0000
0000
0110
0000
0000
0000
,
0110
0010
2000
3010
,
0100
1000
2000
3002
,
0100
0003
0000
0000
0010
0000
0000
0000
0002
0000
0000
0000
0013
0000
0000
0000
,
0100
0001
0002
2003
,
3010
0000
0001
0000
0200
0000
0310
0100
,
1000
0001
0010
0000
0020
0000
0032
0000
,
0013
0000
1000
0000
0200
0000
0310
0001
,
0010
1000
0010
0000
0020
0000
0230
0000
,
0301
0000
1001
0000
1001
0000
0010
0001
,
0010
0000
1001
0000
1001
0000
0100
1000
,
0010
0000
0101
0000
0101
0000
0010
0100
,
0010
0000
0110
0000
0110
0000
0100
1000
,
0001
0000
1001
0000
1001
0000
0001
1000
,
0001
0000
1100
0000
1100
0000
1000
0010
,
1000
0101
0101
0001
,
1100
0000
1000
0001
0010
0100
1001
0000
,
1200
1000
1300
0110
,
1002
1000
1003
1010
,
1002
0000
0000
0000
1000
0000
0000
0000
1003
0000
0000
0000
0200
0000
0000
0300
,
2000
3010
0010
0200
,
1300
0100
1000
0000
0100
1000
0200
0000
,
0301
1000
0100
0010
1000
0000
0002
0000
,
1003
0010
0200
0000
1300
0100
0002
0000
,
1003
0100
0010
0100
0001
0000
0110
0000
,
1000
0001
1000
0100
0001
1000
0001
0010
,
0100
0001
1000
0010
0100
0001
0010
1000
,
0010
0001
1000
0010
0001
1000
0100
0001
,
0100
1000
0001
0010
0100
1000
0001
0000
,
1000
0010
1000
0001
0010
1000
0001
0100
,
0001
1000
0010
0100
1000
0100
0010
0001
,
1000
0001
0010
0100
1000
0010
0100
0001
,
1000
0010
0100
0010
0001
0100
1000
0202
,
0000
0000
0000
0303
;

//---------------dance-single - ----------------
#NOTEDATA:;
#CHARTNAME:;
#STEPSTYPE:dance-single;
#DESCRIPTION:;
#CHARTSTYLE:;
#DIFFICULTY:Hard;
#METER:15;
#RADARVALUES:0.708,0.781,0.242,0.395,0.423,536.000,30.000,49.000,0.000,0.000,0.000,0.000,0.000,0.708,0.781,0.242,0.395,0.423,536.000,30.000,49.000,0.000,0.000,0.000,0.000,0.000;
#CREDIT:;
#OFFSET:-1.484;
#BPMS:0.000=170.040
;
#STOPS:;
#DELAYS:;
#WARPS:;
#TIMESIGNATURES:0.000=4=4
;
#TICKCOUNTS:0.000=4
;
#COMBOS:0.000=1
;
#SPEEDS:0.000=1.000=0.000=0
;
#SCROLLS:0.000=1.000
;
#FAKES:;
#LABELS:0.000=Song Start
;
#DISPLAYBPM:170.000;
#NOTES:
0000
0000
0000
0000
,
0000
0000
0000
0000
,
1001
0000
0000
0001
0000
1000
0020
0000
,
0000
0130
0000
0010
1000
0000
0100
0000
,
0110
0110
0000
0100
0000
1000
0002
0000
,
0000
0103
0000
0010
0001
0000
0100
0000
,
2000
0000
0000
3100
0000
0001
0020
0000
,
0000
1030
0000
0001
0100
0000
1000
0000
,
0100
0100
1000
0001
2000
0000
3002
0000
,
0000
1000
0003
0100
0020
0000
0031
0000
,
0100
0100
0001
1000
0002
0000
2003
0000
,
0000
0001
3000
0100
0020
0000
1030
0000
,
0010
0010
1000
0100
2002
0000
0003
0000
,
3020
2030
3002
0203
,
0310
1000
0001
0100
2002
0000
3003
0000
,
0110
0000
1000
0100
0010
0001
0110
0000
,
1000
0000
1000
0000
0000
0000
0000
0001
0000
2000
0001
0000
0000
0000
3100
0000
,
0010
0000
0100
0000
0000
0000
0000
0100
0000
0020
0100
0000
0000
0000
0130
0000
,
1000
0000
0100
0000
0000
0000
0000
0100
0000
2000
0100
0000
0000
0000
3100
0000
,
0001
0000
0100
0000
0000
0000
0000
0100
0000
0002
0100
0000
0000
0000
0013
0000
,
0001
0000
0100
0000
0000
0000
0000
0010
0000
0002
0100
0000
0000
0000
0013
0000
,
1000
0000
0100
0000
0000
0000
0000
0010
0000
2000
0100
0000
0000
0000
3100
0000
,
1000
0000
0001
0000
0000
0000
0000
0010
0000
0002
1000
0000
0000
0000
0103
0000
,
0001
0000
1000
0000
0000
0000
0000
0010
0000
2000
0001
0000
0000
0000
3000
0000
,
0010
0000
0100
0000
0001
0000
0000
1000
0000
0001
0100
0000
0010
0000
0100
0000
,
1000
0000
0100
0000
0001
0000
0000
0001
0000
1000
0100
0000
0010
0000
0100
0000
,
0001
0000
0100
0000
1000
0000
0000
0100
0000
0010
0001
0000
1000
0000
0010
0000
,
1000
0000
0001
0000
0100
0000
0000
0100
0000
0010
1000
0000
0001
0000
0010
0000
,
0001
0000
1000
0000
0100
0000
0000
0010
0000
0100
1000
0000
0001
0000
1000
0000
,
0010
0000
1000
0000
0100
0000
0000
0010
0000
0001
1000
0000
0100
0000
0001
0000
,
1000
0000
0001
0000
0100
0000
0000
1000
0000
0001
0100
0000
0010
0000
0100
0000
,
1001
0000
1000
0100
0010
0001
0110
0000
,
1000
0000
0100
0000
0001
0100
0000
1000
0100
0000
0010
0100
0000
0000
1000
0000
,
0000
0000
0010
0000
0100
0001
0000
0000
1000
0000
0200
0000
0000
0000
1300
0000
,
0010
0000
0100
0000
0001
0100
0000
1000
0100
0000
0010
0100
0000
0001
0100
0000
,
1000
0000
0100
0000
0010
0000
0000
1010
0000
0000
0110
0000
0000
0000
0101
0000
,
0100
0001
0100
0000
0010
0000
0000
1000
0000
0100
0001
0000
0100
0000
0010
0000
,
0100
1000
0100
0000
0010
0000
0000
0001
0000
1000
0010
0000
1000
0000
0001
0000
,
0100
0010
0100
0000
0001
0000
0000
1000
0000
0001
0100
0000
1000
0000
0100
0000
,
0100
0001
0100
0000
0010
0000
0000
0110
0000
0000
0101
0000
0000
1001
0000
0000
,
0100
0001
1000
0001
0100
0010
0100
0001
,
0100
1000
0100
0010
1000
0100
0001
1000
,
0010
0001
0100
1000
0010
0100
0000
1001
,
0000
0000
0100
0000
0010
0100
0000
0000
0001
0000
0100
1000
0000
0000
0100
0000
,
0100
0001
0100
0000
0010
0000
0000
1000
0000
0010
0100
0000
0001
0000
0100
0000
,
0001
1000
0001
0000
0100
0000
0000
0010
0000
1000
0100
0000
0001
0000
0010
0000
,
0001
0100
0001
0000
1000
0000
0000
0001
0000
1000
0100
0000
0010
0000
0100
0000
,
0001
0100
0000
1000
0100
0000
0001
1000
0000
0100
0010
0000
0001
1000
0000
0000
,
0010
0000
0100
1000
0002
0000
0103
0000
,
0010
1000
0001
0100
0002
0000
2003
0000
,
0010
3000
0000
0000
0100
0000
0001
0000
2000
0000
0000
0000
3100
0000
0000
0000
,
0010
0001
1000
0100
2000
0000
3002
0000
,
0103
0000
1000
0100
0020
0000
0130
0000
,
0100
1000
0100
0001
0200
0000
2300
0000
,
3100
0000
0001
0100
0020
0000
0130
0000
,
0100
0001
0100
1000
0200
0000
0320
0000
,
0130
0001
1001
0000
1001
0001
0010
0000
,
0010
0100
1001
0000
1001
0010
0100
0000
,
0010
0001
1100
0000
1100
0001
0010
0000
,
0010
1000
0110
0000
0110
1000
0100
0000
,
0001
0100
1001
0000
1001
0100
1000
0000
,
1000
0010
0100
0001
0100
0010
1001
0000
,
0001
0010
0100
1000
0100
0010
1001
0000
,
1000
0100
0001
1000
0010
0001
1001
0000
,
2000
0000
0001
0000
3000
0000
0002
0000
1003
0000
0000
0000
0010
0100
0010
0000
,
1000
0002
1003
0000
2000
3001
0000
0001
,
0100
1000
0100
0000
1000
0000
0000
0100
0000
1000
0100
0000
0020
0000
0000
0000
,
0031
0100
0001
0000
0100
0000
0000
0001
0000
0100
0001
0000
0020
0000
0000
0000
,
0031
1000
0001
0000
1000
0000
0000
0100
0000
0010
0100
0000
0020
0000
0000
0000
,
0031
0100
0001
0000
0010
0000
0000
0100
0000
1000
0100
0000
0002
0000
0000
0000
,
1003
0100
1000
0000
0010
0000
0000
0100
0000
0001
0100
0000
0020
0000
0000
0000
,
1030
0001
1000
0000
0100
0000
0000
0010
0000
0001
0100
0000
0001
0000
0000
0000
,
1000
0000
0100
0000
1000
0000
0000
0100
0000
0001
0100
0000
0001
0000
0100
0000
,
0010
0000
0100
0000
1000
0000
0000
0100
0000
0010
1000
0000
0100
0000
0010
0000
,
0100
0000
0001
0000
0100
0000
0000
1000
0000
0001
0100
0000
1000
0000
0100
0000
,
0010
0000
0100
0000
0001
0000
0000
1000
0000
0010
0100
0000
0001
0000
0100
0000
,
0010
0100
0010
0000
1000
0000
0001
0000
1000
0100
1000
0000
0001
0000
0100
0000
,
0010
1000
0010
0000
0001
0000
0010
0000
1000
0100
1000
0000
0001
0000
0100
0000
,
0010
0100
0010
0000
0100
0000
0001
0000
1000
0010
1000
0000
0100
0000
0001
0000
,
1000
0100
1000
0000
0101
0000
1000
0010
1000
0010
0100
0001
0100
0002
0000
0000
,
0000
0000
0000
0003
;

//---------------dance-double - ----------------
#NOTEDATA:;
#CHARTNAME:;
#STEPSTYPE:dance-double;
#DESCRIPTION:;
#CHARTSTYLE:;
#DIFFICULTY:Beginner;
#METER:4;
#RADARVALUES:0.173,0.128,0.016,0.000,0.000,148.000,2.000,0.000,0.000,0.000,0.000,0.000,0.000,0.173,0.128,0.016,0.000,0.000,148.000,2.000,0.000,0.000,0.000,0.000,0.000,0.000;
#CREDIT:;
#OFFSET:-1.484;
#BPMS:0.000=170.040
;
#STOPS:;
#DELAYS:;
#WARPS:;
#TIMESIGNATURES:0.000=4=4
;
#TICKCOUNTS:0.000=4
;
#COMBOS:0.000=1
;
#SPEEDS:0.000=1.000=0.000=0
;
#SCROLLS:0.000=1.000
;
#FAKES:;
#LABELS:0.000=Song Start
;
#DISPLAYBPM:170.000;
#NOTES:
00000000
00000000
00000000
00000000
,
00000000
00000000
00000000
00000000
,
10000000
00000000
00000000
01000000
,
00000000
00000000
01000000
00000000
,
00010000
00000000
00000000
10000000
,
00000000
00000000
00100000
00000000
,
00001000
00000000
00000000
00000001
,
00000000
00000000
00000010
00000000
,
00010000
00000000
00000100
00000000
,
00000010
00000000
00010000
00000000
,
00001000
00000000
01000000
00000000
,
00100000
00000000
00001000
00000000
,
01000000
00000000
00010000
00000000
,
00001000
00000000
00010000
00000000
,
00000100
00000000
00001000
00000000
,
00011000
00000000
00000000
00000000
,
00001000
00000000
00010000
00000000
,
10000000
00000000
00100000
00000000
,
00010000
00000000
10000000
00000000
,
00010000
00000000
01000000
00000000
,
00010000
00000000
00001000
00000000
,
00000001
00000000
00000100
00000000
,
00001000
00000000
00000001
00000000
,
00001000
00000000
00000010
00000000
,
00000010
00000000
00000001
00000000
,
00000100
00000000
00001000
00000000
,
00000001
00000000
00001000
00000000
,
00000010
00000000
00010000
00000000
,
00100000
00000000
10000000
00000000
,
01000000
00000000
00010000
00000000
,
10000000
00000000
00010000
00000000
,
10010000
00000000
00000000
00000000
,
00010000
00000000
10000000
00000000
,
00010000
00000000
00010000
00000000
,
00001000
00000000
00000001
00000000
,
00001000
00000000
00001000
00000000
,
00100000
00000000
00000010
00000000
,
00000010
00000000
00100000
00000000
,
00100000
00000000
00010000
00000000
,
00000010
00000000
00001000
00000000
,
00100000
00000000
00000000
10000000
,
00000000
00010000
00000000
00010000
,
00000000
00000010
00000000
00000010
,
00000000
00000010
00000000
00000010
,
00000000
00000001
00000000
00000001
,
00000000
00001000
00000000
00001000
,
00000000
00001000
00000000
00001000
,
00000000
00000000
00000000
00000000
,
00010000
00000000
00100000
00000000
,
01000000
00000000
00010000
00000000
,
01000000
00000000
00100000
00000000
,
10000000
00000000
00010000
00000000
,
00001000
00000000
00000100
00000000
,
00000010
00000000
00001000
00000000
,
00000010
00000000
00000100
00000000
,
00000001
00000000
00001000
00000000
,
00000100
00000000
00001000
00000000
,
00000010
00000000
00000001
00000000
,
00000010
00000000
00000100
00000000
,
00000010
00000000
00010000
00000000
,
01000000
00000000
00010000
00000000
,
00100000
00000000
10000000
00000000
,
00100000
00000000
01000000
00000000
,
00100000
00000000
00001000
00000000
,
00000100
00000000
00000100
00000000
,
00000000
00001000
00000000
00000000
,
00000001
00000000
00010000
00000000
,
10000000
00000000
00001000
00000000
,
00000100
00000000
00001000
00000000
,
00100000
00000000
00010000
00000000
,
00010000
00000000
00001000
00000000
,
00001000
00000000
00010000
00000000
,
00001000
00000000
00100000
00000000
,
00010000
00000000
00000010
00000000
,
00001000
00000000
00010000
00000000
,
00010000
00000000
00001000
00000000
,
00001000
00000000
00010000
00000000
,
00010000
00000000
00001000
00000000
,
00001000
00000000
00010000
00000000
,
00010000
00000000
00001000
00000000
;

//---------------dance-double - ----------------
#NOTEDATA:;
#CHARTNAME:;
#STEPSTYPE:dance-double;
#DESCRIPTION:;
#CHARTSTYLE:;
#DIFFICULTY:Easy;
#METER:8;
#RADARVALUES:0.431,0.521,0.484,0.065,0.000,306.000,60.000,8.000,0.000,0.000,0.000,0.000,0.000,0.431,0.521,0.484,0.065,0.000,306.000,60.000,8.000,0.000,0.000,0.000,0.000,0.000;
#CREDIT:;
#OFFSET:-1.484;
#BPMS:0.000=170.040
;
#STOPS:;
#DELAYS:;
#WARPS:;
#TIMESIGNATURES:0.000=4=4
;
#TICKCOUNTS:0.000=4
;
#COMBOS:0.000=1
;
#SPEEDS:0.000=1.000=0.000=0
;
#SCROLLS:0.000=1.000
;
#FAKES:;
#LABELS:0.000=Song Start
;
#DISPLAYBPM:170.000;
#NOTES:
00000000
00000000
00000000
00000000
,
00000000
00000000
00000000
00000000
,
10000000
00000000
00000000
00010000
00000000
00000000
01000000
00000000
,
00000000
00010000
00000000
00000000
01000000
00000000
00010000
00000000
,
00010000
00000000
00000000
00100000
00000000
00000000
10000000
00000000
,
00000000
00100000
00000000
00000000
00100000
00000000
00010000
00000000
,
00001000
00000000
00000000
00000010
00000000
00000000
00000001
00000000
,
00000000
00000010
00000000
00000000
00000010
00000000
00001000
00000000
,
00010000
00000000
00000000
00010000
00000100
00000000
00000000
00000000
,
00000010
00001000
00010000
00000000
,
00001000
00000000
00000000
00001000
01000000
00000000
00000000
00000000
,
00100000
00010000
00001000
00000000
,
01000000
01000000
00000000
01000000
00010000
00000000
00000000
00000000
,
00001000
00000000
00010000
00000000
,
00000100
00000100
00000000
00000100
00001000
00000000
00000000
00000000
,
00011000
00000000
00000000
00000000
,
00001000
00011000
00010000
00110000
,
10000000
11000000
00100000
00110000
,
00010000
01010000
10000000
10100000
,
00010000
10010000
01000000
01010000
,
00010000
00011000
00001000
00001100
,
00000001
00000011
00000100
00001100
,
00001000
00001010
00000001
00000101
,
00001000
00001001
00000010
00001010
,
00000010
00001001
00000001
00000110
,
00000100
00001001
00001000
00000110
,
00000001
00001100
00001000
00000011
,
00000010
00001000
00010000
00100000
,
00100000
10010000
10000000
01100000
,
01000000
10010000
00010000
01100000
,
10000000
01010000
00010000
10100000
,
10010000
00000000
00000000
00000000
,
00010000
00100000
10000000
01000000
,
00010000
00001000
00010000
00000000
,
00001000
00000100
00000001
00000010
,
00001000
00010000
00001000
00000000
,
00100000
00010000
00001000
00000000
00000010
00000000
00000000
00000000
,
00000010
00001000
00010000
00000000
00100000
00000000
00000000
00000000
,
00100000
10000000
01000000
00000000
00010000
00000000
00001000
00000000
,
00000010
00000001
00000100
00000000
00001000
00000000
00010000
00000000
,
00100000
00100000
10000000
00000000
00000000
00000000
10000000
00000000
,
00100000
00100000
00010000
00000000
00000000
00000000
00010000
00000000
,
00001000
00001000
00000010
00000000
00000000
00000000
00000010
00000000
,
00000001
00000001
00000010
00000000
00000000
00000000
00000010
00000000
,
00000010
00000010
00000001
00000000
00000000
00000000
00000001
00000000
,
00000010
00000010
00001000
00000000
00000000
00000000
00001000
00000000
,
00010000
00010000
00001000
00000000
00000000
00000000
00001000
00000000
,
00022000
00000000
00033000
00000000
,
00010000
00011000
00100000
00110000
,
01000000
11000000
00010000
00110000
,
01000000
01010000
00100000
10100000
,
10000000
10010000
00010000
01010000
,
00001000
00011000
00000100
00001100
,
00000010
00000011
00001000
00001100
,
00000010
00001010
00000100
00000101
,
00000001
00001001
00001000
00001010
,
00000100
00001001
00001000
00000110
,
00000010
00001001
00000001
00000110
,
00000010
00001100
00000100
00000011
,
00000010
00001000
00010000
00100000
,
01000000
10010000
00010000
01100000
,
00100000
10010000
10000000
01100000
,
00100000
01010000
01000000
10100000
,
00100000
00010000
00001000
00000010
,
00000100
00000010
00000000
00000010
00000100
00000000
00000000
00000000
,
00000000
00000001
00001000
00000000
00001000
00000001
00000000
00000000
,
00000001
00000010
00001000
00000000
00010000
00000000
00100000
00000000
,
10000000
01000000
00010000
00000000
00001000
00000000
00000100
00000000
,
00000100
00000001
00000010
00000000
00001000
00000000
00010000
00000000
,
00100000
10000000
01000000
00000000
00010000
00000000
00001000
00000000
,
00010000
00001000
00010000
00000000
00001000
00000000
00010000
00000000
,
00001000
00010000
00001000
00000000
00010000
00000000
00001000
00000000
,
00002000
00010000
00100000
01003000
,
00020000
00000100
00000010
00031000
,
00002000
00000010
00010000
00013000
,
00020000
00100000
00001000
00031000
,
00001000
00010000
00001000
00000000
00010000
01000000
00010000
00000000
,
00010000
00001000
00010000
00000000
00001000
00000100
00001000
00000000
,
00001000
00000010
00001000
00000000
00010000
00001000
00010000
00000000
,
00010000
00100000
00010000
00000000
00001000
00010000
00001000
00022000
,
00000000
00000000
00000000
00033000
;

//---------------dance-double - ----------------
#NOTEDATA:;
#CHARTNAME:;
#STEPSTYPE:dance-double;
#DESCRIPTION:;
#CHARTSTYLE:;
#DIFFICULTY:Medium;
#METER:10;
#RADARVALUES:0.472,0.456,0.443,0.129,0.000,339.000,55.000,16.000,0.000,0.000,0.000,0.000,0.000,0.472,0.456,0.443,0.129,0.000,339.000,55.000,16.000,0.000,0.000,0.000,0.000,0.000;
#CREDIT:;
#OFFSET:-1.484;
#BPMS:0.000=170.040
;
#STOPS:;
#DELAYS:;
#WARPS:;
#TIMESIGNATURES:0.000=4=4
;
#TICKCOUNTS:0.000=4
;
#COMBOS:0.000=1
;
#SPEEDS:0.000=1.000=0.000=0
;
#SCROLLS:0.000=1.000
;
#FAKES:;
#LABELS:0.000=Song Start
;
#DISPLAYBPM:170.000;
#NOTES:
00000000
00000000
00000000
00000000
,
00000000
00000000
00000000
00000000
,
10000000
00000000
00000000
00010000
00000000
00010000
02000000
00000000
,
00000000
03100000
00000000
01000000
00010000
00000000
00100000
00000000
,
00100000
00000000
00000000
01100000
00000000
01000000
10000000
00000000
,
00000000
10000000
00000000
10000000
00010000
00000000
10000000
00000000
,
01000000
00000000
00000000
11000000
00000000
10000000
01000000
00000000
,
00000000
10000000
00000000
00010000
00100000
00000000
00001000
00000000
,
00010000
00010000
00000000
00000000
00022000
00000000
00000000
00033000
,
00000000
00001000
00000000
00000100
00001000
00000000
00010000
00000000
,
01000000
01000000
00000000
00000000
02200000
00000000
03300000
00000000
,
00000000
11000000
00000000
01000000
00100000
00000000
00010000
00000000
,
10000000
10000000
00000000
00000000
02020000
00000000
03030000
00000000
,
00000000
10000000
00000000
01000000
00100000
00000000
00001000
00000000
,
00010000
00010000
00000000
00000000
00011000
00000000
00000000
00000000
,
00002002
00000000
00000000
00003003
,
00000001
00001000
00000010
00000000
00000000
00000100
00000100
00000000
,
00000010
00001000
00000001
00000000
00000000
00001000
00001000
00000000
,
00000010
00010000
00001000
00000000
00000000
00010000
00010000
00000000
,
00001000
00010000
01000000
00000000
00000000
00100000
00100000
00000000
,
00010000
10000000
01000000
00000000
00000000
00010000
00010000
00000000
,
01000000
10000000
00100000
00000000
00000000
01000000
01000000
00000000
,
00001000
00010000
00001000
00000000
00000000
00000100
00000100
00000000
,
00000001
00001000
00000100
00000000
00000000
00000010
00000010
00000000
,
00000001
00000100
00000101
00000000
00000000
00000010
00001000
00000100
,
00010000
00001000
00011000
00000000
00000000
00010000
01000000
10000000
,
00100000
01000000
01010000
00000000
00000000
00010000
10000000
00100000
,
01000000
00001000
00011000
00000000
00000000
00001000
00000010
00000001
,
00000100
00000010
00001010
00000000
00000000
00001000
00000001
00000100
,
00000010
00000100
00000101
00000000
00000000
00000100
00001000
00010000
,
01000000
10000000
10010000
00000000
00000000
00100000
01000000
10000000
,
20020000
00000000
00000000
30030000
,
00010000
10000000
00010000
00000000
00000000
10000000
00100000
00000000
,
01000000
00010000
01000000
00000000
00000000
00010000
10000000
00000000
,
01000000
00010000
01000000
00000000
00000000
00010000
00001000
00000000
,
00000010
00000001
00000100
00000000
00000000
00000100
00000010
00000000
,
00010000
00001000
00010000
00000000
00000000
00100000
10000000
00000000
,
00100000
10000000
01000000
00000000
00000000
10000000
01000000
00000000
,
00100000
00010000
00100000
00000000
00000000
00010000
01000000
00000000
,
00100000
10000000
20020000
30030000
,
00000000
10100000
00000000
11000000
,
00000000
00110000
00000000
01010000
,
00000000
00001010
00000000
00001100
,
00000000
00000011
00000000
00000101
,
00000000
00001001
00000000
00011000
,
00000000
10010000
00000000
00011000
,
00000000
00001001
00000000
00000110
,
00000200
00000000
00000000
00000300
,
00000010
00000000
00000000
00001000
00000000
00001000
00000010
00000000
,
00000000
00001000
00000000
00001000
00000100
00000000
00001000
00000000
,
00000100
00000000
00000000
00000010
00000000
00000010
00000001
00000000
,
00000000
00000001
00000000
00001000
00000100
00000000
00000100
00000000
,
00001001
00000000
00000000
00001000
00000000
00001000
00000010
00000000
,
00000000
00001010
00000000
00010000
00001000
00000000
00010000
00000000
,
00011000
00000000
00000000
00010000
00000000
00001000
00010000
00000000
,
00000000
00110000
00000000
00100000
00010000
00000000
00100000
00000000
,
00010000
01000000
01010000
00000000
00000000
10000000
10100000
00000000
,
01010000
00000000
10010000
00000000
00000000
01000000
01000000
00000000
,
00010000
00001000
00011000
00000000
00000000
00000100
00001100
00000000
,
00000011
00000000
00001001
00000000
00000000
00000100
00000100
00000000
,
00000001
00001000
00001010
00000000
00000000
00010000
00011000
00000000
,
01010000
00000000
11000000
00000000
00000000
00100000
00100000
00000000
,
10000000
00010000
00110000
00000000
00000000
00001000
00011000
00000000
,
00001100
00000000
00000101
00000000
00000000
00000010
00000010
00000000
,
00001000
00000010
00001000
00000000
00000010
00001000
00000010
00000000
,
00000000
00001000
00000010
00000100
00000000
00000000
00000000
00000000
,
00001000
00000100
00001000
00000010
00000100
00000001
00000010
00000000
,
00000001
00000010
00001000
00010000
00100000
10000000
00010000
00000000
,
10000000
01000000
10000000
00100000
10000000
00010000
01000000
00000000
,
00010000
01000000
00001000
00010000
00000100
00001000
00000001
00000000
,
00000010
00000010
00000010
00000000
00001000
00000000
00010000
00000000
,
01000000
01000000
01000000
00000000
00010000
00000000
00011000
00000000
,
00010000
00001000
00010000
00001000
00000000
00000010
00000001
00000000
,
00000000
00000100
00000000
00000100
00000010
00000000
00000010
00000000
,
00000010
00010000
00001000
00010000
00000000
00010000
00001000
00000000
,
00000000
00001000
00000000
00010000
00000100
00000000
00001100
00000000
,
00000100
00001000
00000010
00010000
00000000
00001000
00010000
00000000
,
00000000
00001000
00000000
00100000
01100000
00000000
00010000
00000000
,
01000000
00000000
00000000
10100000
00000000
01000000
00020000
00000000
,
00000000
01030000
00000000
01000000
00100000
00000000
10000000
00000000
,
02000000
00000000
00000000
03000000
;

//---------------dance-double - ----------------
#NOTEDATA:;
#CHARTNAME:;
#STEPSTYPE:dance-double;
#DESCRIPTION:;
#CHARTSTYLE:;
#DIFFICULTY:Hard;
#METER:15;
#RADARVALUES:0.620,0.684,0.113,0.097,0.359,512.000,14.000,12.000,0.000,0.000,0.000,0.000,0.000,0.620,0.684,0.113,0.097,0.359,512.000,14.000,12.000,0.000,0.000,0.000,0.000,0.000;
#CREDIT:;
#OFFSET:-1.484;
#BPMS:0.000=170.040
;
#STOPS:;
#DELAYS:;
#WARPS:;
#TIMESIGNATURES:0.000=4=4
;
#TICKCOUNTS:0.000=4
;
#COMBOS:0.000=1
;
#SPEEDS:0.000=1.000=0.000=0
;
#SCROLLS:0.000=1.000
;
#FAKES:;
#LABELS:0.000=Song Start
;
#DISPLAYBPM:170.000;
#NOTES:
00000000
00000000
00000000
00000000
,
00000000
00000000
00000000
00000000
,
00011000
00000000
00000000
00001000
00000000
00001000
00020000
00000000
,
00000000
00031000
00000000
00001000
00000100
00000000
00000001
00000000
,
00001000
00001001
00000000
00000010
00000000
00000001
00000200
00000000
,
00000000
00001300
00000000
00010000
01000000
00000000
00100000
00000000
,
00020000
00000000
00000000
10030000
00000000
00010000
00200000
00000000
,
00000000
01300000
00000000
10000000
01000000
00000000
01000000
00000000
,
10000000
01000000
00010000
00001000
00000200
00000000
00000000
00000000
,
00000000
00000301
00000000
00000100
00000020
00000000
00001030
00000000
,
00000001
00000100
00001000
00010000
02000000
00000000
00000000
00000000
,
00000000
03100000
00000000
00010000
20000000
00000000
31000000
00000000
,
00100000
01000000
00010000
00001000
00000020
00000000
00000000
00000000
,
00000000
00000031
00000000
00000001
00000100
00000000
00001000
00000000
,
00010000
00001000
00010000
00001000
00022000
00000000
00033000
00000000
,
00010000
00000000
01000000
10000000
01000000
00100000
00010000
00000000
,
00100000
00001000
00010000
00000100
00000010
00000001
00000010
00000000
,
00000100
00001000
00000100
00010000
00001000
00100000
01000000
00000000
,
00100000
01000000
10000000
00010000
01000000
00100000
00010000
00001000
,
00000100
00001000
00010000
00000100
00001000
00000100
00010000
00000000
,
00001000
00010000
01000000
10000000
00100000
10000000
00100000
00000000
,
10000000
00100000
10000000
01000000
00100000
01000000
10000000
00000000
,
00010000
00100000
00010000
00100000
00010000
01000000
00010000
01000000
,
10000000
01000000
10000000
01000000
00010000
01000000
00010000
00000000
,
00100000
00000000
00010000
00000000
00100000
00000000
00000000
01000000
00000000
10000000
01000000
00000000
00010000
00000000
00001000
00000000
,
00000100
00000000
00000001
00000000
00000010
00000000
00000000
00000001
00000000
00000010
00000001
00000000
00000010
00000000
00000100
00000000
,
00001000
00000000
00000100
00000000
00001000
00000000
00000000
00000100
00000000
00000010
00000001
00000000
00000100
00000000
00001000
00000000
,
00010000
00000000
00100000
00000000
01000000
00000000
00000000
00010000
00000000
01000000
00010000
00000000
01000000
00000000
00010000
00000000
,
00100000
00000000
00010000
00000000
00100000
00000000
00000000
01000000
00000000
10000000
01000000
00000000
00010000
00000000
00001000
00000000
,
00010000
00000000
00001000
00000000
00000100
00000000
00000000
00000010
00000000
00000100
00000001
00000000
00000100
00000000
00001000
00000000
,
00000100
00000000
00000001
00000000
00000010
00000000
00000000
00001000
00000000
00010000
00001000
00000000
00010000
00000000
01000000
00000000
,
11000000
00000000
10000000
00100000
01000000
00010000
01000000
00000000
,
00100000
00000000
10000000
00000000
01000000
00010000
00000000
00000000
00001000
00000000
00001000
00000100
00000000
00000000
00000100
00000000
,
00000000
00000000
00000010
00000000
00000100
00000001
00000000
00000000
00001000
00000000
00000100
00000000
00000000
00000000
00001000
00000000
,
00000100
00000000
00000001
00000000
00000100
00001000
00000000
00000000
00000100
00000000
00000100
00001000
00000000
00000000
00000100
00000000
,
00000010
00000000
00000001
00000000
00000010
00000000
00000000
00000001
00000000
00000000
00000100
00000000
00000000
00000000
00000100
00000000
,
00000001
00000100
00000001
00000100
00000001
00000000
00000000
00000010
00000000
00001000
00010000
00000000
00001000
00000000
00010000
00000000
,
00001000
00010000
00001000
00010000
00001000
00000000
00000000
00010000
00000000
01000000
10000000
00000000
00100000
00000000
10000000
00000000
,
01000000
00100000
01000000
00100000
01000000
00000000
00000000
00100000
00000000
00010000
01000000
00000000
10000000
00000000
01000000
00000000
,
00010000
01000000
00010000
01000000
00010000
00000000
00000000
10000000
00000000
00000000
01000000
00000000
00000000
00010000
00000000
00000000
,
00001000
00010000
00001000
00010000
00000100
00010000
00001000
00010000
,
00000010
00010000
00001000
00000100
00000010
00001000
00000100
00000010
,
00000001
00000100
00001000
00010000
00001000
00100000
00001000
00011000
,
00000000
00000000
00001000
00000000
00010000
00001000
00000000
00000000
00100000
00000000
00001000
00010000
00000000
00000000
00001000
00000000
,
00010000
00001000
00010000
00001000
00010000
00000000
00000000
00001000
00000000
00010000
00001000
00000000
00010000
00000000
01000000
00000000
,
10000000
01000000
10000000
01000000
10000000
00000000
00000000
01000000
00000000
10000000
00010000
00000000
10000000
00000000
01000000
00000000
,
00100000
01000000
00100000
01000000
00100000
00000000
00000000
01000000
00000000
00100000
01000000
00000000
00010000
00000000
00001000
00000000
,
00010000
00000000
00000000
00001000
00000000
00000000
00010000
00000000
00000000
00001000
00000000
00000000
00010000
00000000
00000000
00000000
,
00011000
00000000
00000000
00001000
00000000
00000100
00000001
00000000
,
00000000
00000001
00000000
00000100
00001000
00000000
00010000
00000000
,
00011000
00000000
00000000
00010000
00000000
01000000
10000000
00000000
,
00000000
01000000
00000000
00100000
01000000
00000000
00010000
00000000
,
01010000
00000000
00000000
00100000
00000000
01000000
00100000
00000000
,
00000000
00100000
00000000
00010000
00001000
00000000
00000010
00000000
,
00000110
00000000
00000000
00001000
00000000
00000001
00000100
00000000
,
00000000
00001000
00000000
00000100
00000001
00000000
00000100
00000000
,
00001100
00000000
00000000
00001000
00000000
00010000
00100000
00000000
,
00000000
10000000
00000000
01000000
10000000
00000000
01000000
00000000
,
11000000
00000000
00000000
01000000
00000000
00010000
00001000
00000000
,
00000000
00010000
00000000
01000000
00010000
00000000
00001000
00000000
,
00011000
00000000
00000000
00001000
00000000
00001000
00000100
00000000
,
00000000
00000100
00000000
00000001
00000100
00000000
00000101
00000000
,
00000100
00000000
00000000
00001000
00000000
00010000
00001000
00000000
,
00000000
00001000
00000000
00010000
00001000
00000000
00011000
00000000
,
00001000
00000000
00010000
00000000
00000000
00000000
00010000
00000000
01000000
00000000
00000000
00000000
00100000
01000000
00100000
00000000
,
01000000
10000000
00010000
00000000
10000000
00100000
00000000
00100000
,
10000000
01000000
10000000
00000000
01000000
00000000
00000000
00010000
00000000
01000000
00100000
00000000
00010000
00000000
00000000
00000000
,
00100000
00010000
00100000
00000000
01000000
00000000
00000000
00100000
00000000
01000000
00010000
00000000
00001000
00000000
00000000
00000000
,
00010000
00001000
00010000
00000000
00001000
00000000
00000000
00000100
00000000
00000001
00000100
00000000
00000010
00000000
00000000
00000000
,
00001000
00000100
00001000
00000000
00000100
00000000
00000000
00000010
00000000
00000001
00000100
00000000
00001000
00000000
00000000
00000000
,
00001000
00010000
00001000
00000000
00010000
00000000
00000000
00001000
00000000
00000100
00000001
00000000
00000010
00000000
00000000
00000000
,
00000001
00000100
00000001
00000000
00000100
00000000
00000000
00001000
00000000
00000100
00001000
00000000
00010000
00000000
00000000
00000000
,
01000000
00000000
10000000
00000000
01000000
00000000
00000000
10000000
00000000
01000000
10000000
00000000
00100000
00000000
00010000
00000000
,
00100000
00000000
10000000
00000000
01000000
00000000
00000000
00100000
00000000
10000000
00100000
00000000
00010000
00000000
00100000
00000000
,
00010000
00000000
00100000
00000000
01000000
00000000
00000000
00010000
00000000
01000000
00010000
00000000
00001000
00000000
00010000
00000000
,
00001000
00000000
00000100
00000000
00001000
00000000
00000000
00000100
00000000
00000001
00000100
00000000
00000001
00000000
00000100
00000000
,
00000010
00000100
00000010
00000000
00001000
00000000
00000001
00000000
00000100
00000010
00000100
00000000
00001000
00000000
00000100
00000000
,
00000001
00000100
00000001
00000000
00000100
00000000
00001000
00000000
00010000
00001000
00010000
00000000
00001000
00000000
00010000
00000000
,
01000000
00010000
01000000
00000000
00010000
00000000
01000000
00000000
10000000
01000000
10000000
00000000
01000000
00000000
10000000
00000000
,
00100000
10000000
00100000
00000000
00000000
00000000
10000000
00100000
10000000
00000000
00010000
01000000
00010000
02000000
00000000
00000000
,
00000000
00000000
00000000
03000000
;

//---------------dance-single - ----------------
#NOTEDATA:;
#CHARTNAME:;
#STEPSTYPE:dance-single;
#DESCRIPTION:;
#CHARTSTYLE:;
#DIFFICULTY:Challenge;
#METER:18;
#RADARVALUES:1.000,1.000,0.589,0.532,0.996,809.000,73.000,66.000,0.000,0.000,0.000,0.000,0.000,1.000,1.000,0.589,0.532,0.996,809.000,73.000,66.000,0.000,0.000,0.000,0.000,0.000;
#CREDIT:;
#OFFSET:-1.484;
#BPMS:0.000=170.040
;
#STOPS:;
#DELAYS:;
#WARPS:;
#TIMESIGNATURES:0.000=4=4
;
#TICKCOUNTS:0.000=4
;
#COMBOS:0.000=1
;
#SPEEDS:0.000=1.000=0.000=0
;
#SCROLLS:0.000=1.000
;
#FAKES:;
#LABELS:0.000=Song Start
;
#DISPLAYBPM:*;
#NOTES:
// measure 0
0001
0000
0000
0001
0010
0000
0100
0000
0000
0000
0011
0000
1001
0000
0000
0000
,  // measure 1
0110
0000
0110
0000
0000
0000
0101
0000
1010
0000
0000
1000
0001
0000
0000
0000
,  // measure 2
1001
0000
0000
0001
0010
0000
0001
0000
0000
0000
0110
0000
0010
0000
0001
0000
,  // measure 3
0000
0100
0000
1001
1100
0000
0011
0000
,  // measure 4
1001
0110
0000
1001
0000
1100
1100
0000
,  // measure 5
0000
0011
0000
0110
0110
1100
1100
0000
,  // measure 6
1000
0100
0000
0000
0000
0000
0100
0001
0000
0000
0001
0100
0010
0000
0000
0000
,  // measure 7
0000
1000
0100
0000
0000
0000
0001
0000
0110
0000
0000
0100
1000
0000
0000
0010
,  // measure 8
0100
0000
0100
0000
1000
0000
0001
0000
1000
0001
0000
0000
0110
0000
1000
0000
,  // measure 9
0000
1000
0100
0000
0000
0010
0001
0000
1100
0000
0000
0000
0101
0000
0000
0000
,  // measure 10
0011
0001
0100
0110
0010
1000
1100
0000
,  // measure 11
0000
0010
0001
0000
0000
0000
0100
0000
1001
0000
0000
0000
1100
0000
0000
0000
,  // measure 12
1001
0000
0001
0000
1001
0000
1000
0000
1001
0000
0000
0100
0001
0000
0000
0010
,  // measure 13
0100
0000
0000
1000
0010
0000
0000
0100
1000
0000
0000
0100
0001
0000
0000
0100
,  // measure 14
0001
0000
1000
0000
0110
0000
0110
0000
1000
0000
0000
0100
0001
0000
0000
1000
,  // measure 15
0010
0000
0011
0011
1100
1100
0000
0000
,  // measure 16
0001
0000
0010
0000
1000
0000
0100
0001
0100
0010
1001
0000
0001
0000
0010
0000
,  // measure 17
1000
0000
0100
0000
0011
0000
1000
0100
0010
0001
0010
0000
1000
0000
0100
0000
,  // measure 18
1000
0000
0100
0000
0001
0000
0010
0100
0001
1000
0110
0000
0001
0000
0010
0000
,  // measure 19
0100
0000
1000
0000
0010
0000
0001
0100
1000
0010
1000
0000
0011
0000
0001
0000
,  // measure 20
1000
0000
0100
0000
0001
0000
1000
0010
0100
0001
0110
0000
0001
0000
0010
0000
,  // measure 21
0100
0000
0001
0000
1000
0000
0001
0010
0100
1000
0100
0000
0001
0000
0100
0000
,  // measure 22
1000
0000
0001
0000
0001
0000
1000
0100
0010
0001
0100
0000
1000
0000
0100
0000
,  // measure 23
0001
0000
1000
0000
0010
0000
0100
0010
0100
0001
1000
0000
0001
0000
0010
0000
,  // measure 24
1000
0000
0010
0000
0001
0000
0010
1000
0100
0010
1001
0000
0010
0000
0100
0000
,  // measure 25
1000
0000
0100
0000
0001
0000
0010
0001
0100
1000
0010
0000
0101
0000
1000
0000
,  // measure 26
0010
0000
0001
0000
0010
0000
1000
0100
0010
0001
0110
0000
1000
0000
0010
0100
,  // measure 27
0010
0000
0001
0000
0100
0000
0001
1000
0001
0100
0010
0000
0001
0000
0010
0000
,  // measure 28
0001
0000
1000
0000
0100
0000
0010
0100
0001
1000
0110
0000
0001
0000
1000
0000
,  // measure 29
0010
0000
1000
0000
0100
0000
0100
0010
1000
0001
0100
0000
1000
0000
1100
0000
,  // measure 30
0101
0000
0001
0000
0010
0000
0100
1000
0100
0001
0110
0000
0010
0000
0100
0000
,  // measure 31
0011
0000
1010
1000
0001
0101
0000
0000
,  // measure 32
0001
1000
0001
1000
0001
0010
0100
1000
0001
0100
0010
1000
0100
0010
0001
0000
,  // measure 33
0010
0100
0001
1000
0100
0010
0001
0010
0100
1000
0001
0010
0100
1000
0001
0000
,  // measure 34
0010
1000
0100
0010
0001
0010
0100
1000
0001
0100
0010
1000
0100
0010
0001
0000
,  // measure 35
1000
0010
0100
0001
0110
0000
0001
1000
0000
0001
1000
0000
0001
0000
1000
0000
,  // measure 36
0100
0001
0100
0010
1000
0100
0010
0100
1000
0001
0010
0100
1000
0100
1000
0100
,  // measure 37
0010
0001
0010
0001
0100
0010
0100
0010
1000
0001
1000
0001
0100
0001
0100
0001
,  // measure 38
1000
0010
1000
0010
0001
0010
0100
1000
0010
0100
0001
0010
0100
1000
0010
0100
,  // measure 39
0001
0010
0100
1000
0001
0100
0010
1000
0000
1000
0001
0000
0001
1000
0000
0000
,  // measure 40
0100
0010
0100
0010
1000
0001
1000
0001
0100
1000
0100
1000
0001
0000
0010
0000
,  // measure 41
0100
1000
0100
0010
0001
0100
0010
1000
0100
0010
0001
0100
0010
0000
1000
0000
,  // measure 42
0010
0100
0001
1000
0010
0100
0001
0100
0010
0000
0100
0010
0000
0000
1000
0001
,  // measure 43
0000
0000
0110
0000
0010
0100
0000
0000
1001
0000
0100
1000
0000
0000
0110
0000
,  // measure 44
0001
0010
0001
0010
0100
1000
0100
0010
0001
0100
0010
1000
0100
1000
0100
0010
,  // measure 45
0001
0100
0010
1000
0001
0010
0100
1000
0001
1000
0001
0010
0100
1000
0100
1000
,  // measure 46
0001
0010
0100
1000
0001
0100
0000
0110
0000
0100
1000
0000
0010
0000
0100
0000
,  // measure 47
0001
0010
0000
1000
0100
0000
0001
1000
0000
0010
0001
0000
1100
0000
0011
0000
,  // measure 48
1000
0000
0001
0000
0100
0000
1000
0000
0002
0010
2003
0000
3200
0010
2300
0000
,  // measure 49
3001
0000
0100
0000
0010
0000
1000
0000
0020
0100
2030
0000
3002
0100
0023
0000
,  // measure 50
0031
0000
1010
0000
0100
0000
0001
0000
0020
1000
0230
0000
0320
0001
2030
0000
,  // measure 51
3100
0000
0001
0000
1000
0000
0001
0000
0020
0100
2030
0000
3002
0010
0203
0000
,  // measure 52
0301
0000
0100
0000
1000
0000
0010
0000
0002
0100
2003
0000
3200
0001
2300
0000
,  // measure 53
3100
0000
1000
0000
0100
0000
0001
0000
0020
1000
0032
0000
0023
1000
0032
0000
,  // measure 54
0103
0000
0010
0000
0001
0000
0100
0000
0020
1000
0032
0000
0203
0010
2300
0000
,  // measure 55
3001
0000
0010
0000
0100
0000
1000
0000
0020
0100
2030
0000
3002
0100
0023
0000
,  // measure 56
1030
0000
0100
0000
0010
0000
0001
0000
2000
0100
3002
0000
2003
0100
3002
0000
,  // measure 57
1003
0000
0001
0000
0100
0000
0010
0000
2000
0001
3020
0000
2030
0001
3200
0000
,  // measure 58
0310
0000
0001
0000
0010
0000
1000
0000
0020
0100
0032
0000
0023
0100
0032
0000
,  // measure 59
1003
0000
0001
0000
0100
0000
1000
0000
0002
0010
2003
0000
3200
0010
2300
0000
,  // measure 60
3001
0000
0100
0000
0010
0000
1000
0000
0002
0010
0203
0000
2300
0001
3020
0000
,  // measure 61
0130
0000
0001
0000
0010
0000
1000
0000
0200
0001
0320
0000
2030
0100
3020
0000
,  // measure 62
0031
0000
0010
0000
0100
0000
1000
0000
0200
0001
0320
0000
2030
0001
3020
0000
,  // measure 63
1030
0000
0100
0000
0001
0000
1000
0000
0020
0001
0230
0000
2300
0010
3200
0000
,  // measure 64
0301
0010
0001
0010
0100
1000
0100
1000
0000
0001
1000
0000
0010
0100
0010
0001
,  // measure 65
1000
0000
0100
0000
0010
0000
0001
0000
0100
0000
0000
1001
0000
0000
0001
0000
,  // measure 66
1000
0100
1000
0100
0001
1000
0001
1000
0000
0010
0100
0000
1000
0010
0100
0001
,  // measure 67
0010
0100
1000
0010
0100
0001
0100
0010
0000
1000
0001
0000
0010
0100
0000
0010
,  // measure 68
0001
0000
0100
0000
0010
0000
0001
1000
0000
0100
0010
0000
1000
0010
0000
0010
,  // measure 69
0000
0010
0100
0000
1000
0000
0001
0010
0000
1000
0100
0000
0010
0000
0000
0000
,  // measure 70
1000
0100
1000
0001
0010
0001
0100
0010
0000
0001
0100
0000
1000
0001
0000
0010
,  // measure 71
1000
0001
1000
0000
0100
0000
0001
0010
0000
1000
0100
0000
1001
0000
0000
0000
,  // measure 72
1001
0101
0011
0000
1001
1010
1100
0000
,  // measure 73
0001
0010
0100
1000
0001
0100
0110
0000
,  // measure 74
1001
0000
0010
0000
0100
0000
1000
0010
0100
0001
1000
0000
1000
0000
0100
0000
,  // measure 75
0010
0001
0010
0000
0001
0000
0100
1000
0001
0010
0100
0010
0001
0000
0100
0000
,  // measure 76
0010
0100
0010
0000
1000
0000
0001
0010
0100
0010
0001
0000
1000
0000
0100
0000
,  // measure 77
0010
1000
0010
0000
0001
0000
0010
0100
1000
0100
1000
0000
0001
0000
0100
0000
,  // measure 78
0010
0100
0010
1000
0100
0000
0001
0100
0010
1000
0001
0000
0100
0000
0001
0000
,  // measure 79
0001
0100
0010
1000
0100
0010
0001
0010
0100
1000
0001
0100
0010
1000
0100
0010
,  // measure 80
2002
0000
3000
0000
,  // measure 81
0003
0000
0000
0000
;
