#TITLE:Engraved Mark;
#SUBTITLE:;
#ARTIST:Ryu☆ ∞ Des-ROW;
#TITLETRANSLIT:;
#SUBTITLETRANSLIT:;
#ARTISTTRANSLIT:;
#GENRE:;
#CREDIT:;
#BANNER:;
#BACKGROUND:Engraved Mark-bg.png;
#LYRICSPATH:;
#CDTITLE:;
#MUSIC:Engraved Mark.ogg;
#OFFSET:0.000;
#SAMPLESTART:65.740;
#SAMPLELENGTH:15.000;
#SELECTABLE:YES;
#BPMS:0.000=188.000
;
#STOPS:
;
#BGCHANGES:;
#KEYSOUNDS:;
#ATTACKS:;

//---------------dance-single - ----------------
#NOTES:
     dance-single:
     :
     Challenge:
     18:
     1.000,1.000,0.273,0.167,1.000,784.000,31.000,19.000,0.000,0.000,0.000,1.000,1.000,0.273,0.167,1.000,784.000,31.000,19.000,0.000,0.000,0.000:
0000
0000
0000
0000
,
0000
0000
0000
0000
,
0000
0000
0000
0000
,
0000
0000
0000
0000
,
0000
0000
0000
0000
,
0000
0000
0000
0000
,
2002
3003
0100
0001
0100
0010
1000
0000
,
0001
0010
0100
1000
0000
1000
0010
0100
,
0001
0010
0001
1000
0010
0100
0001
0010
,
2000
0100
3200
0000
0302
0010
0023
0000
,
1030
0000
1100
0000
0110
0000
0001
0100
0010
0001
0100
0010
2000
0000
3002
0000
,
0013
0000
0101
0000
0101
0000
0010
0000
1000
0000
0100
0010
0001
1000
0010
0000
,
0100
0001
0100
0000
0100
1000
0100
0000
0100
0001
0100
0000
0100
1000
0100
0000
,
0010
0001
0010
0000
0010
1000
0010
0000
0010
0001
0010
0000
0010
1000
0010
0000
,
1000
0100
0010
0001
0100
0000
0010
0000
1000
0000
0100
0000
0010
0000
0010
0000
,
1000
0100
0010
0001
1000
0000
0001
0000
0001
0000
0100
0000
0010
0000
0010
0000
,
1000
0100
1000
0100
0010
0001
0010
0001
0100
0001
0100
0001
0010
0100
0010
0100
,
1000
0010
0100
0001
0010
0100
0010
0100
1000
0010
0100
0001
1000
0100
0010
0001
,
0200
0000
0000
0000
,
0000
0000
0000
0000
,
0000
0000
0000
0000
,
0000
0000
0000
0000
,
0310
0000
0000
0000
0001
0000
0100
0000
0120
0000
0000
0000
1030
0010
0100
0010
,
1000
0000
0000
0000
0100
0000
0000
0000
1000
0100
0010
0001
1000
0100
0010
0001
,
1000
0000
0000
0000
0001
0000
0100
0000
0120
0000
0000
0000
0031
0010
0100
0010
,
0001
0000
0000
0000
1000
0000
0000
0000
0100
0001
1000
0010
0100
0001
1000
0010
,
0100
0000
0000
0000
0010
0000
0100
0000
1200
0000
0000
0000
1300
0100
0010
0001
,
0010
0000
0100
0000
0010
0000
0100
0000
0001
1000
0010
0100
0001
1000
0100
0010
,
0100
0000
0000
0000
1000
0000
0100
0000
0210
0000
0000
0000
0310
0100
0001
0100
,
0010
0000
0000
0000
1000
0100
1000
0100
1000
0000
0000
0000
0010
0100
0001
0100
,
0001
0000
0010
0000
0001
0000
1000
0000
0010
0000
0100
0000
0001
0010
0100
0010
,
0001
0000
1000
0000
0010
0000
0100
0000
1000
0010
0100
0001
0100
0010
0100
0001
,
0010
0000
0100
0000
0001
0000
0100
0000
0010
0000
1000
0000
0010
0100
1000
0100
,
0010
0000
0001
0000
0100
0000
0001
0000
0010
0100
1000
0100
0010
0001
1000
0100
,
0010
0000
0001
0010
0100
1000
0100
0000
1000
0000
0100
1000
0000
0000
1000
0100
,
0000
0000
0100
0001
0000
0000
0001
0010
0100
0000
0001
0000
0100
0000
0100
0000
,
1000
0000
0000
0000
0001
0000
0010
0000
0100
0010
0100
0010
0100
1000
0100
1000
,
0100
0000
0010
0000
1000
0000
0100
0000
0010
1000
0001
1000
0100
1000
0001
1000
,
0010
0000
1000
0100
0001
0000
0001
0100
0000
0000
0100
1000
0000
0000
1000
0100
,
0000
0000
0100
0001
0000
0000
0000
0000
0000
0000
0000
0000
0000
0000
0000
0000
,
0100
0000
0010
0001
0100
0000
0010
1000
0000
0000
1000
0100
0000
0000
0100
0010
,
0000
0000
0000
1000
0010
0100
0001
1000
,
0100
0000
0010
0001
0100
0000
0010
1000
0000
0000
1000
0100
0000
0000
0100
0010
,
0002
0000
1000
0020
0000
0000
0033
0000
,
1000
0000
0100
1000
0010
0000
0100
0001
0000
0000
0100
0010
0000
0000
0100
1000
,
0000
0000
0100
0010
0000
0000
1000
0010
0001
0000
1000
0000
0100
0000
0001
0000
,
0011
0001
0100
0010
1000
0001
0100
1000
,
1100
0100
0001
1000
0010
0100
0001
0010
,
0011
0001
0101
0100
0110
0010
1010
1000
,
0001
0010
0100
1000
0010
0100
0001
0010
0100
1000
0010
0100
0001
0010
0100
1000
,
0000
0000
0000
0000
,
1000
0100
0010
0100
1000
0010
0100
0010
1000
0100
0010
0100
1000
0000
0000
0000
,
0001
0000
0010
0001
0100
0000
0010
1000
0001
1000
0100
0000
0010
0000
0100
0000
,
0010
0000
1000
0001
0100
0000
0010
1000
0001
1000
0100
0000
0010
0000
0001
0000
,
0100
0000
0010
0001
0100
0000
0010
0001
0010
0100
0010
0000
0100
1000
0100
0010
,
0100
0000
0000
0000
1001
0000
0100
0000
0010
0000
0100
0000
0010
0100
0010
0100
,
1000
0000
0000
0000
1010
0000
0010
1000
0100
0010
0100
0000
0010
0001
0100
0010
,
0100
0000
0010
1000
0001
0000
0010
0000
0100
0001
1000
0001
0010
0001
1000
0001
,
0100
0000
0010
0000
0010
0000
1000
0001
0100
0010
1000
0000
0100
0010
0001
0000
,
0010
0100
1000
0100
0010
0001
0100
0010
1000
0001
0010
0100
0010
0000
0000
0000
,
1000
0100
1000
0100
0010
0000
0001
1000
0001
0010
0001
0000
0100
0010
1000
0010
,
0100
0000
0010
1000
0100
0000
0010
0001
1000
0010
0100
0000
0010
0100
0010
0100
,
1000
0000
0000
1100
0000
0000
0110
0000
0000
0011
0000
0000
0101
0000
1010
0000
,
1001
0001
0010
0100
1000
0001
1001
0000
,
1000
0100
1000
0001
0100
0001
0100
0000
1000
0000
0100
0000
0010
0001
0100
0010
,
1000
0000
0100
1000
0001
0000
0100
0000
0001
1000
0100
0000
0010
0000
0010
0000
,
1000
0100
1000
0100
1000
0100
1000
0100
1000
0100
0010
0001
0010
0100
0010
0001
,
1000
0010
1000
0010
1000
0010
1000
0010
1000
0010
1000
0010
0100
0001
0010
0000
,
1000
0100
0010
0001
1000
0000
1000
0010
0100
0001
0010
0000
0010
1000
0001
1000
,
0100
1000
0100
0010
0001
0000
0001
0010
0001
1000
0100
0000
0100
0010
0001
0010
,
0100
1000
0100
0010
0100
0000
0100
1000
0001
1000
0010
0000
0010
0001
0010
0100
,
0010
1000
0010
0100
0010
0000
0010
1000
0001
0000
0001
0000
0001
1000
0001
1000
,
0001
0000
0001
0000
0010
0000
1000
0001
0010
0100
0010
0000
0010
1000
0001
1000
,
0100
0000
0100
0001
0100
0000
0100
0010
0001
0010
0001
0000
0001
1000
0001
1000
,
0100
0000
0010
0000
1010
0000
0001
0100
0010
1000
0010
0000
0100
0001
1000
0000
,
0010
0001
0100
0010
1000
0000
0100
0000
0010
0000
0100
0000
1001
0000
0000
0000
,
0010
0001
0010
0100
0010
0000
1000
0100
0001
1000
0010
0000
0100
0010
1000
0100
,
0010
0001
0100
0010
1000
0000
0100
1000
0001
0010
0100
0000
0010
1000
0100
0010
,
0001
0000
0010
0001
1000
0001
0010
0001
1000
0000
0010
0100
1000
0100
0010
0100
,
1000
0000
0001
0100
0010
1000
0100
0000
1001
0000
0000
0000
0110
0000
0000
0000
,
2002
0000
3003
0000
0102
0000
0013
0100
1000
0000
0010
0100
0001
0000
0001
0010
,
0200
0000
0300
0000
0110
0000
0010
1000
0001
0000
0001
0010
0100
0000
1000
0000
,
0100
1000
0100
1000
0100
0010
0100
0010
0001
0010
0001
0010
0001
1000
0001
1000
,
0100
0010
0001
0100
0010
1000
0100
0010
0001
0100
0010
1000
0100
0010
0001
1000
,
0001
0000
0000
0000
;

//---------------dance-double - ----------------
#NOTES:
     dance-double:
     :
     Hard:
     16:
     0.725,0.886,0.114,0.053,0.475,558.000,13.000,6.000,0.000,0.000,0.000,0.725,0.886,0.114,0.053,0.475,558.000,13.000,6.000,0.000,0.000,0.000:
00000000
00000000
00000000
00000000
,
00000000
00000000
00000000
00000000
,
00000000
00000000
00000000
00000000
,
00000000
00000000
00000000
00000000
,
00000000
00000000
00000000
00000000
,
00000000
00000000
00000000
00000000
,
00000010
00000000
00001001
00000100
00000010
00000001
00000100
00000010
,
00000100
00001000
00010000
01000000
10000000
00100000
01000000
00000000
,
00020000
00100000
00000000
00001000
00000000
00100000
00000000
00001000
,
00030000
00000000
00100000
00000000
00001000
00000000
00010000
00000000
00000010
00001000
00000010
00000000
00001000
00000000
00000100
00000000
,
00000010
00000000
00000000
00000000
00000001
00000000
00001000
00000010
00001000
00000010
00001000
00000010
00001000
00000000
00000100
00000000
,
00000010
00000000
00000100
00010000
00001000
00100000
00010000
00000000
,
02000000
00001000
00000000
00100000
00000000
00001000
00000000
00100000
,
00000000
00001000
00000000
03100000
10000000
01000000
00100000
00000000
,
00010000
01000000
00010000
01000000
00100000
00000000
00000000
00000000
00010000
00000000
00000000
00000000
00001000
00000000
00000000
00000000
,
00000010
00000100
00000010
00000100
00001000
00000000
00000000
00000000
00000001
00000000
00000000
00000000
00000010
00000000
00000000
00000000
,
00000100
00000010
00000001
00000000
00000100
00000000
00000010
00000000
00001000
00000000
00000100
00000000
00000010
00000000
00000100
00000000
,
00010000
00001000
00010000
00000000
00001000
00000000
00100000
00000000
01000000
00000000
10000000
00000000
00010000
00000000
01000000
00000000
,
00200000
00000000
00000000
00000000
,
00000000
00000000
00000000
00000000
,
00000000
00000000
00000000
00000000
,
00000000
00000000
00000000
00000000
,
01300000
00000000
00000000
00000000
00100000
00000000
10000000
00000000
01000000
00000000
00000000
00000000
00100000
00010000
00100000
00010000
,
10000000
00000000
00000000
00000000
00010000
00000000
00000000
00000000
01000000
00001000
01000000
00001000
01000000
00001000
01000000
00001000
,
00010000
00000000
00000000
00000000
00000100
00000000
00000100
00000000
00000100
00000000
00000000
00000000
00000010
00000100
00000010
00000100
,
00001000
00000000
00000000
00000000
00000010
00000000
00000000
00000000
00000100
00000001
00000100
00000001
00000100
00000001
00000100
00000001
,
00001000
00000000
00000000
00000000
00000001
00000000
00000001
00000000
00000001
00000000
00000000
00000000
00000010
00001000
00000010
00001000
,
00000010
00000000
00000000
00000000
00001000
00000000
00000000
00000000
00010000
00001000
00010000
00001000
00010000
00001000
00010000
00001000
,
01000000
00000000
00000000
00000000
00100000
00000000
00100000
00000000
00100000
00000000
00000000
00000000
10000000
00010000
10000000
00010000
,
10000000
00000000
00000000
00000000
01000000
00000000
00000000
00000000
00100000
00010000
00100000
00000000
01000000
00000000
00000000
00000000
,
10000000
00000000
00000000
00000000
00010000
00000000
00010000
00000000
00010000
00000000
00000000
00000000
00100000
00001000
00100000
00001000
,
00010000
00000000
00000000
00000000
00000010
00000000
00000000
00000000
00000100
00000001
00000100
00000001
00000100
00000001
00000100
00000001
,
00001000
00000000
00000000
00000000
00000100
00000000
00000100
00000000
00000100
00000000
00000000
00000000
00000010
00000100
00000010
00000100
,
00001000
00000000
00000000
00000000
00000010
00000000
00000000
00000000
00000100
00000010
00000100
00000010
00000100
00000010
00000100
00000010
,
00001000
00000000
00000000
00000000
00010000
00000000
00010000
00000000
00010000
00000000
00000000
00000000
01000000
00100000
01000000
00100000
,
01000000
00000000
00000000
00000000
00010000
00000000
00000000
00000000
10000000
01000000
10000000
01000000
10000000
01000000
10000000
01000000
,
00100000
00000000
00000000
00000000
00010000
00000000
00010000
00000000
00010000
00000000
00000000
00000000
01000000
00010000
01000000
00010000
,
01000000
00000000
00000000
00000000
00100000
00000000
00000000
00000000
10000000
00010000
10000000
00000000
01000000
00000000
00000000
00000000
,
10000000
01000000
00010000
00001000
00000000
00001000
00000000
00002000
,
00000000
00000000
00000000
00003000
,
00010000
00001000
00000100
00000001
00000000
00000001
00000000
00000002
,
00000000
00000000
00000000
00000003
,
00001000
00000001
00000010
00000100
00000000
00000100
00000000
00000200
,
00000000
00000000
00000000
00000300
,
00000010
00001000
00010000
00001000
00000000
00001000
00000000
00001000
,
00000000
00001000
00000000
00001000
00010000
00100000
10000000
01000000
,
00100000
00010000
01000000
00100000
00000000
00100000
00000000
00100000
,
00010000
00001000
00010000
00000100
00000000
00000100
00001000
00000100
,
00000010
00000001
00000100
00000010
00001000
00000100
00000010
00000001
,
00001000
00000010
00001000
00000010
00001000
00000010
00001000
00000010
00010000
00001000
00010000
00001000
00010000
00001000
00010000
00001000
,
00000000
00000000
00000000
00000000
,
00110000
00000000
11000000
00000000
00100000
00010000
01000000
00100000
,
10000000
00000000
01000000
10000000
01000000
00000000
00100000
00000000
01000000
00100000
01000000
00000000
00010000
00000000
00001000
00000000
,
00010000
00000000
00000010
00001000
00000010
00000000
00001000
00000000
00000001
00000100
00000001
00000000
00001000
00000000
00000000
00000000
,
00000001
00000000
00001000
00000100
00001000
00000000
00000001
00000000
00000100
00000010
00000100
00000000
00000001
00000000
00001000
00000000
,
00000100
00000000
00000010
00000000
00001000
00001000
00001000
00001000
,
00010000
00000000
00110000
01000000
10000000
00010000
01000000
00100000
,
01000000
00000000
00010000
01000000
00010000
00000000
10000000
00000000
01000000
00100000
01000000
00000000
00010000
00000000
00000000
00000000
,
00001000
00000000
00100000
00010000
00100000
00000000
00001000
00000000
01000000
00010000
01000000
00000000
00001000
00000000
00000000
00000000
,
00010000
00000000
00000010
00000000
00000100
00000001
00000010
00000100
,
00001000
00000000
00000001
00000100
00000001
00000000
00001000
00000000
00000100
00010000
00000100
00000000
00010000
00000000
00001000
00000000
,
00100000
00000000
00010000
00100000
00010000
00000000
10000000
00000000
00010000
01000000
00010000
00000000
10000000
00000000
00000000
00000000
,
10100000
00000000
00000000
01100000
00000000
00000000
10100000
00000000
00000000
01100000
00000000
00000000
00010000
00000000
10000000
00000000
,
01000000
00000000
00010000
00000000
00001000
00010000
00001000
00000000
,
00000100
00000000
00001001
00000100
00000010
00000001
00000100
00000010
,
00000100
00000000
00001001
00000010
00010000
00001000
00100000
00010000
,
10000000
00000000
00100000
01000000
00000000
00010000
00100000
01000000
,
10000000
00100000
01000000
00010000
00001000
00000010
00000100
00000000
,
00000001
00000000
00000100
00000001
00000100
00000000
00000010
00000000
00000100
00000010
00000100
00000000
00001000
00000000
00010000
00000000
,
00001000
00000000
00100000
00010000
00100000
00000000
00010000
00000000
10000000
01000000
10000000
00000000
00010000
00000000
00000000
00000000
,
10000000
00000000
00010000
01000000
00000000
00000000
00100000
10000000
00000000
00000000
01000000
10000000
00000000
00000000
00010000
00100000
,
00000000
00000000
00001000
00010000
00000000
00000000
00000010
00001000
00000001
00000000
00000001
00000000
00000001
00000000
00000001
00000000
,
00001000
00000000
00001010
00000100
00000001
00001000
00000100
00000010
,
00000100
00000000
00001000
00000100
00001000
00000000
00000001
00000000
00000100
00000010
00000100
00000000
00001000
00000000
00000000
00000000
,
00010000
00000000
00000010
00001000
00000010
00000000
00010000
00000000
00000100
00001000
00000100
00000000
00010000
00000000
00000000
00000000
,
00001000
00000000
00100000
00000000
01000000
10000000
00100000
01000000
,
00010000
00000000
10000000
01000000
10000000
00000000
00010000
00000000
01000000
00001000
01000000
00000000
00001000
00000000
00010000
00000000
,
00000010
00000000
00001000
00000010
00001000
00000000
00000001
00000000
00001000
00000100
00001000
00000000
00000001
00000000
00000000
00000000
,
00000010
00000000
00000100
00001000
00000000
00000000
00001000
00010000
00000000
00000000
00010000
00100000
00000000
00000000
01000000
10000000
,
00000000
00000000
00010000
01000000
00000000
00000000
00100000
10000000
00010000
00000000
10000000
00000000
00010000
00000000
00000000
00000000
,
01000000
00000000
10010000
01000000
00100000
10000000
01000000
00100000
,
01000000
00000000
10010000
00100000
00001000
00010000
00000010
00001000
,
00000001
00000010
00000001
00000010
00000001
00000010
00000100
00001000
00000100
00001000
00000100
00001000
00000100
00001000
00000100
00001000
,
00000001
00000000
00000100
00001000
00010000
00100000
10000000
00010000
,
00100000
00000000
00000000
00000000
;

//---------------dance-double - ----------------
#NOTES:
     dance-double:
     :
     Challenge:
     18:
     0.967,1.000,0.158,0.088,1.000,742.000,18.000,10.000,0.000,0.000,0.000,0.967,1.000,0.158,0.088,1.000,742.000,18.000,10.000,0.000,0.000,0.000:
00000000
00000000
00000000
00000000
,
00000000
00000000
00000000
00000000
,
00000000
00000000
00000000
00000000
,
00000000
00000000
00000000
00000000
,
00000000
00000000
00000000
00000000
,
00000000
00000000
00000000
00000000
,
10010000
00000000
10000000
01000000
00100000
00001000
00010000
00100000
,
00010000
00000010
00001000
00000001
00000100
00001000
00000100
00010000
,
01000000
00010000
00001000
00100000
01000000
10000000
00100000
01000000
,
00010000
00101000
00001000
00010010
,
00010000
00000000
00001000
00000000
01000000
00000000
00010000
00001000
00100000
00010000
01000000
00000000
10000000
00000000
00000000
00000000
,
00100000
00000000
00010000
00000000
00001000
00000000
00000100
00000000
00000010
00000000
00000100
00010000
00001000
01000000
00010000
00000000
,
10000000
01000000
00010000
00000000
00010000
00001000
00000100
00000000
00000100
00000001
00000100
00000000
00000100
00001000
00010000
00000000
,
00010000
01000000
10000000
00000000
10000000
00100000
00010000
00000000
00010000
00001000
00010000
00000000
00010000
00001000
00000010
00000000
,
00000011
00000000
00000010
00000100
00001000
00010000
00001000
01000000
,
01100000
00000000
10000000
01000000
00010000
00001000
00000010
00001000
,
00000010
00000001
00000100
00000000
00000010
00001000
00000100
00000000
00010000
00001000
01000000
00000000
00100000
10000000
01000000
00000000
,
10000000
00100000
01000000
00010000
00100000
00001000
00010000
00000100
00001000
00000010
00000100
00000001
00001000
00000000
00010000
00000000
,
20020000
00000000
00000000
00000000
,
00000000
00000000
00000000
00000000
,
00000000
00000000
00000000
00000000
,
00000000
00000000
00000000
30030000
,
00001000
00000000
00000000
00000000
00000100
00000000
00001000
00000000
00000001
00000000
00000000
00000000
00000010
00001000
00000100
00010000
,
00001000
00000000
00000000
00000000
00100000
00000000
00000000
00000000
10000000
01000000
00100000
00010000
00001000
00000100
00000010
00000001
,
00001000
00000000
00000000
00000000
00010000
00000000
00000100
00000000
00000010
00000000
00000000
00000000
00000100
00000010
00000001
00000010
,
00000100
00000000
00000000
00000000
00000010
00000000
00000000
00000000
00000001
00000010
00000100
00001000
00010000
00100000
01000000
10000000
,
00010000
00000000
00000000
00000000
00100000
00000000
01000000
00000000
00010000
00000000
00000000
00000000
00100000
00001000
00010000
00000010
,
00001000
00000000
00000000
00000000
00000100
00000000
00000000
00000000
00000010
00001000
00000100
00010000
00001000
00100000
00010000
01000000
,
00100000
00000000
00000000
00000000
10000000
00000000
01000000
00000000
00010000
00000000
00000000
00000000
01000000
00100000
00010000
00001000
,
00010000
00000000
00000000
00000000
10000000
00000000
00000000
00000000
01000000
00010000
00100000
00001000
00010000
00000100
00001000
00000010
,
00000100
00000000
00000000
00000000
00000001
00000000
00001000
00000000
00010000
00000000
00000000
00000000
00010000
01000000
00100000
10000000
,
01000000
00000000
00000000
00000000
00100000
00000000
00000000
00000000
00100000
00010000
01000000
00001000
00010000
00000010
00001000
00000100
,
00000010
00000000
00000000
00000000
00000001
00000000
00001000
00000000
00000010
00000000
00000000
00000000
00010000
00001000
01000000
00010000
,
00100000
00000000
00000000
00000000
00010000
00000000
00000000
00000000
00001000
00010000
00001000
00100000
00010000
01000000
00100000
10000000
,
01000000
00000000
00100000
00010000
10000000
00100000
01000000
00000000
10000000
00000000
11000000
00000000
00000000
00000000
01000000
00010000
,
00000000
00000000
00010000
00001000
00000000
00000000
00001000
00000100
00000010
00000000
00000001
00000000
00000100
00000000
00001000
00000000
,
00010000
00000000
00000000
00000000
00001000
00000000
00000000
00000000
00010000
00000010
00001000
00000100
00000010
00000001
00000100
00000010
,
00001000
00000000
00000000
00000000
00001000
00000000
00000000
00000000
00100000
01000000
00010000
01000000
00010000
00100000
01000000
00010000
,
00001000
00000000
00100000
00000000
00010000
00000000
10000000
01000000
00000000
00000000
00100000
00010000
00000000
00000000
00001000
00000010
,
00000000
00000000
00000100
00000001
00000000
00000000
00000000
00000000
00000000
00000000
00000000
00000000
00000000
00000000
00000000
00000000
,
00010000
00000000
00000010
00000000
00001000
00000000
00000001
00000100
00000000
00000000
00000010
00001000
00000000
00000000
00010000
00100000
,
00000000
00000000
01000000
10000000
00000000
00000000
00000000
00000000
00000000
00000000
00000000
00000000
00000000
00000000
00000000
00000000
,
01000000
00000000
00100000
00000000
01000000
00000000
10100000
00000000
00000000
00000000
10000000
01000000
00000000
00000000
01000000
00100000
,
00010000
00000000
00000010
00022000
00000000
00000000
00033000
00000000
,
10000000
00000000
01000000
00100000
00010000
00000000
00010000
00001000
00000000
00000000
00000010
00001000
00000000
00000000
00000100
00000010
,
00000000
00000000
00000001
00000010
00000000
00000000
00000100
00001000
00010000
00000000
00001000
00000000
00100000
00000000
00010000
00000000
,
00001000
00100000
00010000
10000000
01000000
00010000
00001000
00000010
,
00000001
00000100
00000010
00001000
00000100
00010000
00001000
00100000
,
00001000
01000000
00010000
00100000
10000000
00010000
01000000
10000000
,
01000000
00010000
00100000
00001000
00010000
00000100
00001000
00000010
00001000
00000100
00010000
00001000
00100000
00010000
01000000
00100000
,
00000000
00000000
00000000
00000000
,
10010000
00000000
02100000
03002000
00023000
00030020
00002030
00003200
,
00010300
00000000
00001000
00010000
00001000
00000000
00100000
00010000
00100000
00010000
00100000
00000000
00010000
00000000
01000000
00000000
,
00100000
00000000
10000000
01000000
10000000
00000000
01000000
10000000
01000000
10000000
01000000
00000000
00010000
00000000
00001000
00000000
,
00000010
00000000
00000100
00000001
00000100
00000000
00001000
00010000
00001000
00010000
00001000
00000000
00100000
00010000
00100000
00010000
,
01000000
00000000
00000000
00000000
10010000
00000000
01000000
00000000
00010000
00000000
00001000
00000000
00000100
00001000
00000001
00000000
,
00000010
00000000
00000000
00000000
00011000
00000000
00001000
00010000
00001000
00010000
00001000
00000000
00010000
00100000
00010000
00100000
,
00010000
00000000
00100000
00010000
01000000
00000000
00100000
00000000
10000000
00100000
10000000
00010000
10000000
01000000
10000000
00010000
,
10000000
00000000
00100000
00000000
00100000
00000000
01000000
00010000
00100000
00001000
00010000
00000000
00001000
00010000
00001000
00000000
,
01000000
00100000
01000000
00100000
00010000
00001000
00010000
00001000
00000100
00000010
00000100
00000010
00001000
00000000
00000000
00000000
,
00010000
00000000
00001000
00010000
00001000
00000000
00000100
00001000
00000100
00001000
00000100
00000000
00000001
00000000
00000010
00000000
,
00000100
00000000
00001000
00010000
00001000
00000000
00010000
00100000
00010000
00100000
00010000
00000000
00100000
00000000
01000000
00000000
,
10000000
00000000
01000000
00010000
00000000
00001000
00000010
00000000
00000001
00000100
00000000
00000010
00001000
00000000
00000100
00000000
,
00011000
00000000
00100000
00001000
00100000
01000000
10000000
00010000
,
10000000
01000000
10000000
01000000
00100000
00000000
00010000
00000000
00001000
00000000
00100000
00000000
10000000
00010000
00100000
01000000
,
00100000
00000000
00010000
00100000
01000000
00000000
00100000
00000000
01000000
00100000
10000000
00000000
00100000
00000000
01000000
00000000
,
10000000
01000000
00100000
00010000
01000000
00100000
10000000
00010000
01000000
00001000
00010000
00000010
00001000
00000001
00000010
00000100
,
00001000
00010000
00001000
00100000
00010000
01000000
00001000
00010000
00000100
00001000
00000010
00000100
00000001
00001000
00000100
00000000
,
00010000
00001000
00010000
00001000
01000000
00000000
01000000
00010000
00001000
00010000
01000000
00000000
01000000
10000000
00010000
10000000
,
01000000
10000000
00010000
00100000
01000000
00000000
01000000
00100000
00010000
00001000
00010000
00000000
00010000
00001000
00010000
00001000
,
00000100
00000010
00001000
00000010
00000100
00000000
00000100
00001000
00010000
00100000
00010000
00000000
00010000
00100000
01000000
10000000
,
01000000
00100000
00010000
01000000
00100000
00000000
00100000
01000000
10000000
00000000
10000000
00000000
10000000
01000000
10000000
00100000
,
01000000
00000000
00010000
00000000
00100000
00000000
00010000
00001000
00000010
00000000
00000100
00000000
00000001
00000010
00000100
00001000
,
00000100
00000000
00000100
00010000
00001000
00000000
00001000
00100000
00010000
01000000
00100000
00000000
10000000
00100000
01000000
00010000
,
00100000
00000000
00001000
00000000
00010000
00000000
00000010
00001000
00000100
00010000
00001000
00000000
00000100
00000010
00000001
00000000
,
00000100
00000010
00001000
00000001
00000100
00000000
00000010
00000000
00010000
00000000
00001000
00000000
00110000
00000000
00000000
00000000
,
00100000
01000000
00100000
00010000
00100000
00000000
10000000
01000000
00100000
00010000
01000000
00000000
00100000
00001000
00010000
00000010
,
00001000
00000100
00000010
00000001
00001000
00000000
00000010
00001000
00000001
00001000
00000100
00000000
00010000
00001000
00100000
00010000
,
01000000
00000000
00010000
00100000
00010000
00100000
01000000
00100000
01000000
00000000
10000000
00100000
10000000
00100000
01000000
00100000
,
01000000
00000000
00100000
00010000
00001000
00010000
00001000
00000000
00010100
00000000
00001000
00000000
00001100
00000000
00000000
00000000
,
00011000
00000000
00000000
00000000
00001000
00000000
00100000
01000000
00010000
00000000
00100000
01000000
10000000
00000000
01000000
00100000
,
00010000
00000000
00001000
00010000
00000100
00000000
00001000
00000010
00000100
00000000
00000001
00000010
00000100
00000000
00001000
00000000
,
00000001
00000010
00000100
00001000
00000010
00000100
00000001
00001000
00000100
00010000
00001000
00100000
00010000
10000000
00100000
01000000
,
00010000
10000000
01000000
00100000
01000000
10000000
00010000
01000000
00001000
00010000
00000010
00001000
00000001
00000100
00000010
00001000
,
00000100
00000000
00000000
00000000
;

//---------------dance-single - ----------------
#NOTES:
     dance-single:
     :
     Hard:
     16:
     0.732,0.886,0.149,0.035,0.501,562.000,17.000,4.000,0.000,0.000,0.000,0.732,0.886,0.149,0.035,0.501,562.000,17.000,4.000,0.000,0.000,0.000: // measure 0
0000
0000
0000
0000
,  // measure 1
0000
0000
0000
0000
,  // measure 2
0000
0000
0000
0000
,  // measure 3
0000
0000
0000
0000
,  // measure 4
0000
0000
0000
0000
,  // measure 5
0000
0000
0000
0000
,  // measure 6
0010
0000
1001
0100
0010
1000
0100
0010
,  // measure 7
0001
0010
0001
0010
0100
1000
0100
0000
,  // measure 8
0101
1000
0000
0010
0000
0001
0000
0100
,  // measure 9
0000
0000
0010
0000
1000
0000
0010
0000
0100
0010
0100
0000
0001
0000
0100
0000
,  // measure 10
0010
0000
0000
0000
0010
0000
1000
0100
1000
0001
0100
0001
1000
0000
0001
0000
,  // measure 11
0010
0000
0001
0010
0100
1000
0100
0000
,  // measure 12
1010
0100
0000
0001
0000
0010
0000
1000
,  // measure 13
0000
0100
0000
0010
0001
1000
0001
0000
,  // measure 14
0100
0010
0100
0010
1000
0000
0000
0000
0100
0000
0000
0000
0100
0000
0000
0000
,  // measure 15
0010
0001
0010
0001
1000
0000
0000
0000
0010
0000
0000
0000
0010
0000
0000
0000
,  // measure 16
0100
0010
1000
0000
0100
0000
0010
0000
0001
0000
0100
0000
0010
0000
1000
0000
,  // measure 17
0001
1000
0100
0000
0010
0000
0001
0000
1000
0000
0010
0000
0100
0000
0001
0000
,  // measure 18
2000
0000
0000
0000
,  // measure 19
0000
0000
0000
0000
,  // measure 20
0000
0000
0000
0000
,  // measure 21
0000
0000
0000
0000
,  // measure 22
3001
0000
0000
0000
0010
0000
0010
0000
0010
0000
0000
0000
1000
0100
1000
0100
,  // measure 23
0010
0000
0000
0000
0001
0000
0000
0000
0100
0001
0100
0001
0100
0001
0100
0001
,  // measure 24
1000
0000
0000
0000
0010
0000
0010
0000
0010
0000
0000
0000
0010
0100
0010
0100
,  // measure 25
0001
0000
0000
0000
0010
0000
0000
0000
0100
1000
0100
1000
0100
1000
0100
1000
,  // measure 26
0001
0000
0000
0000
1000
0000
1000
0000
1000
0000
0000
0000
0010
0100
0010
0100
,  // measure 27
0010
0000
0000
0000
1000
0000
0000
0000
0001
0010
0001
0010
0001
0010
0001
0010
,  // measure 28
0100
0000
0000
0000
1000
0000
1000
0000
1000
0000
0000
0000
0001
0100
0001
0100
,  // measure 29
0001
0000
0000
0000
1000
0000
0000
0000
0001
1000
0100
0000
0010
0000
0000
0000
,  // measure 30
0100
0000
0000
0000
1000
0000
1000
0000
1000
0000
0000
0000
0001
0100
0001
0100
,  // measure 31
0010
0000
0000
0000
1000
0000
0000
0000
0100
1000
0100
1000
0100
1000
0100
1000
,  // measure 32
0001
0000
0000
0000
0010
0000
0010
0000
0010
0000
0000
0000
0010
0100
0010
0100
,  // measure 33
1000
0000
0000
0000
0010
0000
0000
0000
0100
0001
0100
0001
0100
0001
0100
0001
,  // measure 34
1000
0000
0000
0000
0001
0000
0001
0000
0001
0000
0000
0000
0010
0100
0010
0100
,  // measure 35
0010
0000
0000
0000
0001
0000
0000
0000
1000
0010
1000
0010
1000
0010
1000
0010
,  // measure 36
0100
0000
0000
0000
0001
0000
0001
0000
0001
0000
0000
0000
1000
0100
1000
0100
,  // measure 37
1000
0000
0000
0000
0001
0000
0000
0000
1000
0001
0100
0000
0010
0000
0000
0000
,  // measure 38
1000
0001
0010
0100
0000
0100
0000
0200
,  // measure 39
0000
0000
0000
0300
,  // measure 40
1000
0001
0100
0010
0000
0010
0000
0020
,  // measure 41
0000
0000
0000
0030
,  // measure 42
1000
0001
0010
0100
0000
0100
0000
0200
,  // measure 43
0000
0000
0000
0300
,  // measure 44
1000
0001
0100
0010
0000
0010
0000
0010
,  // measure 45
0000
0010
0000
0010
1000
0010
0100
0010
,  // measure 46
1000
0001
0100
1000
0000
1000
0000
1000
,  // measure 47
0100
0001
1000
0100
0000
0100
0010
0100
,  // measure 48
1000
0100
0010
0001
1000
0100
0010
0001
,  // measure 49
1000
0010
1000
0010
1000
0010
1000
0010
0100
0001
0100
0001
0100
0001
0100
0001
,  // measure 50
0000
0000
0000
0000
,  // measure 51
1001
0000
0110
0000
0001
0100
0010
0100
,  // measure 52
0001
0000
1000
0100
1000
0000
0001
0000
1000
0010
1000
0000
0001
0000
1000
0000
,  // measure 53
0001
0000
0010
0100
0010
0000
0001
0000
0100
0010
0100
0000
0001
0000
0000
0000
,  // measure 54
1000
0000
0001
0100
0001
0000
1000
0000
0001
0010
0001
0000
1000
0000
0001
0000
,  // measure 55
1000
0000
0010
0000
0100
0100
0100
0100
,  // measure 56
0010
0000
0000
0000
1001
0000
0010
0000
0100
0001
0100
0000
0010
0000
1000
0000
,  // measure 57
0100
0000
1000
0100
1000
0000
0001
0000
0100
0001
0100
0000
0010
0000
0000
0000
,  // measure 58
1000
0000
0001
0010
0001
0000
1000
0000
0001
0100
0001
0000
1000
0000
0000
0000
,  // measure 59
0001
0000
0010
0000
0100
0010
0110
0000
,  // measure 60
1000
0000
0001
0100
0001
0000
1000
0000
0001
0010
0001
0000
1000
0000
0001
0000
,  // measure 61
1000
0000
0010
0100
0010
0000
1000
0000
0100
0010
0100
0000
1000
0000
0000
0000
,  // measure 62
0101
0000
0000
1100
0000
0000
0101
0000
0000
1100
0000
0000
0001
0000
1000
0000
,  // measure 63
0001
0000
0010
0000
0100
0010
0100
0000
,  // measure 64
0010
0000
0000
0000
1001
0000
0010
0000
0100
1000
0100
0000
0010
0000
0100
0000
,  // measure 65
0010
0000
0000
0000
1001
0000
0010
0000
0100
0001
0100
0000
0010
0000
1000
0000
,  // measure 66
0001
0000
1000
0001
0000
0010
0001
1000
,  // measure 67
0010
0100
0001
1000
0100
0010
1001
0000
,  // measure 68
0001
0000
1000
0010
1000
0000
0001
0000
1000
0100
1000
0000
0001
0000
1000
0000
,  // measure 69
0001
0000
0100
0010
0100
0000
0001
0000
0010
0100
0010
0000
0001
0000
0000
0000
,  // measure 70
1000
0000
0001
0010
0000
0000
0010
1000
0000
0000
1000
0100
0000
0000
0100
0001
,  // measure 71
0000
0000
0001
0010
0000
0000
0010
1000
0010
0000
0010
0000
0010
0000
0010
0000
,  // measure 72
0100
0000
0000
0000
1001
0000
0100
0000
0010
0001
0010
0000
0100
0000
1000
0000
,  // measure 73
0010
0000
1000
0010
1000
0000
0001
0000
0010
0001
0010
0000
0100
0000
0000
0000
,  // measure 74
1000
0000
0001
0100
0001
0000
1000
0000
0001
0010
0001
0000
1000
0000
0000
0000
,  // measure 75
0001
0000
0100
0010
0000
0100
0001
0000
,  // measure 76
1000
0000
0001
0010
0001
0000
1000
0000
0001
0100
0001
0000
1000
0000
0001
0000
,  // measure 77
1000
0000
0100
0010
0100
0000
1000
0000
0010
0100
0010
0000
1000
0000
0000
0000
,  // measure 78
0001
0000
0010
0001
0000
0000
0001
0100
0000
0000
0100
1000
0000
0000
1000
0010
,  // measure 79
0000
0000
0010
0001
0000
0000
0001
0100
0010
0000
0100
0000
0010
0000
0000
0000
,  // measure 80
0100
0000
0000
0000
1001
0000
0100
0000
0010
1000
0010
0000
0100
0000
0010
0000
,  // measure 81
0100
0000
0000
0000
1001
0000
0100
0000
0010
0001
0010
0000
0100
0000
1000
0000
,  // measure 82
0001
1000
0001
1000
0001
1000
0010
0100
0010
0100
0010
0100
0010
0100
0010
0100
,  // measure 83
0001
0000
1000
0010
0100
0001
1000
0100
,  // measure 84
0010
0000
0000
0000
;
