#TITLE:Empathetic;
#SUBTITLE:;
#ARTIST:Sota÷Des;
#TITLETRANSLIT:;
#SUBTITLETRANSLIT:;
#ARTISTTRANSLIT:;
#GENRE:;
#CREDIT:;
#BANNER:Empathetic.png;
#BACKGROUND:Empathetic-bg.png;
#LYRICSPATH:;
#CDTITLE:./CDTitles/DanceDanceRevolution 2013.png;
#MUSIC:Empathetic.ogg;
#OFFSET:0.000;
#SAMPLESTART:97.333;
#SAMPLELENGTH:15.000;
#SELECTABLE:YES;
#DISPLAYBPM:180.000;
#BPMS:0.000=180.017
;
#STOPS:
;
#BGCHANGES:;
#KEYSOUNDS:;
#ATTACKS:;

//---------------dance-single - ----------------
#NOTES:
     dance-single:
     :
     Easy:
     7:
     0.336,0.318,0.091,0.091,0.000,263.000,11.000,11.000,0.000,0.000,0.000,0.336,0.318,0.091,0.091,0.000,263.000,11.000,11.000,0.000,0.000,0.000:
0000
0000
0000
0000
,
0000
0000
0000
0000
,
0000
0000
0000
0000
,
0000
0000
0000
0000
,
0000
0000
0000
0000
,
1001
0000
0010
0000
0000
0100
1000
0000
,
0001
0100
0010
1000
,
0110
0000
0001
0000
0000
1000
0100
0000
,
0010
0001
0100
0001
,
1001
0000
0010
0000
0000
0100
0001
0000
,
1000
0100
0010
0001
,
0110
0000
1000
0000
0000
0001
0100
0000
,
0010
1000
0100
1000
,
0001
0000
0100
0000
0000
0010
0100
0000
,
0001
0100
0010
1000
,
0001
0000
0010
0000
0000
0100
0010
0000
,
0001
0010
0100
1000
,
0001
0000
0100
0000
0000
0001
1000
0000
,
0010
1000
0100
1000
,
0001
0000
0010
0000
0000
0100
0010
0000
,
0001
0010
1000
0100
,
0010
0000
0001
0000
0000
0100
0001
0000
,
2000
3100
0000
1100
,
0100
0010
0001
0010
,
0100
1000
0001
0100
,
0001
0000
0010
0000
0000
0001
0100
0000
,
0002
1003
0000
0110
,
0000
1000
0000
1000
0000
0001
0000
0001
,
0000
1000
0110
0000
,
0010
0000
1000
0000
0000
0100
1000
0000
,
0001
0000
0010
0000
0000
0100
0010
0000
,
0001
0100
1000
0010
,
0001
1000
0001
0000
,
0010
0001
0100
0000
,
0001
0000
1000
0000
,
0001
0010
0100
0010
,
1000
0001
1000
0000
,
0010
0100
0001
0001
,
0010
0100
1000
1000
,
0010
0100
0010
0010
,
1000
0001
0100
0000
,
0010
1000
0100
0010
,
0001
1000
0100
0000
,
1000
0001
0100
0001
,
0010
0100
1000
0010
,
1001
0000
0000
1000
,
0010
0000
0000
0100
,
0001
0000
1000
0000
,
0001
0000
0000
0100
,
0220
0000
0000
0330
,
2000
0000
0000
3000
,
0002
0000
0000
0003
,
0020
0000
0000
0030
,
0200
0000
0000
0300
,
2000
0000
0000
3000
,
0002
0000
0000
0003
,
0010
0001
1000
0000
,
0010
0000
1000
0000
0000
0010
0100
0000
,
0001
0100
0010
1000
,
0001
0000
0010
0000
0000
0100
1000
0000
,
0001
0100
1000
0100
,
0010
0000
0100
0000
0000
0010
0001
0000
,
1000
0001
0100
0010
,
1000
0000
0010
0000
0000
0100
0010
0000
,
1000
0001
0100
0000
,
0010
0000
0001
0000
0000
0010
0100
0000
,
1000
0100
0010
0001
,
1000
0000
0010
0000
0000
0100
0001
0000
,
1000
0100
0001
0100
,
0010
0000
0100
0000
0000
0010
1000
0000
,
0001
1000
0100
0010
,
0001
0000
0010
0000
0000
0100
0010
0000
,
0001
1000
0100
0000
,
0010
0000
0000
0010
0000
0000
0000
0000
,
0000
0001
0000
0000
1000
0000
0001
0000
,
0100
0000
0000
0100
0000
0000
0000
0000
,
0000
0010
0000
0000
1000
0000
0001
0000
,
0010
0000
0000
0010
0000
0000
0000
0000
,
0000
1000
0000
0000
0001
0000
1000
0000
,
0100
0000
0000
0100
0000
0000
0000
0000
,
0000
0010
0000
0000
0001
0000
1000
0000
,
0002
0000
0000
0003
,
0010
0000
0100
0010
,
1001
0000
0010
0010
,
0001
0000
0000
0010
0000
0000
0100
0000
,
1000
0010
0100
1001
;

//---------------dance-single - ----------------
#NOTES:
     dance-single:
     :
     Medium:
     11:
     0.523,0.495,0.132,0.091,0.062,417.000,16.000,11.000,0.000,0.000,0.000,0.523,0.495,0.132,0.091,0.062,417.000,16.000,11.000,0.000,0.000,0.000:
0000
0000
0000
0000
,
0000
0000
0000
0000
,
0000
0000
0000
0000
,
0000
0000
0000
0000
,
0000
0000
0000
0000
,
1001
0000
0010
0001
0000
0100
0001
0000
,
1000
0100
0010
0001
0100
0010
1000
0000
,
0110
0000
1000
0001
0000
0100
0010
0000
,
1000
0100
0010
0001
0010
0100
1000
0000
,
1100
0000
0010
0100
0000
1000
0001
0000
,
0010
0001
1000
0010
0100
0001
0010
0000
,
0101
0000
1000
0010
0000
0100
0001
0000
,
1000
0001
0100
0010
1000
0100
0010
0000
,
0100
0000
1000
0010
0000
0100
0010
0000
,
1000
0100
0010
0001
1000
0001
0100
0000
,
0001
0000
0010
0100
0000
0010
0001
0000
,
0100
0010
1000
0100
0010
0100
1000
0000
,
0001
0000
0010
0001
0000
0100
0001
0000
,
1000
0010
0100
0001
1000
0100
0010
0000
,
0100
0000
0001
0100
0000
1000
0100
0000
,
0010
0001
1000
0100
1000
0010
0100
0000
,
0010
0000
1000
0010
0000
0010
0100
0000
,
0001
0001
0001
0100
0000
0100
0001
0000
,
0100
0000
0010
0000
0000
1000
0010
0000
,
0100
0001
1000
0100
0000
0010
0001
0000
,
1000
0000
0010
1000
0000
1000
0100
0000
,
1000
1000
1000
0100
0000
0100
0010
0000
,
0000
0011
0000
1100
0000
1010
0000
0101
,
0000
1000
0001
0010
0001
1000
0000
0000
,
0010
0000
0100
0001
0000
0001
0100
0000
,
0010
0000
0000
1000
0000
0000
0001
0000
0000
0000
0010
0000
0100
0000
0000
0000
,
0010
0000
0001
0000
0000
0100
0001
0000
,
1000
0100
0010
0001
0000
0001
1000
0000
,
0001
0000
0000
0000
0010
0000
0001
0000
1000
0000
0000
0100
0000
0000
0010
0000
,
0001
0000
0000
1000
0000
0000
0001
0000
0000
0100
0000
0000
0010
0000
1000
0000
,
0100
0010
0001
0100
0010
1000
0100
0010
,
0001
0000
0001
0000
1000
0000
1000
0000
0010
0000
0000
0110
0000
0000
0000
0000
,
0010
0000
0000
1000
0000
0000
0100
0000
1000
0000
0000
0000
1000
0000
0000
0000
,
0010
0000
0000
0001
0000
0000
0100
0000
0001
0000
0000
0000
0001
0000
0000
0000
,
0010
0000
0000
0100
0000
0000
0010
0000
0001
0000
0000
0000
1000
0000
0000
0000
,
0010
0000
1000
0100
0000
1000
0001
0000
,
0010
0000
0000
0010
0000
0000
0001
0000
0000
0001
0000
0000
1000
0000
0000
0000
,
0010
0000
0000
0010
0000
0000
0100
0000
0000
0000
0000
0000
0000
0000
0000
0000
,
0001
0000
0000
0001
0000
0000
1000
0000
0000
1000
0000
0000
0100
0000
0000
0000
,
0010
0000
0000
0010
0000
0000
0001
0000
0000
0001
0000
0000
0100
0000
0000
0000
,
1001
0000
0000
0000
0000
0010
0001
1000
,
0010
0000
0000
0000
0000
1000
0001
0010
,
0100
0000
0000
0010
0001
0100
0010
1000
,
0000
1001
0000
0000
0000
0000
0100
0000
,
0210
0000
0000
0010
0000
0000
0320
0000
,
0000
0032
0000
0000
0100
0000
0203
0000
,
0010
0000
0000
0010
0000
0000
0320
0000
,
0000
2030
0000
0000
0100
0000
3200
0000
,
0010
0000
0000
0010
0000
0000
0320
0000
,
0000
0032
0000
0000
1000
0000
2003
0000
,
0010
0000
0000
0010
0000
0000
3010
0000
,
1000
0010
0000
0100
0001
0000
0101
0000
,
0010
0000
0001
0100
0000
0010
0100
0000
,
0001
1000
0000
0100
0010
0001
0100
0000
,
0001
0000
1000
0100
0000
0001
0100
0000
,
0010
0001
0000
0100
0010
1000
0001
0000
,
0100
0000
0010
1000
0000
0100
1000
0000
,
0001
0010
0000
0100
0010
0100
0010
0000
,
1000
0000
0010
0001
0000
0100
0001
0000
,
1000
0100
0000
0010
0001
1000
0100
0000
,
0010
0000
1000
0100
0000
0010
0100
0000
,
1000
0001
0000
0100
0010
1000
0100
0000
,
1000
0000
0001
0100
0000
1000
0100
0000
,
0010
1000
0000
0100
0010
0001
1000
0000
,
0100
0000
0010
0001
0000
0100
0001
0000
,
1000
0010
0000
0100
0010
0100
0010
0000
,
0001
0000
0010
1000
0000
0100
1000
0000
,
0001
0100
0000
0010
1000
0001
0100
0000
,
0010
0000
0001
0010
0000
0010
0100
0000
,
0000
1000
0100
0010
0001
0100
1000
0000
,
0100
0000
0001
1000
0000
1000
0100
0000
,
0000
0010
0001
1000
0010
0100
0001
0000
,
1000
0000
0010
1000
0000
1000
0100
0000
,
0000
1000
0001
0010
0100
1000
0001
0000
,
0100
0000
1000
0100
0000
0001
0100
0000
,
0000
0010
1000
0001
0010
0100
1000
0000
,
0002
0000
0000
0003
,
0010
0000
0000
1000
0100
0000
0110
0000
,
1001
0000
0000
0010
1000
0001
0010
0100
,
1000
0000
0000
0010
0100
0001
1000
0100
,
0010
0000
0001
0000
1000
0001
0101
0000
;

//---------------dance-single - ----------------
#NOTES:
     dance-single:
     :
     Hard:
     14:
     0.602,0.601,0.107,0.091,0.313,487.000,13.000,11.000,0.000,0.000,0.000,0.602,0.601,0.107,0.091,0.313,487.000,13.000,11.000,0.000,0.000,0.000:
0000
0000
0000
0000
,
0000
0000
0000
0000
,
0000
0000
0000
0000
,
0000
0000
0000
0000
,
0000
0000
0000
0000
,
1001
0000
0010
1000
0000
0100
1000
0000
,
0001
0000
0100
0000
0010
0000
1000
0000
0001
1000
0001
0000
0100
0000
0000
0000
,
0110
0000
0001
1000
0000
0100
0010
0000
,
0001
0010
0001
0000
0100
0000
0010
0000
1000
0010
1000
0010
0100
0000
0000
0000
,
0101
0000
0010
0100
0000
0001
1000
0000
,
0010
0000
1000
0000
0001
0000
0010
0000
0100
1000
0100
0000
0010
0000
0000
0000
,
1100
0000
0001
0010
0000
0100
1000
0000
,
0001
1000
0001
0000
0100
0000
0010
0000
1000
0001
1000
0001
0010
0000
0000
0000
,
0100
0000
0010
0001
0000
0010
0100
0000
,
1000
0000
0100
0000
0010
0000
0001
0000
0100
0001
0100
0000
0010
0000
0000
0000
,
1000
0000
0010
0100
0000
0010
1000
0000
,
0001
0000
1000
0000
0100
0000
0010
0000
0100
0010
0100
0000
1000
0000
0000
0000
,
0001
0000
1000
0010
0000
1000
0100
0000
,
0010
0000
0001
0000
0100
0000
0010
0000
1000
0010
1000
0000
0001
0000
0000
0000
,
0100
0000
1000
0100
0000
0001
0100
0000
,
0010
0000
1000
0000
0001
0000
0100
0000
0001
1000
0001
0000
0010
0000
0000
0000
,
0100
0000
1000
0100
0000
0100
1000
0000
,
0010
1000
0010
1000
0010
0100
0000
0100
0000
0000
0001
0000
1000
0000
0000
0000
,
0100
0000
0010
0000
0000
0001
0010
0000
,
0100
1000
0001
0100
0000
0010
1000
0000
,
0001
0000
0010
0001
0000
0001
0100
0000
,
0001
1000
0001
1000
0001
0100
0000
0100
0000
0000
0100
0000
0010
0000
0000
0000
,
0000
0000
1000
0010
0000
0000
0100
0001
0000
0000
0010
0001
0000
0000
1000
0100
,
0000
0001
1000
0010
1000
1001
0000
0000
,
0100
0000
0001
0100
0000
0100
0001
0000
,
0010
0000
0000
0001
0000
0000
0010
0000
0000
0000
0100
1000
0001
0000
0000
0000
,
0100
0000
0010
0000
0000
1000
0010
0000
,
0100
0001
1000
0100
0000
0010
0001
0000
,
1000
0000
0000
0000
0010
0000
1000
0000
0001
0000
0000
0100
0000
0000
0110
0000
,
1000
0000
0000
0001
0000
0000
1000
0000
0000
0100
0000
0000
0010
0000
0001
0000
,
0100
0001
0100
0000
0010
0000
1000
0001
1000
0001
1000
0000
0100
0000
0000
0000
,
1000
0000
1000
0000
0001
0000
0001
0000
0010
0000
0000
0110
0000
0000
0000
0000
,
0010
0001
0000
0001
0010
0000
0100
0000
1000
0000
0000
0000
0001
0000
0000
0000
,
0100
0010
0000
0010
0100
0000
0010
0000
1000
0000
0000
0000
0001
0000
0000
0000
,
1000
0100
0000
0100
1000
0000
0010
0000
1000
0000
0000
0000
0001
0000
0000
0000
,
0010
0000
0001
0100
0000
0010
1000
0000
,
0010
0100
0000
0010
0100
0000
0001
1000
0000
0001
1000
0000
0100
0010
0000
0000
,
0001
0010
0000
0001
0010
0000
0100
1000
0000
0000
0000
0000
0000
0000
0000
0000
,
0010
1000
0000
0010
1000
0000
0001
0100
0000
0001
0100
0000
0001
0010
0000
0000
,
0100
1000
0000
0100
1000
0000
0001
0100
0000
0001
0100
0000
0010
0100
0000
0000
,
1001
0000
0000
0000
0000
0010
1000
0001
,
0010
0000
0000
0000
0000
0001
1000
0010
,
0100
0000
0000
0010
1000
0100
0010
0001
,
0000
1001
0000
0000
0000
0000
0100
0010
,
0210
0000
0000
0010
0000
0000
0320
0000
,
0000
2030
0000
0000
0100
0000
3200
0000
,
0010
0000
0000
0010
0000
0000
0320
0000
,
0000
0032
0000
0000
0100
0000
0203
0000
,
0010
0000
0000
0010
0000
0000
0320
0000
,
0000
2030
0000
0000
0001
0000
3002
0000
,
0010
0000
0000
0010
0000
0000
0013
0000
,
0001
0010
0000
0100
1000
0000
1100
0000
,
0010
0000
1000
0100
0000
0010
0100
0000
,
1000
0000
0001
0000
0000
0000
0100
0000
0010
1000
0010
0000
0100
0000
0000
0000
,
1000
0000
0100
0001
0000
1000
0100
0000
,
0010
0000
0001
0000
0000
0000
1000
0000
0001
0100
0001
0000
1000
0000
0000
0000
,
0100
0000
0010
0001
0000
0100
0001
0000
,
1000
0000
0010
0000
0000
0000
0100
0000
0010
0100
0010
0000
1000
0000
0000
0000
,
0001
0000
1000
0100
0000
1000
0010
0000
,
0100
0000
0010
0000
0000
0000
1000
0000
0001
0010
0001
1000
0100
0000
0000
0000
,
0010
0000
0001
0100
0000
0010
0100
0000
,
0001
0000
1000
0000
0000
0000
0100
0000
0010
0001
0010
0000
0100
0000
0000
0000
,
0001
0000
0100
1000
0000
0001
0100
0000
,
0010
0000
1000
0000
0000
0000
0001
0000
1000
0100
1000
0000
0001
0000
0000
0000
,
0100
0000
0010
1000
0000
0100
1000
0000
,
0001
0000
0010
0000
0000
0000
0100
0000
0010
0100
0010
0000
0001
0000
0000
0000
,
1000
0000
0001
0100
0000
0001
0010
0000
,
0100
0000
0010
0000
0000
0000
0001
0000
1000
0010
1000
0001
0100
0000
0000
0000
,
0010
0000
1000
0010
0000
0100
0010
0000
,
0000
0000
0001
0000
0100
0000
0010
0000
1000
0100
1000
0000
0001
0000
0000
0000
,
0010
0000
0100
0010
0000
0001
0010
0000
,
0000
0000
1000
0000
0001
0000
0100
0000
0010
0100
0010
0000
1000
0000
0000
0000
,
0001
0000
0010
0001
0000
0100
0001
0000
,
0000
0000
1000
0000
0100
0000
0010
0000
0001
0100
0001
0000
1000
0000
0000
0000
,
0100
0000
0001
0100
0000
1000
0100
0000
,
0000
0000
0010
0000
0001
0000
1000
0000
0001
0100
0001
0000
1000
0000
0000
0000
,
0200
0000
0000
0300
,
0010
0000
0000
0001
0100
0000
1010
0000
,
0101
0000
0000
0000
0000
0000
1000
0001
1000
0001
1000
0000
0010
0000
0100
0000
,
0001
0000
0000
0000
0000
0000
0010
0000
0100
0000
1000
0000
0001
1000
0001
1000
,
0100
0000
0000
0000
0010
0000
0001
0000
1000
0001
1000
0000
0100
0000
0000
0000
;

//---------------dance-double - ----------------
#NOTES:
     dance-double:
     :
     Hard:
     14:
     0.602,0.601,0.107,0.091,0.313,487.000,13.000,11.000,0.000,0.000,0.000,0.602,0.601,0.107,0.091,0.313,487.000,13.000,11.000,0.000,0.000,0.000:
00000000
00000000
00000000
00000000
,
00000000
00000000
00000000
00000000
,
00000000
00000000
00000000
00000000
,
00000000
00000000
00000000
00000000
,
00000000
00000000
00000000
00000000
,
00001001
00000000
00000010
00000001
00000000
00000100
00000010
00000000
,
00001000
00000000
00000100
00000000
00010000
00000000
00001000
00000000
01000000
00010000
01000000
00000000
00100000
00000000
00000000
00000000
,
10100000
00000000
01000000
00100000
00000000
00010000
10000000
00000000
,
00100000
01000000
00100000
00000000
10000000
00000000
01000000
00000000
00100000
00010000
00100000
00010000
10000000
00000000
00000000
00000000
,
01010000
00000000
00001000
00010000
00000000
00000010
00001000
00000000
,
00000100
00000000
00000010
00000000
00000001
00000000
00000100
00000000
00000010
00001000
00000010
00000000
00000100
00000000
00000000
00000000
,
00001001
00000000
00000100
00000010
00000000
00000001
00000100
00000000
,
00001000
00010000
00001000
00000000
00100000
00000000
00010000
00000000
10000000
01000000
10000000
01000000
00100000
00000000
00000000
00000000
,
00010000
00000000
01000000
00100000
00000000
10000000
01000000
00000000
,
00100000
00000000
00010000
00000000
00001000
00000000
00000100
00000000
00000010
00000100
00000010
00000000
00000001
00000000
00000000
00000000
,
00001000
00000000
00000001
00000100
00000000
00000001
00000010
00000000
,
00000001
00000000
00001000
00000000
00000010
00000000
00000100
00000000
00000001
00000100
00000001
00000000
00001000
00000000
00000000
00000000
,
00000100
00000000
00010000
00001000
00000000
00100000
00010000
00000000
,
10000000
00000000
00100000
00000000
01000000
00000000
00100000
00000000
10000000
00010000
10000000
00000000
01000000
00000000
00000000
00000000
,
00100000
00000000
00010000
01000000
00000000
00100000
00010000
00000000
,
00001000
00000000
00000100
00000000
00000001
00000000
00000010
00000000
00000100
00000010
00000100
00000000
00001000
00000000
00000000
00000000
,
00000100
00000000
00000010
00000001
00000000
00001000
00000010
00000000
,
00000100
00000010
00000100
00000010
00000100
00000001
00000000
00000001
00000000
00000000
00001000
00000000
00000001
00000000
00000000
00000000
,
00000100
00000000
00001000
00000000
00000000
00010000
00001000
00000000
,
00010000
01000000
10000000
00010000
00000000
01000000
00100000
00000000
,
10000000
00000000
00100000
10000000
00000000
01000000
00100000
00000000
,
00010000
10000000
00010000
10000000
00010000
01000000
00000000
01000000
00000000
00000000
00001000
00000000
00010000
00000000
00000000
00000000
,
00000000
00000000
00000010
00001000
00000000
00000000
00000001
00000010
00000000
00000000
00000100
00001000
00000000
00000000
00000001
00000100
,
00000000
00000001
00000010
00000100
00001000
00001100
00000000
00000000
,
00010000
00000000
00001000
00100000
00000000
00010000
00100000
00000000
,
01000000
00000000
00000000
00100000
00000000
00000000
00010000
00000000
00000000
00000000
10000000
00010000
01000000
00000000
00000000
00000000
,
00100000
00000000
10000000
00000000
00000000
01000000
00100000
00000000
,
00010000
10000000
01000000
00010000
00000000
00001000
00010000
00000000
,
00001000
00000000
00000000
00000000
00000010
00000000
00000001
00000000
00001000
00000000
00000000
00000010
00000000
00000000
00000110
00000000
,
00000001
00000000
00000000
00001000
00000000
00000000
00000001
00000000
00000000
00000100
00000000
00000000
00000010
00000000
00001000
00000000
,
00000100
00001000
00000100
00000000
00000010
00000000
00000001
00001000
00000001
00001000
00000001
00000000
00000100
00000000
00000000
00000000
,
00001000
00000000
00010000
00000000
01000000
00000000
10000000
00000000
00100000
00000000
00000000
01100000
00000000
00000000
00000000
00000000
,
00100000
10000000
00000000
00100000
10000000
00000000
00010000
00000000
00100000
00000000
00000000
00000000
01000000
00000000
00000000
00000000
,
10000000
00100000
00000000
10000000
00100000
00000000
10000000
00000000
00010000
00000000
00000000
00000000
00100000
00000000
00000000
00000000
,
01000000
00010000
00000000
01000000
00010000
00000000
00001000
00000000
00000010
00000000
00000000
00000000
00000001
00000000
00000000
00000000
,
00000010
00000000
00000100
00001000
00000000
00000010
00000100
00000000
,
00000001
00000100
00000000
00000001
00000100
00000000
00000010
00000100
00000000
00000010
00000100
00000000
00000010
00001000
00000000
00000000
,
00000100
00010000
00000000
00000100
00010000
00000000
00001000
00010000
00000000
00000000
00000000
00000000
00000000
00000000
00000000
00000000
,
00001000
00100000
00000000
00001000
00100000
00000000
00010000
00100000
00000000
00010000
00100000
00000000
01000000
00100000
00000000
00000000
,
00010000
01000000
00000000
00010000
01000000
00000000
00100000
10000000
00000000
00100000
10000000
00000000
01000000
00100000
00000000
00000000
,
10010000
00000000
00000000
00000000
00000000
00100000
10000000
00010000
,
01000000
00000000
00000000
00000000
00000000
00100000
10000000
01000000
,
00010000
00000000
00000000
00001000
00000010
00000001
00000100
00000010
,
00000000
00001001
00000000
00000000
00000000
00000000
00000100
00000010
,
00000210
00000000
00000000
00000010
00000000
00000000
00000320
00000000
,
00000000
00000032
00000000
00000000
00000100
00000000
00000203
00000000
,
00001000
00000000
00000000
00001000
00000000
00000000
00002300
00000000
,
00000000
00023000
00000000
00000000
00100000
00000000
00230000
00000000
,
10000000
00000000
00000000
10000000
00000000
00000000
20300000
00000000
,
00000000
32000000
00000000
00000000
00010000
00000000
03020000
00000000
,
00001000
00000000
00000000
00001000
00000000
00000000
00031000
00000000
,
00000100
00000001
00000000
00001000
00000100
00000000
00000110
00000000
,
00000010
00000000
00000001
00000100
00000000
00000010
00001000
00000000
,
00010000
00000000
01000000
00000000
00000000
00000000
00100000
00000000
10000000
00010000
10000000
00000000
01000000
00000000
00000000
00000000
,
00100000
00000000
01000000
10000000
00000000
00010000
01000000
00000000
,
00100000
00000000
10000000
00000000
00000000
00000000
01000000
00000000
00100000
01000000
00100000
00000000
00010000
00000000
00000000
00000000
,
01000000
00000000
00001000
00010000
00000000
00000100
00001000
00000000
,
00000001
00000000
00000010
00000000
00000000
00000000
00000100
00000000
00000010
00000100
00000010
00000000
00000001
00000000
00000000
00000000
,
00001000
00000000
00000001
00000100
00000000
00000010
00000100
00000000
,
00001000
00000000
00010000
00000000
00000000
00000000
00001000
00000000
00100000
00010000
00100000
00010000
10000000
00000000
00000000
00000000
,
00100000
00000000
01000000
00010000
00000000
10000000
00100000
00000000
,
10000000
00000000
01000000
00000000
00000000
00000000
00100000
00000000
00010000
00100000
00010000
00000000
01000000
00000000
00000000
00000000
,
00001000
00000000
00010000
00000010
00000000
00001000
00000100
00000000
,
00000010
00000000
00000001
00000000
00000000
00000000
00001000
00000000
00000001
00000100
00000001
00000000
00001000
00000000
00000000
00000000
,
00000100
00000000
00000010
00000001
00000000
00000100
00001000
00000000
,
00010000
00000000
01000000
00000000
00000000
00000000
10000000
00000000
00010000
01000000
00010000
00000000
00100000
00000000
00000000
00000000
,
01000000
00000000
00100000
00010000
00000000
01000000
00100000
00000000
,
10000000
00000000
01000000
00000000
00000000
00000000
00100000
00000000
00001000
00010000
00001000
00010000
00001000
00000000
00000000
00000000
,
00000010
00000000
00000100
00000010
00000000
00000001
00001000
00000000
,
00000000
00000000
00000010
00000000
00000100
00000000
00000001
00000000
00000010
00000100
00000010
00000000
00000001
00000000
00000000
00000000
,
00000100
00000000
00001000
00010000
00000000
01000000
10000000
00000000
,
00010000
00000000
00000000
00000000
01000000
00000000
00100000
00000000
10000000
00010000
10000000
00000000
00100000
00000000
00000000
00000000
,
01000000
00000000
00001000
00010000
00000000
01000000
00100000
00000000
,
00000000
00000000
00001000
00000000
00010000
00000000
00000010
00000000
00000100
00000010
00000100
00000000
00000001
00000000
00000000
00000000
,
00001000
00000000
00000100
00000010
00000000
00000001
00000100
00000000
,
00000000
00000000
00000010
00000000
00001000
00000000
00000100
00000000
00010000
00001000
00010000
00000000
00000010
00000000
00000000
00000000
,
00002000
00000000
00000000
00003000
,
00000010
00000000
00000000
00001000
00000100
00000000
00010100
00000000
,
00101000
00000000
00000000
00000000
00000000
00000000
01000000
00100000
00010000
00100000
01000000
00000000
10000000
00000000
01000000
00000000
,
00100000
00000000
00000000
00000000
00000000
00000000
00010000
00000000
01000000
00000000
00001000
00000000
00010000
00000010
00010000
00000010
,
00001000
00000000
00000000
00000000
00000010
00000000
00001000
00000000
00000001
00000010
00000001
00000000
00001000
00000000
00000000
00000000
;

//---------------dance-single - ----------------
#NOTES:
     dance-single:
     :
     Beginner:
     4:
     0.205,0.212,0.058,0.173,0.000,146.000,7.000,21.000,0.000,0.000,0.000,0.205,0.212,0.058,0.173,0.000,146.000,7.000,21.000,0.000,0.000,0.000:
0000
0000
0000
0000
,
0000
0000
0000
0000
,
0000
0000
0000
0000
,
0000
0000
0000
0000
,
0000
0000
0000
0000
,
0001
0000
0010
0000
,
1000
1000
1000
0000
,
1000
0000
0010
0000
,
0001
0001
0001
0000
,
0001
0000
0100
0000
,
1000
1000
1000
0000
,
1000
0000
0100
0000
,
0001
0001
0001
0000
,
1000
0000
0100
0000
,
0010
0010
0010
0000
,
0001
0000
0100
0000
,
0010
0010
0010
0000
,
1000
0000
0001
0000
,
0100
0100
0100
0000
,
0001
0000
1000
0000
,
0100
0100
0100
0000
,
1000
0000
0001
0000
,
2002
0000
3003
0000
,
0001
0000
0000
0000
,
0010
0000
0100
0000
,
1000
0000
0001
0000
,
2002
0000
3003
0000
,
0010
0000
0000
0000
,
0100
0000
0001
0000
,
1000
1000
1000
0000
,
0020
0000
0030
0000
,
0001
0001
0001
0000
,
1000
0000
0100
0000
,
0001
0001
0001
0000
,
0020
0000
0030
0000
,
1000
1000
1000
0000
,
0001
0000
0100
0000
,
0002
0000
1003
0000
,
2000
0000
3001
0000
,
0002
0000
1003
0000
,
1001
0000
0000
0000
,
2000
0000
3001
0000
,
0002
0000
1003
0000
,
2000
0000
3001
0000
,
1001
0000
0000
0000
,
1001
0000
0000
0000
,
0010
0000
0000
0000
,
0100
0000
0100
0000
,
0010
0000
0000
0000
,
2002
0000
0000
0000
,
0000
0000
3003
0000
,
0002
0000
0000
0000
,
0000
0000
0003
0000
,
0020
0000
0000
0000
,
0000
0000
0030
0000
,
2000
0000
0000
0000
,
0000
0000
3000
0000
,
0001
0000
1000
0000
,
0100
0000
0010
0000
,
0001
0000
0100
0000
,
0001
0000
0010
0000
,
0001
0000
0000
0000
,
1000
0000
0000
0000
,
0010
0000
0100
0000
,
0010
0000
1000
0000
,
1000
0000
0001
0000
,
0100
0000
0010
0000
,
1000
0000
0100
0000
,
1000
0000
0010
0000
,
1000
0000
0000
0000
,
0001
0000
0000
0000
,
0010
0000
0100
0000
,
0010
0000
0001
0000
,
1000
0000
1000
0000
,
2000
0000
3001
0000
,
0001
0000
0001
0000
,
0002
0000
1003
0000
,
1000
0000
1000
0000
,
2000
0000
3001
0000
,
0001
0000
0001
0000
,
0002
0000
1003
0000
,
0000
0000
0000
0000
,
0010
0000
1000
1000
,
1000
0000
0000
0000
,
0010
0000
0001
0001
,
0001
0000
0000
1001
;

//---------------dance-single - ----------------
#NOTES:
     dance-single:
     :
     Challenge:
     16:
     0.890,0.886,0.305,0.214,0.635,693.000,37.000,26.000,0.000,0.000,0.000,0.890,0.886,0.305,0.214,0.635,693.000,37.000,26.000,0.000,0.000,0.000: // measure 0
0000
0000
0000
0000
,  // measure 1
0000
0000
0000
0000
,  // measure 2
0000
0000
0000
0000
,  // measure 3
0000
0000
0000
0000
,  // measure 4
0000
0000
0000
0000
,  // measure 5
1002
0000
0010
1000
0000
1000
0103
0000
,  // measure 6
0001
0000
0010
0000
1000
0000
0010
0000
0100
0001
0100
0000
1000
0000
0000
0000
,  // measure 7
0110
0100
0001
1000
0010
0100
0010
1000
,  // measure 8
0001
0010
0001
1000
0010
1000
0001
0100
0001
1000
0100
1000
0010
0100
0001
1000
,  // measure 9
0001
0000
0120
0100
0000
1030
1001
0000
,  // measure 10
0010
0000
0001
0000
1000
0000
0010
0000
0100
0001
0100
0000
2010
0000
0000
0000
,  // measure 11
3100
0001
0100
0000
0010
1000
0010
0000
0100
1000
0100
0000
0010
0001
0010
0000
,  // measure 12
1000
0100
0010
0000
0000
0001
0010
0000
1000
0100
0010
0001
0200
0000
0000
0000
,  // measure 13
1300
0010
1000
0000
0010
0001
0010
0001
0100
0000
0010
0000
0100
0001
1000
0000
,  // measure 14
0010
0000
1000
0010
0000
0000
0010
0001
0000
0000
0001
0100
0000
0000
0100
0000
,  // measure 15
0001
0100
0001
0100
0010
1000
0100
0000
1000
0100
1000
0100
0010
0001
0010
0000
,  // measure 16
0100
0000
1000
0001
0100
0000
0010
1000
0001
0010
0100
1000
0001
0000
0100
0010
,  // measure 17
0001
0001
1000
0010
0100
0001
1000
0100
,  // measure 18
0010
0000
0101
0000
0110
0000
1100
0000
1000
0010
0100
0000
0001
0000
0000
0000
,  // measure 19
0120
0000
0001
0001
0000
0100
1030
1100
,  // measure 20
0010
0001
0100
0000
0010
1000
0100
0000
0010
0100
0010
0100
0010
0000
0000
0000
,  // measure 21
0100
0001
1000
0100
0100
0100
1000
0000
,  // measure 22
0001
1000
0010
0100
0001
0100
0000
1200
0000
0000
0001
0000
1300
0100
0010
0001
,  // measure 23
0020
0000
0000
0000
1030
0000
0100
0000
0100
0010
0001
0000
0010
0000
0000
0000
,  // measure 24
0100
0000
1000
0000
0001
0000
0200
0010
0000
0310
0001
0000
0001
0000
0100
0000
,  // measure 25
1000
0000
0000
0000
0010
0000
0001
0000
1000
0010
1000
0000
0001
0100
0000
0001
,  // measure 26
0100
0010
0001
1000
0010
0100
0000
0201
0000
0000
0001
0000
0310
0000
0100
0000
,  // measure 27
1000
0001
0010
0100
0000
0010
1000
0100
0000
0001
0100
0010
0000
1000
0100
0010
,  // measure 28
0001
0000
0011
0000
0010
0000
0110
0000
1000
0100
0010
0000
0100
0001
0100
0001
,  // measure 29
0100
0000
0010
0100
0010
0001
1000
0100
,  // measure 30
0012
0000
0000
0100
0000
0000
2003
0000
0000
0000
3020
2030
0002
0000
3003
0000
,  // measure 31
0100
0010
0001
0010
0100
1000
0001
0000
,  // measure 32
0010
1000
0001
0010
0100
1000
0100
0010
0000
0000
0010
0100
0010
1000
0100
1000
,  // measure 33
0001
0000
0000
0000
0010
0000
1000
0000
0011
0000
0000
0110
0000
0000
1100
0000
,  // measure 34
0020
0000
0000
0001
0000
0000
1000
0000
0000
0100
0000
0000
0130
0000
0001
0000
,  // measure 35
1000
0010
0100
0000
0110
0000
0001
0010
0100
1000
0100
0000
0101
0000
0000
0000
,  // measure 36
0001
0000
0010
0000
0100
0000
1000
0000
1010
0000
0000
0011
0000
0000
0000
0000
,  // measure 37
0010
0100
0000
0100
1000
0000
0010
0000
0100
0000
0010
0000
0001
0000
0010
0000
,  // measure 38
0100
0001
0000
0001
1000
0000
0100
0000
0001
0000
0010
0000
0100
0000
1000
0000
,  // measure 39
0010
0100
0000
0100
0001
0000
0100
0000
1000
0000
0100
0000
0001
0000
0010
0000
,  // measure 40
0200
0000
0301
1001
0000
1010
0101
0000
,  // measure 41
0010
0001
0000
0100
0010
0000
1000
0100
0000
0010
0001
0000
0100
0001
0100
0000
,  // measure 42
0001
0010
0000
0001
0010
0000
0100
1000
0000
0000
0010
0001
0200
0000
0000
0000
,  // measure 43
0310
0001
0000
0100
0010
0000
1000
0100
0000
0010
0001
0000
0100
0010
1000
0000
,  // measure 44
0010
1000
0000
0100
0010
0000
0001
0100
0000
0010
1000
0000
0100
0010
0001
0000
,  // measure 45
0100
0000
0110
0010
0001
0010
1000
0001
,  // measure 46
0010
0000
1010
0010
0100
1000
0100
0010
,  // measure 47
0001
0000
0110
0001
0100
1000
0100
0010
,  // measure 48
0000
1000
0001
0000
0100
0000
0010
0000
0001
1000
0001
1000
0100
0000
0010
0000
,  // measure 49
0001
0000
0010
0100
0000
1000
0001
0000
,  // measure 50
0010
1000
0000
0001
0010
0000
0100
0000
,  // measure 51
0001
0100
0001
0010
0100
0010
1000
0001
,  // measure 52
0010
1000
0010
0001
0100
0010
1000
0001
,  // measure 53
0100
1000
0010
0100
0001
0010
1000
0010
,  // measure 54
0001
1000
0100
0010
0100
0001
0010
1000
,  // measure 55
0010
0100
0001
0010
0100
1000
0010
0100
,  // measure 56
0001
0011
0000
1000
1100
0000
1001
0000
,  // measure 57
0010
0000
0001
0000
1000
0010
0100
0000
0010
0000
0100
0000
0010
0000
0001
0100
,  // measure 58
0010
0000
0001
0000
1000
0000
0010
0000
0100
0010
1000
0000
0001
0000
0000
0000
,  // measure 59
1000
0010
0100
0001
0010
0100
1000
0000
,  // measure 60
1000
0000
0001
0000
0021
0000
0000
0000
0031
0100
0010
0000
1000
0000
0000
0000
,  // measure 61
0100
0000
0010
0000
0001
0000
1000
0000
0100
0000
0001
0000
0001
1000
0001
1000
,  // measure 62
0100
0000
0001
0000
0000
0000
1000
0000
0010
1000
0010
0000
0101
0000
0000
0000
,  // measure 63
0002
0023
0230
2300
,  // measure 64
3100
0000
0010
0000
0001
0000
0100
0000
0010
0001
0100
0001
0010
0000
0000
0000
,  // measure 65
1000
0000
0000
0000
0010
0000
0100
0000
0000
0000
0100
0000
0010
1000
0010
1000
,  // measure 66
0010
0000
0100
0000
0000
0000
0100
0000
0010
0001
0010
0000
0100
0000
0000
0000
,  // measure 67
0001
0000
1000
0000
0100
0000
0010
0000
0001
0000
1000
0000
0010
0100
0010
0100
,  // measure 68
0001
0000
1000
0000
0010
0000
0100
0000
0001
0100
0001
0000
0010
0000
0000
0000
,  // measure 69
1000
0000
0000
0000
0100
0000
0001
0000
0000
0000
1000
0000
0010
0000
0001
0100
,  // measure 70
0010
0000
0100
0000
1000
0000
0001
0000
1000
0100
0010
0000
0001
0000
0000
0000
,  // measure 71
2000
3020
0230
0302
,  // measure 72
0103
0000
0010
0000
1000
0000
0001
0000
0010
0001
0010
1000
0100
0000
0000
0000
,  // measure 73
0010
0001
0100
0010
1000
0100
0001
0100
,  // measure 74
0010
0000
1000
0000
0100
0000
0010
0000
0001
0100
0001
0000
0001
0100
0010
1000
,  // measure 75
0100
0001
0100
0010
1000
0100
0010
0001
,  // measure 76
0100
0000
0010
0000
1000
0000
0001
0000
0010
0100
0010
0001
1000
0001
0010
0000
,  // measure 77
0100
0001
0010
0001
0010
0100
0001
0100
,  // measure 78
1000
0000
0010
0000
0100
0000
0001
0000
0010
0100
0010
0000
1000
0100
0010
0100
,  // measure 79
1000
0010
0001
0100
0001
1000
0100
0010
,  // measure 80
0001
0000
0100
0000
0010
0000
0100
0000
1000
0100
0001
0000
0100
0000
0010
0000
,  // measure 81
0001
0100
0001
1000
0100
1000
0001
0010
0001
1000
0010
1000
0001
0010
0100
1000
,  // measure 82
0100
0000
0000
0001
0001
0000
1010
0000
,  // measure 83
0101
0000
0000
0000
0000
0000
1000
0001
0010
0001
1000
0000
0010
0000
0010
0000
,  // measure 84
0100
0000
0000
0000
0000
0000
0010
0000
0100
0000
0010
0000
0001
1000
0100
1000
,  // measure 85
0001
0000
0000
0000
0010
0000
0100
0000
0010
0001
1000
0000
1001
0000
0000
0000
,  // measure 86
0110
0000
0000
0000
;

//---------------dance-double - ----------------
#NOTES:
     dance-double:
     :
     Challenge:
     16:
     0.857,0.886,0.330,0.066,0.589,680.000,40.000,8.000,0.000,0.000,0.000,0.857,0.886,0.330,0.066,0.589,680.000,40.000,8.000,0.000,0.000,0.000:
00000000
00000000
00000000
00000000
,
00000000
00000000
00000000
00000000
,
00000000
00000000
00000000
00000000
,
00000000
00000000
00000000
00000000
,
00000000
00000000
00000000
00000000
,
00011000
00000000
10000000
00010000
00000000
00001000
00000001
00000000
,
00000100
00000000
00010000
00000000
00000010
00000000
00001000
00000000
00000100
00010000
00000100
00000000
00001000
00000000
00000000
00000000
,
00000010
00001000
00100000
01000000
00010000
10000000
01000000
00100000
,
10000000
00100000
01000000
00010000
01000000
00001000
00100000
00001000
00010000
00000100
00010000
00000010
00001000
00000001
00000010
00000001
,
00000100
00000000
00000110
00001000
00000000
00010000
01100000
00000000
,
00100000
00000000
10000000
00000000
00010000
00000000
00100000
00000000
01000000
10000000
01000000
00000000
00110000
00000000
00000000
00000000
,
00100000
00010000
00100000
00000000
00001000
01000000
00001000
00000000
00000010
00001000
00000010
00000000
00010000
00000100
00010000
00000000
,
00000001
00000000
00000010
00000000
00001000
00000000
00010000
00000000
00001000
00100000
00010000
01000000
00100000
00000000
00000000
00000000
,
10000000
00100000
01000000
00000000
00100000
00010000
00100000
00010000
00001000
00000000
00010000
00000000
00000100
00001000
00000100
00000000
,
00000001
00001001
00000000
00010010
00000000
01001000
00000000
10010000
,
00010000
00100000
00010000
00100000
01000000
10000000
01000000
00000000
00010000
00001000
00010000
00001000
00000010
00000100
00000010
00000000
,
00000001
00000000
00000100
00000010
00001000
00000000
00000100
00010000
00001000
00010000
00001000
00100000
00010000
00000000
01000000
00100000
,
00010000
10000000
00010000
00001000
00100000
00001000
00010000
00000010
,
00002000
00000000
00000100
00000000
00000100
00000000
00003100
00000000
00000001
00000010
00001000
00000000
00001010
00000000
00000000
00000000
,
00010100
00000000
01000000
01000000
00000000
00000100
00000100
00001000
,
01000000
00010000
00100000
00000000
10000000
00010000
01000000
00000000
00010000
00001000
00010000
00001000
00010000
00000000
00000000
00000000
,
00000100
00010000
00000100
00000010
00000001
00001000
00000100
00000000
,
00010000
00001000
00100000
00001000
00010000
00001000
00000000
00001010
00000000
00000000
00010000
00000000
00001000
00100000
00001000
00100000
,
00010000
00000000
00100000
00010000
01000000
10000000
00100000
00000000
,
01000000
00000000
00010000
00000000
00100000
00000000
00000000
00001000
00000000
00010000
00000100
00000000
00001000
00000000
00000010
00000000
,
00000100
00000000
00000000
00000000
00000001
00000000
00000100
00000000
00011000
00000000
00011000
00000000
00010000
01000000
00000000
01000000
,
00010000
10000000
01000000
00100000
00010000
01000000
00000000
01100000
00000000
00000000
00010000
00000000
00001010
00000000
00000000
00000000
,
00000000
00000100
00000001
00000010
00000000
00000010
00010000
00001000
00000000
00001000
01000000
00100000
00000000
00100000
00010000
10000000
,
01000000
00000000
00100000
00000000
01000000
00000000
00010000
00000000
10000000
00100000
01000000
00000000
00100000
00010000
01000000
00100000
,
01000000
00000000
10000000
00100000
00010000
00100000
00010000
00001000
,
00000010
00000000
00000000
00000110
00000000
00000000
00010100
00000000
00000000
00000000
00002000
00023000
00002000
00000000
00033000
00000000
,
00000100
00000010
00000001
00000100
00000010
00001000
00000100
00000000
,
00010000
01000000
00100000
01000000
00010000
01000000
00100000
01000000
00000000
00000000
10000000
00100000
01000000
00010000
01000000
00100000
,
10000000
00000000
00000000
00000000
10000000
00000000
00010000
00000000
00101000
00000000
00000000
00011000
00000000
00000000
00010010
00000000
,
00001000
00000000
00000000
00000001
00000000
00000000
00000100
00000000
00000000
00001000
00000000
00010000
01000000
00000000
01000000
00000000
,
10000000
00100000
01000000
00000000
00010000
00000000
00001000
00000010
00000100
00000000
00000001
00000000
00000010
00000000
00000000
00000000
,
00000100
00000000
00000100
00000000
00001000
00000000
00001000
00000000
00011000
00000000
00000000
00011000
00000000
00000000
00000000
00000000
,
10000000
00010000
00000000
10000000
00010000
00000000
01000000
00000000
00010000
00000000
00100000
00000000
00001000
00000000
00000000
00000000
,
00010000
00000100
00000000
00010000
00000100
00000000
00001000
00000000
00000001
00000000
00000010
00000000
00001000
00000000
00000000
00000000
,
00001000
01000000
00000000
00001000
01000000
00000000
00010000
00000000
00100000
00000000
10000000
00000000
00010000
00000000
01000000
00000000
,
00200000
00000000
00310000
00101000
00000000
00010010
00011000
00000000
,
00001000
00010000
00000000
00001000
00010000
00000000
00100000
01000000
00000000
00100000
01000000
00000000
10000000
00100000
01000000
00000000
,
00100000
00001000
00000000
00100000
00001000
00000000
00010000
00000010
00000000
00010000
00000010
00010000
00001000
00000000
00000000
00000000
,
00000001
00000100
00000000
00000010
00001000
00000000
00000100
00010000
00000000
00001000
00100000
00000000
00010000
01000000
00100000
00000000
,
10000000
00100000
00000000
01000000
00010000
00000000
00100000
00001000
00000000
00010000
00000100
00000000
00001000
00000010
00000100
00000000
,
00000001
00000000
00000010
00000100
00010000
00001000
00100000
00010000
,
10000000
00000000
00010000
01000000
10000000
01000000
00010000
00100000
,
00001000
00010000
00010000
00001000
00001000
00000100
00000001
00001000
,
00000000
00010100
00000000
00000000
00000001
00000000
00000100
00000000
00000010
00001000
00000010
00001000
00010000
00000000
01000000
00000000
,
10000000
00000000
00100000
01000000
00000000
10000000
00010000
00000000
,
00100000
10000000
00000000
00010000
00100000
00000000
01000000
00000000
,
10000000
01000000
10000000
00010000
00100000
00001000
01000000
00010000
,
00100000
00001000
00010000
00000010
00001000
00100000
00001000
00000010
,
00000100
00000001
00000100
00010000
00000100
00000001
00000010
00001000
,
00010000
01000000
10000000
00100000
00010000
01000000
00001000
00010000
,
00001000
00000010
00000100
00000001
00001000
00010000
00000100
00010000
,
00100000
01010000
00000000
00100000
11000000
00000000
10010000
00000000
,
10000000
00000000
01000000
00000000
00010000
00100000
00010000
00000000
00001000
00000000
00010000
00000000
00000100
00000000
00001000
00000010
,
00000100
00000000
00000001
00000000
00001000
00000000
00000100
00000000
00000010
00010000
00000100
00000000
00001000
00000000
00000000
00000000
,
00001000
00100000
00001000
00100000
00001000
01000000
00010000
10000000
,
01000000
00000000
00010000
00000000
00100000
00000000
00000000
00000000
00010000
01000000
00010000
01000000
00010000
00000000
00000000
00000000
,
10000000
00000000
00100000
00000000
01000000
00000000
00001000
00000000
00010000
00000000
00000100
00000000
00001000
00010000
00001000
00010000
,
00000010
00000000
00000001
00000000
00000010
00000000
00000100
00000000
00001000
00100000
00001000
00000000
00100000
00000000
00000000
00000000
,
10000000
00010000
00001000
00000001
,
00001000
00000000
00000100
00000000
00010000
00000000
00001000
00000000
01000000
00001000
00010000
00001000
01000000
00000000
00000000
00000000
,
00010000
00000000
00000000
00000000
10000000
00000000
01000000
00000000
00000000
00000000
00101000
00000000
00010000
00000100
00001000
00000100
,
00010000
00000000
00001010
00000000
00000000
00000000
00000001
00000000
00001000
00000010
00000100
00000000
00010000
00000000
00000000
00000000
,
00001000
00000000
00010000
00000000
00100000
00000000
01000000
00000000
10000000
00000000
00100000
00000000
01000000
00100000
01000000
00010000
,
00100000
00000000
00010000
00000000
00100000
00000000
00001000
00000000
00010000
00000100
00001000
00000000
00000001
00000000
00000000
00000000
,
00010010
00000000
00000000
00000000
01002000
00000000
00010000
00000000
00000000
00000000
00013000
00000000
01000000
00000000
00100000
01000000
,
10000000
00000000
01000000
00000000
00010000
00000000
01000000
00000000
00100000
02000000
00010000
00000000
03010000
00000000
00000000
00000000
,
11000000
00101000
00010100
00000011
,
00000001
00000000
00000010
00000000
00000100
00000000
00001000
00000000
00000010
00000100
00000001
00001000
00000100
00000000
00000000
00000000
,
00100000
00001000
00010000
01000000
00100000
10000000
00010000
01000000
,
00100000
00000000
10000000
00000000
01000000
00000000
00010000
00000000
00100000
01000000
00010000
00000000
00100000
00000000
00001000
00000000
,
00010000
00000100
00001000
00000100
00000001
00000010
00001000
00010000
,
01000000
00000000
10000000
00000000
00010000
00000000
00100000
00000000
00001000
00100000
00010000
00000000
01000000
00000000
00100000
00000000
,
01000000
00001000
00010000
00001000
00000010
00000100
00000010
00000001
,
00001000
00000000
00000100
00000000
00010000
00000000
00001000
00000000
00100000
00010000
01000000
00000000
00100000
00000000
10000000
00000000
,
00010000
01000000
10000000
01000000
00010000
00100000
10000000
00100000
,
00010000
00000000
00000100
00000000
00001000
00000000
00000010
00000000
00000100
00000001
00001000
00000000
00000010
00000000
00000100
00000000
,
00000100
00000010
00001000
00000100
00000010
00000001
00000100
00000010
00001000
00000100
00010000
00001000
00100000
00010000
01000000
00100000
,
10000000
00000000
00000000
00010000
00010000
00000000
01100000
00000000
,
10010000
00000000
00000000
00000000
00000000
00000000
10000000
01000000
10000000
01000000
00100000
00000000
00001000
00000000
00010000
00000000
,
00001000
00000000
00000000
00000000
00000000
00000000
00000100
00000000
00001000
00000000
00000010
00000000
00000001
00000100
00000001
00000100
,
00000001
00000000
00000000
00000000
00000100
00000000
00000010
00000000
00001000
00010000
00001000
00000000
00021000
00000000
00000000
00000000
,
10030000
00000000
00000000
00000000
;
