#TITLE:Elemental Creation;
#SUBTITLE:;
#ARTIST:dj TAKA meets DJ YOSHITAKA;
#TITLETRANSLIT:;
#SUBTITLETRANSLIT:;
#ARTISTTRANSLIT:;
#GENRE:;
#CREDIT:;
#BANNER:Elemental Creation.png;
#BACKGROUND:Elemental Creation-bg.png;
#LYRICSPATH:;
#CDTITLE:./CDTitles/DanceDanceRevolution 2013.png;
#MUSIC:Elemental Creation.ogg;
#OFFSET:0.000;
#SAMPLESTART:10.190;
#SAMPLELENGTH:15.000;
#SELECTABLE:YES;
#BPMS:0.000=212.000
,36.000=424.000
,356.000=212.000
,388.000=106.000
,420.000=212.000
,464.000=424.000
;
#STOPS:
;
#BGCHANGES:;
#KEYSOUNDS:;
#ATTACKS:;

//---------------dance-single - ----------------
#NOTES:
     dance-single:
     :
     Beginner:
     8:
     0.359,0.507,0.106,0.257,0.000,285.000,14.000,34.000,0.000,0.000,0.000,0.359,0.507,0.106,0.257,0.000,285.000,14.000,34.000,0.000,0.000,0.000:
0000
0000
0000
0000
,
0000
0000
0000
0000
,
0000
0000
0000
0000
,
0000
0000
0000
0000
,
0000
0000
0000
0000
,
1000
0010
0000
0010
,
0001
0010
0000
0010
,
2002
0000
0000
0000
,
0000
0000
0000
3003
,
0001
0000
0010
0000
,
0100
0000
0010
0000
,
0001
0000
1000
0000
,
0001
0000
1000
0000
,
0001
0000
0100
0000
,
0010
0000
1000
0000
,
0010
0000
0100
0000
,
0010
0000
0100
0000
,
0001
0000
0010
0000
,
1000
0000
0010
0000
,
0001
0000
0100
0000
,
1000
0000
0100
0000
,
0001
0000
0010
0000
,
0100
0000
1000
0000
,
0001
0000
1000
0000
,
0001
0000
0000
0000
,
1000
0000
0010
0000
,
0100
0000
0010
0000
,
1000
0000
0001
0000
,
1000
0000
0001
0000
,
1000
0000
0100
0000
,
0010
0000
0001
0000
,
0010
0000
0100
0000
,
0010
0000
0100
0000
,
1000
0000
0010
0000
,
0001
0000
0010
0000
,
1000
0000
0100
0000
,
0001
0000
0100
0000
,
1000
0000
0010
0000
,
0100
0000
0001
0000
,
1000
0000
0001
0000
,
1001
0000
0000
0000
,
0001
0000
0100
0000
,
0010
0000
0000
0000
,
0001
0000
0010
0000
,
0100
0000
1000
0000
,
0002
0000
0000
0003
,
0200
0000
0000
0300
,
0001
0000
0001
0000
,
0100
0000
0100
0000
,
1000
0000
0100
0000
,
0010
0000
0000
0000
,
1000
0000
0010
0000
,
0100
0000
0001
0000
,
2000
0000
0000
3000
,
0200
0000
0000
0300
,
0220
0000
0000
0000
,
0000
0000
0000
0330
,
0001
0000
0010
0000
,
0100
0000
0010
0000
,
0001
0000
1000
0000
,
0001
0000
1000
0000
,
0001
0000
0100
0000
,
0010
0000
1000
0000
,
0010
0000
0100
0000
,
0010
0000
0100
0000
,
0001
0000
0010
0000
,
1000
0000
0010
0000
,
0001
0000
0100
0000
,
1000
0000
0100
0000
,
0001
0000
0010
0000
,
0100
0000
1000
0000
,
0001
0000
1000
0000
,
0001
0000
0000
0000
,
1000
0000
0010
0000
,
0100
0000
0010
0000
,
1000
0000
0001
0000
,
1000
0000
0001
0000
,
1000
0000
0100
0000
,
0010
0000
0001
0000
,
0010
0000
0100
0000
,
0010
0000
0100
0000
,
1000
0000
0010
0000
,
0001
0000
0010
0000
,
1000
0000
0100
0000
,
0001
0000
0100
0000
,
1000
0000
0010
0000
,
0100
0000
0001
0000
,
1000
0000
0001
0000
,
1001
0000
0000
0000
,
0010
0000
0001
0000
,
1000
0000
0010
0000
,
1000
0000
0100
0000
,
1000
0000
0001
0000
,
0010
0000
0001
0000
,
1000
0000
0001
0000
,
0100
0000
0001
0000
,
0010
0000
0100
0000
,
2000
3000
0020
0030
,
2000
3000
0200
0300
,
0020
0030
0002
0003
,
2000
3000
0020
0030
,
0200
0000
0000
0300
,
0002
0000
0000
0003
,
0020
0000
0000
0030
,
2000
0000
0000
3000
,
1001
0000
0000
0000
,
0110
0000
0000
0000
,
1001
0000
0000
0000
,
0110
0000
0000
0000
,
1000
1000
0001
0001
,
1000
1000
0001
0001
,
2002
0000
0000
3003
,
0010
0000
0000
0000
,
0100
0000
0000
0000
,
2002
0000
0000
0000
,
0000
0000
0000
3003
,
1000
0000
0010
0000
,
0100
0000
0010
0000
,
1000
0000
0001
0000
,
1000
0000
0001
0000
,
1000
0000
0100
0000
,
0010
0000
0001
0000
,
0010
0000
0100
0000
,
0010
0000
0100
0000
,
1000
0000
0010
0000
,
0001
0000
0010
0000
,
1000
0000
0100
0000
,
0001
0000
0100
0000
,
1000
0000
0010
0000
,
0100
0000
0001
0000
,
1000
0000
0001
0000
,
1000
0000
0000
0000
,
0001
0000
0010
0000
,
0100
0000
0010
0000
,
0001
0000
1000
0000
,
0001
0000
1000
0000
,
0001
0000
0100
0000
,
0010
0000
1000
0000
,
0010
0000
0100
0000
,
0010
0000
0100
0000
,
0001
0000
0010
0000
,
1000
0000
0010
0000
,
0001
0000
0100
0000
,
1000
0000
0100
0000
,
0001
0000
0010
0000
,
0100
0000
1000
0000
,
0001
0000
1000
0000
,
1001
0000
0000
0000
,
1000
0000
0100
0000
,
0010
0000
0000
0000
,
1000
0000
0010
0000
,
0100
0000
0001
0000
,
2000
0000
0000
3000
,
0200
0000
0000
0300
,
1000
0000
1000
0000
,
0100
0000
0100
0000
,
0001
0000
0100
0000
,
0010
0000
0000
0000
,
0001
0000
0010
0000
,
0100
0000
1000
0000
,
0002
0000
0000
0003
,
0200
0000
0000
0300
,
0220
0000
0000
0000
,
0000
0000
0000
0330
,
2002
0000
0000
0000
,
0000
0000
0000
3003
,
0220
0000
0000
0000
,
0000
0000
0000
0330
;

//---------------dance-single - ----------------
#NOTES:
     dance-single:
     :
     Easy:
     11:
     0.511,1.000,0.060,0.211,0.015:
0000
0000
0000
0000
,
0000
0000
0000
0000
,
0000
0000
0000
0000
,
0000
0000
0000
0000
,
0000
0000
0000
0000
,
0001
0000
0100
0000
0000
0010
0100
0000
,
1000
0000
0100
0000
0000
0010
0100
0000
,
2002
0000
0000
0000
,
0000
0000
0000
3003
,
1000
0000
0010
0000
,
0100
0010
0100
0000
,
0010
1000
0001
0000
,
0100
0001
1000
0000
,
0001
0000
0010
0000
,
0100
0010
0100
0000
,
0010
0001
1000
0000
,
0100
1000
0001
0000
,
1000
0000
0010
0000
,
0001
0000
0010
0000
,
1000
0000
0100
0000
,
0001
0000
0100
0000
,
1000
0000
0010
0000
,
0100
0001
0100
0000
,
1000
1000
0000
0001
,
0000
1000
0001
0000
,
1000
0000
0100
0000
,
0010
0100
0010
0000
,
0100
1000
0001
0000
,
0010
0001
1000
0000
,
0001
0000
0100
0000
,
0010
0100
0010
0000
,
0100
0001
1000
0000
,
0010
1000
0001
0000
,
1000
0000
0100
0000
,
0001
0000
0100
0000
,
1000
0000
0010
0000
,
0001
0000
0010
0000
,
1000
0000
0100
0000
,
0010
0001
0010
0000
,
0001
0000
1000
0000
,
1001
0000
1001
0000
,
1000
0000
0100
0020
,
0000
0130
1000
0000
,
0010
0000
0100
0000
,
0001
0000
0010
0000
,
0002
0000
0000
1003
,
0200
0000
0000
0300
,
1000
0010
1000
0000
,
0001
0010
0001
0000
,
0001
0000
0100
0020
,
0000
0130
0001
0000
,
0010
0000
0100
0000
,
1000
0000
0010
0000
,
2000
0000
0000
3001
,
0200
0000
0000
0300
,
0010
0010
0000
0100
,
0000
0001
0001
0000
,
1000
0000
0010
0000
,
0100
0010
0100
0000
,
0010
1000
0001
0000
,
0100
0001
1000
0000
,
0001
0000
0010
0000
,
0100
0010
0100
0000
,
0010
0001
1000
0000
,
0100
1000
0001
0000
,
1000
0000
0010
0000
,
0001
0000
0010
0000
,
1000
0000
0100
0000
,
0001
0000
0100
0000
,
1000
0000
0010
0000
,
0100
0001
0100
0000
,
1000
1000
0000
0001
,
0000
1000
0001
0000
,
1000
0000
0100
0000
,
0010
0100
0010
0000
,
0100
1000
0001
0000
,
0010
0001
1000
0000
,
0001
0000
0100
0000
,
0010
0100
0010
0000
,
0100
0001
1000
0000
,
0010
1000
0001
0000
,
1000
0000
0100
0000
,
0001
0000
0100
0000
,
1000
0000
0010
0000
,
0001
0000
0010
0000
,
1000
0000
0100
0000
,
0010
0001
0010
0000
,
1000
0000
0001
0000
,
1001
0000
0100
0000
,
0010
0000
0010
0000
1000
0001
0010
0000
,
0001
0000
0001
0000
0010
0100
1000
0000
,
0001
0000
0001
0000
0100
0010
1000
0000
,
0001
0000
0001
0000
1000
0001
0100
0000
,
0010
0000
0010
0000
1000
0001
0100
0000
,
0001
0000
0001
0000
1000
0100
0010
0000
,
0100
0000
0100
0000
1000
0001
0100
0000
,
0010
0000
0010
0000
0100
0001
0010
0000
,
0200
0000
0320
0000
,
0032
0000
0203
0000
,
0320
0000
2030
0000
,
3002
0000
0023
0000
,
0130
0000
0010
0000
0001
0000
0100
0000
1000
0000
0010
0000
1000
0001
0100
0000
,
0010
0000
1000
0000
0100
0000
0001
0000
0010
0000
1000
0000
0001
1000
0100
0000
,
0010
0000
0001
0000
0100
0000
1000
0000
0010
0000
0001
0000
0010
0001
1000
0000
,
0100
0000
1000
0000
0010
0000
0001
0000
0100
0000
1000
0000
0010
1000
0001
0000
,
0100
0100
0000
0000
0000
0000
0000
0000
,
1000
1000
0000
0000
0000
0000
0000
0000
,
0001
0001
0000
0000
0000
0000
0000
0000
,
0100
0100
0000
0000
0000
0000
0000
0000
,
0001
0100
0001
0000
1000
0100
1000
0000
,
0001
0010
0001
0000
1000
0010
1000
0000
,
2002
0000
0000
3003
,
0010
0010
0000
0100
0000
0001
0000
0001
,
0010
0010
0000
0100
0000
1000
0000
1000
,
2002
0000
0000
0000
,
0000
0000
0000
3003
,
0001
0000
0010
0000
,
0100
0010
0100
0000
,
0010
0001
1000
0000
,
0100
1000
0001
0000
,
1000
0000
0010
0000
,
0100
0010
0100
0000
,
0010
1000
0001
0000
,
0100
0001
1000
0000
,
0001
0000
0010
0000
,
1000
0000
0010
0000
,
0001
0000
0100
0000
,
1000
0000
0100
0000
,
0001
0000
0010
0000
,
0100
1000
0100
0000
,
0001
0001
0000
1000
,
0000
0001
1000
0000
,
0001
0000
0100
0000
,
0010
0100
0010
0000
,
0100
0001
1000
0000
,
0010
1000
0001
0000
,
1000
0000
0100
0000
,
0010
0100
0010
0000
,
0100
1000
0001
0000
,
0010
0001
1000
0000
,
0001
0000
0100
0000
,
1000
0000
0100
0000
,
0001
0000
0010
0000
,
1000
0000
0010
0000
,
0001
0000
0100
0000
,
0010
1000
0010
0000
,
1000
0000
0001
0000
,
1001
0000
0100
0000
,
0001
0000
0100
0020
,
0000
0130
0001
0000
,
0010
0000
0100
0000
,
1000
0000
0010
0000
,
2000
0000
0000
3001
,
0200
0000
0000
0300
,
0001
0010
0001
0000
,
1000
0010
1000
0000
,
1000
0000
0100
0020
,
0000
0130
1000
0000
,
0010
0000
0100
0000
,
0001
0000
0010
0000
,
0002
0000
0000
1003
,
0200
0000
0000
0300
,
0010
0010
0000
0100
,
0000
1000
1000
0000
,
0010
0010
0000
0100
,
0000
0001
0001
0000
,
2002
0000
0000
0000
,
0000
0000
0000
3003
;

//---------------dance-single - ----------------
#NOTES:
     dance-single:
     :
     Medium:
     14:
     0.710,1.000,0.128,0.204,0.060,614.000,17.000,27.000,0.000,0.000,0.000,0.710,1.000,0.128,0.204,0.060,614.000,17.000,27.000,0.000,0.000,0.000:
0000
0000
0000
0000
,
0000
0000
0000
0000
,
0000
0000
0000
0000
,
0000
0000
0000
0000
,
0000
0000
0000
0000
,
1010
0000
0100
0010
0000
1000
0100
0000
,
0110
0000
0010
0001
0000
0100
0010
0000
,
2002
0000
0000
0000
,
0000
0000
0000
3003
,
0001
0100
0010
1000
,
0100
0010
0001
0100
,
0010
1000
0100
0010
,
0001
0010
0001
0010
,
0100
1000
0010
0100
,
0001
0010
0100
1000
,
0010
0100
0001
0010
,
0100
0010
0100
0010
,
0001
0100
0010
0100
,
1000
0100
0010
0100
,
0001
0100
0010
0100
,
1000
0100
0010
0100
,
0001
0000
0000
0001
0010
0000
0000
0010
,
0100
1000
0100
1000
,
0001
0001
0000
1000
,
0000
0010
0100
0000
,
1000
0100
0010
0001
,
0100
0010
1000
0100
,
0010
0001
0100
0010
,
1000
0010
1000
0010
,
0100
0001
0010
0100
,
1000
0010
0100
0001
,
0010
0100
1000
0010
,
0100
0010
0100
0010
,
1000
0100
0010
0100
,
0001
0100
0010
0100
,
1000
0100
0010
0100
,
0001
0100
0010
0100
,
1000
0000
0000
1000
0010
0000
0000
0010
,
0100
0001
0100
0001
,
1000
1000
0000
0001
,
0000
0010
0100
0000
,
0001
0100
0010
0200
,
0000
0301
0010
0100
,
0010
0001
0100
0001
,
0010
0001
1000
0100
,
2000
0000
0000
3001
,
0200
0000
0000
0300
,
0001
0010
0100
1000
,
0010
0100
0001
1000
,
1000
0100
0010
0200
,
0000
1300
0010
0100
,
0010
1000
0100
1000
,
0010
1000
0001
0100
,
0002
0000
0000
1003
,
0200
0000
0000
0300
,
0010
0010
0000
0110
,
0000
1000
1000
0000
,
0001
0100
0010
1000
,
0100
0010
0001
0100
,
0010
1000
0100
0010
,
0001
0010
0001
0010
,
0100
1000
0010
0100
,
0001
0010
0100
1000
,
0010
0100
0001
0010
,
0100
0010
0100
0010
,
0001
0100
0010
0100
,
1000
0100
0010
0100
,
0001
0100
0010
0100
,
1000
0100
0010
0100
,
0001
0000
0000
0001
0010
0000
0000
0010
,
0100
1000
0100
1000
,
0001
0001
0000
1000
,
0000
0010
0100
0000
,
1000
0100
0010
0001
,
0100
0010
1000
0100
,
0010
0001
0100
0010
,
1000
0010
1000
0010
,
0100
0001
0010
0100
,
1000
0010
0100
0001
,
0010
0100
1000
0010
,
0100
0010
0100
0010
,
1000
0100
0010
0100
,
0001
0100
0010
0100
,
1000
0100
0010
0100
,
0001
0100
0010
0100
,
1000
0000
0000
1000
0010
0000
0000
0010
,
0100
0001
0100
0001
,
0010
0000
0100
0000
,
1000
0100
0010
0001
,
0100
0000
0110
0000
0001
1000
0010
0000
,
1000
0000
0101
0000
0010
1000
0100
0000
,
1000
0000
0011
0000
0100
1000
0001
0000
,
1000
0000
0101
0000
0010
0100
0001
0000
,
0100
0000
1010
0000
1000
0001
0010
0000
,
0001
0000
0110
0000
1000
0100
0010
0000
,
0100
0000
0101
0000
1000
0010
0100
0000
,
0010
0000
1001
0000
0100
0001
0010
0000
,
0200
0000
0320
0000
,
0032
0000
0203
0000
,
0320
0000
2030
0000
,
3002
0000
0023
0000
,
0130
0000
0010
0000
0001
0100
0010
0000
0100
0001
0010
0000
0001
0010
0100
1000
,
0010
0000
0001
0000
1000
0100
0010
0000
0100
1000
0010
0000
1000
0010
0100
0001
,
0010
0000
1000
0000
0010
1000
0100
0000
1000
0010
0100
0000
0010
1000
0001
0010
,
0100
0000
0001
0000
0010
0001
0100
0000
0001
0010
0100
0000
0010
0001
1000
0010
,
0100
0100
0000
0000
0000
0000
0000
0000
,
0001
0001
0000
0000
0000
0000
0000
0000
,
1000
1000
0000
0000
0000
0000
0000
0000
,
0100
0100
0000
0000
0000
0000
0000
0000
,
1000
0010
0100
0001
1000
0010
0100
0001
,
0001
0010
0100
1000
0001
0010
0100
1000
,
0002
0000
0000
0003
,
0010
0010
0000
0100
0000
1000
0000
1000
,
0010
0010
0000
0100
0000
0001
0000
0001
,
2002
0000
0000
0000
,
0000
0000
0000
3003
,
1000
0100
0010
0001
,
0100
0010
1000
0100
,
0010
0001
0100
0010
,
1000
0010
1000
0010
,
0100
0001
0010
0100
,
1000
0010
0100
0001
,
0010
0100
1000
0010
,
0100
0010
0100
0010
,
1000
0100
0010
0100
,
0001
0100
1000
0010
,
0100
0010
0001
0010
,
0100
0010
1000
0100
,
1000
0000
0000
1000
0010
0000
0000
0010
,
0100
0001
0100
0001
,
1000
1000
0000
0001
,
0000
0010
0100
0000
,
0001
0100
0010
1000
,
0100
0010
0001
0100
,
0010
1000
0100
0010
,
0001
0010
0001
0010
,
0100
1000
0010
0100
,
0001
0010
0100
1000
,
0010
0100
0001
0010
,
0100
0010
0100
0010
,
0001
0100
0010
0100
,
1000
0100
0001
0010
,
0100
0010
1000
0010
,
0100
0010
0001
0100
,
0001
0000
0000
0001
0010
0000
0000
0010
,
0100
1000
0100
1000
,
0001
0000
1000
0000
,
1001
0000
0100
0100
,
1000
0100
0010
0200
,
0000
1300
0010
0100
,
0010
1000
0100
1000
,
0010
1000
0001
0100
,
0002
0000
0000
1003
,
0200
0000
0000
0300
,
1000
0010
0100
0001
,
0010
0100
1000
0001
,
0001
0100
0010
0200
,
0000
0301
0010
0100
,
0010
0001
0100
0001
,
0010
0001
1000
0100
,
2000
0000
0000
3001
,
0200
0000
0000
0300
,
0010
0010
0000
0110
,
0000
0001
0001
0000
,
0010
0010
0000
0110
,
0000
1000
1000
0000
,
2002
0000
0000
0000
,
0000
0000
0000
3003
;

//---------------dance-single - ----------------
#NOTES:
     dance-single:
     :
     Hard:
     17:
     0.936,1.000,0.415,0.181,0.136,789.000,55.000,24.000,0.000,0.000,0.000,0.936,1.000,0.415,0.181,0.136,789.000,55.000,24.000,0.000,0.000,0.000:
0000
0000
0000
0000
,
0000
0000
0000
0000
,
0000
0000
0000
0000
,
0000
0000
0000
0000
,
0000
0000
0000
0000
,
0011
0000
0100
0010
0000
0001
0100
0010
,
0110
0000
1000
0010
0000
1000
0100
0010
,
0001
0000
1000
0100
,
0010
0000
0001
0010
0001
0000
1000
0010
1000
0000
0001
0000
0100
0010
0100
0010
,
1000
0000
0100
1000
0100
0000
0010
0000
,
0001
1000
0001
0000
0010
0000
0100
1000
,
0100
0000
0010
0000
0001
0100
0001
0000
,
0100
0010
1000
0010
,
0100
0000
0001
1000
0001
0000
0010
0000
,
0100
1000
0100
0000
1000
0000
0010
1000
,
0010
0000
0100
0000
0001
1000
0001
0000
,
0010
0000
0100
0000
1000
0000
0001
1000
,
0001
0010
0001
1000
,
0001
0000
0100
0000
0010
1000
0010
0000
,
1000
0001
1000
0010
,
1000
0000
0100
0000
0010
0001
0010
0000
,
0001
0000
1000
0001
1000
0000
0100
0010
,
0100
0000
0010
0001
0010
0001
0010
0000
,
0100
0110
0000
0101
,
0000
1100
0110
0000
,
0001
0000
0100
0001
0100
0000
0010
0000
,
1000
0001
1000
0000
0010
0000
0100
0001
,
0100
0000
0010
0000
1000
0100
1000
0000
,
0100
0010
0001
0010
,
0100
0000
1000
0001
1000
0000
0010
0000
,
0100
0001
0100
0000
0001
0000
0010
0001
,
0010
0000
0100
0000
1000
0001
1000
0000
,
0010
0000
0100
0000
0001
0000
1000
0001
,
1000
0010
1000
0001
,
1000
0000
0100
0000
0010
0001
0010
0000
,
0001
1000
0001
0010
,
0001
0000
0100
0000
0010
1000
0010
0000
,
1000
0000
0001
1000
0001
0000
0100
0010
,
0100
0000
0010
1000
0010
1000
0010
0000
,
0100
0110
0000
1100
,
0000
0101
0110
0000
,
1000
0100
0010
0200
,
0000
1300
0010
0100
,
0010
0000
1000
0010
1000
0000
0010
0100
,
0010
0000
0100
0001
0100
0000
0001
1000
,
0002
0000
0000
1003
,
0200
0000
0000
0300
,
0010
0000
0001
0000
0100
0001
0100
0000
,
0001
1000
0001
0000
1000
0010
1000
0000
,
0001
0100
0010
0200
,
0000
0301
0010
0100
,
0010
0000
0001
0010
0001
0000
0010
0100
,
0010
0000
0100
1000
0100
0000
1000
0001
,
2000
0000
0000
3001
,
0200
0000
0000
0300
,
1010
1010
0000
0110
,
0000
0101
0101
0000
,
1000
0000
0100
1000
0100
0000
0010
0000
,
0001
1000
0001
0000
0010
0000
0100
1000
,
0100
0000
0010
0000
0001
0100
0001
0000
,
0100
0010
1000
0010
,
0100
0000
0001
1000
0001
0000
0010
0000
,
0100
1000
0100
0000
1000
0000
0010
1000
,
0010
0000
0100
0000
0001
1000
0001
0000
,
0010
0000
0100
0000
1000
0000
0001
1000
,
0001
0010
0001
1000
,
0001
0000
0100
0000
0010
1000
0010
0000
,
1000
0001
1000
0010
,
1000
0000
0100
0000
0010
0001
0010
0000
,
0001
0000
1000
0001
1000
0000
0100
0010
,
0100
0000
0010
0001
0010
0001
0010
0000
,
0100
0110
0000
0101
,
0000
1100
0110
0000
,
0001
0000
0100
0001
0100
0000
0010
0000
,
1000
0001
1000
0000
0010
0000
0100
0001
,
0100
0000
0010
0000
1000
0100
1000
0000
,
0100
0010
0001
0010
,
0100
0000
1000
0001
1000
0000
0010
0000
,
0100
0001
0100
0000
0001
0000
0010
0001
,
0010
0000
0100
0000
1000
0001
1000
0000
,
0010
0000
0100
0000
0001
0000
1000
0001
,
1000
0010
1000
0001
,
1000
0000
0100
0000
0010
0001
0010
0000
,
0001
1000
0001
0010
,
0001
0000
0100
0000
0010
1000
0010
0000
,
1000
0000
0001
1000
0001
0000
0100
0010
,
0100
0000
0010
1000
0010
1000
0010
0000
,
0100
0000
0000
0100
0001
0000
0000
0001
,
1000
0000
0100
0000
0010
0000
0100
0010
,
0100
0000
0110
0000
1000
0001
0010
0001
,
1000
0000
1100
0000
0010
0001
0100
0001
,
0010
0000
1010
0000
0100
0001
1000
0001
,
0100
0000
1100
0000
0010
0100
1000
0100
,
0010
0000
0011
0000
0001
1000
0010
1000
,
0001
0000
0110
0000
0001
0100
0010
0100
,
0001
0000
1100
0000
0001
0010
0100
0010
,
0001
0000
1010
0000
0100
0001
1000
0001
,
0200
0000
0320
0000
,
2030
0000
3200
0000
,
0320
0000
0032
0000
,
2003
0000
3020
0000
,
0130
0000
0010
0000
1000
0100
0010
0100
1000
0100
0010
0100
1000
0010
0100
0001
,
0010
0000
1000
0000
0001
0100
0010
0100
0001
0100
0010
0100
0001
0010
0100
1000
,
0010
0000
0001
0000
0010
0001
0100
0001
0010
0001
0100
0001
0010
0001
1000
0010
,
0100
0000
1000
0000
0010
1000
0100
1000
0010
1000
0100
1000
0010
1000
0001
0010
,
0100
0100
0000
0000
0000
0000
0000
0000
,
1000
1000
0000
0000
0000
0000
0000
0000
,
0001
0001
0000
0000
0000
0000
0000
0000
,
0100
0100
0000
0000
0000
0000
0000
0000
,
0001
0000
0010
0000
0100
1000
0100
0000
1000
0000
0010
0000
0100
0001
0100
0000
,
0001
0000
0010
0000
0100
1000
0100
0000
1000
0000
0010
0000
0100
0001
0100
0000
,
0220
0000
0000
0330
,
1010
1010
0000
0110
0000
0101
0000
1001
,
0011
0011
0000
0110
0000
1100
0000
0110
,
1001
0000
0001
0100
,
0010
0000
1000
0010
1000
0000
0001
0010
0001
0000
1000
0000
0100
0010
0100
0010
,
0001
0000
0100
0001
0100
0000
0010
0000
,
1000
0001
1000
0000
0010
0000
0100
0001
,
0100
0000
0010
0000
1000
0100
1000
0000
,
0100
0010
0001
0010
,
0100
0000
1000
0001
1000
0000
0010
0000
,
0100
0001
0100
0000
0001
0000
0010
0001
,
0010
0000
0100
0000
1000
0001
1000
0000
,
0010
0000
0100
0000
0001
0000
1000
0001
,
1000
0000
0010
0000
0100
0010
0100
0000
,
0001
0100
0001
0000
1000
0100
1000
0000
,
0001
0000
1000
0000
0001
0010
0001
0000
,
1000
0010
1000
0000
0010
0100
0010
0000
,
1000
0000
0001
1000
0001
0000
0100
0010
,
0100
0000
0010
1000
0010
1000
0010
0000
,
0100
0110
0000
1100
,
0000
0101
0110
0000
,
1000
0000
0100
1000
0100
0000
0010
0000
,
0001
1000
0001
0000
0010
0000
0100
1000
,
0100
0000
0010
0000
0001
0100
0001
0000
,
0100
0010
1000
0010
,
0100
0000
0001
1000
0001
0000
0010
0000
,
0100
1000
0100
0000
1000
0000
0010
1000
,
0010
0000
0100
0000
0001
1000
0001
0000
,
0010
0000
0100
0000
1000
0000
0001
1000
,
0001
0000
0010
0000
0100
0010
0100
0000
,
1000
0100
1000
0000
0001
0100
0001
0000
,
1000
0000
0001
0000
1000
0010
1000
0000
,
0001
0010
0001
0000
0010
0100
0010
0000
,
0001
0000
1000
0001
1000
0000
0100
0010
,
0100
0000
0010
0001
0010
0001
0010
0000
,
0100
0000
0010
0000
,
0110
0000
0000
0000
0001
1000
0001
1000
,
0001
0100
0010
0200
,
0000
0301
0010
0100
,
0010
0000
0001
0010
0001
0000
0010
0100
,
0010
0000
0100
1000
0100
0000
1000
0001
,
2000
0000
0000
3001
,
0200
0000
0000
0300
,
0010
0000
1000
0000
0100
1000
0100
0000
,
1000
0001
1000
0000
0001
0010
0001
0000
,
1000
0100
0010
0200
,
0000
1300
0010
0100
,
0010
0000
1000
0010
1000
0000
0010
0100
,
0010
0000
0100
0001
0100
0000
0001
1000
,
0002
0000
0000
1003
,
0200
0000
0000
0300
,
0011
0011
0000
0110
,
0000
1100
1100
0000
,
1010
1010
0000
0110
,
0000
0101
0101
0000
,
2002
0000
0000
0000
,
0000
0000
0000
3003
;

//---------------dance-single - ----------------
#NOTES:
     dance-single:
     :
     Challenge:
     18:
     1.000,1.000,0.445,0.181,0.166,860.000,59.000,24.000,0.000,0.000,0.000,1.000,1.000,0.445,0.181,0.166,860.000,59.000,24.000,0.000,0.000,0.000:
0000
0000
0000
0000
,
0000
0000
0000
0000
,
0000
0000
0000
0000
,
0000
0000
0000
0000
,
0000
0000
0000
0000
,
1010
0000
0100
0010
0000
1000
0100
0010
,
0110
0000
0001
0010
0000
0001
0100
0010
,
1000
0000
0001
0100
,
0010
0000
1000
0010
1000
0000
0001
0010
0100
1000
0100
1000
0001
0100
0001
0100
,
0010
0000
0100
0001
0100
0000
0010
0000
,
1000
0001
1000
0000
0010
0000
0100
0001
,
0100
0000
0010
0000
1000
0100
1000
0000
,
0100
0000
0010
0001
0010
0000
0100
0010
,
0100
0000
1000
0001
1000
0000
0010
0000
,
0100
0001
0100
0000
0001
0000
0010
0001
,
0010
0000
0100
0000
1000
0001
1000
0000
,
0010
0000
0100
0001
1000
0100
0010
0001
,
1000
0010
1000
0001
,
1000
0000
0100
0000
0010
0001
1000
0001
,
0010
0001
1000
0001
,
0100
0000
0001
0000
1000
0100
0010
0100
,
1000
0000
0001
1000
0001
0000
0100
0010
,
1000
0010
1000
0010
1000
0001
1000
0001
,
0010
0100
0000
1100
,
0000
0101
0011
0000
,
0010
0000
0100
1000
0100
0000
0010
0000
,
0001
1000
0001
0000
0010
0000
0100
1000
,
0100
0000
0010
0000
0001
0100
0001
0000
,
0100
0000
0010
1000
0010
0000
0100
0010
,
0100
0000
0001
1000
0001
0000
0010
0000
,
0100
1000
0100
0000
1000
0000
0010
1000
,
0010
0000
0100
0000
0001
1000
0001
0000
,
0010
0000
0100
1000
0001
0100
0010
1000
,
0001
0010
0001
1000
,
0001
0000
0100
0000
0010
1000
0001
1000
,
0010
1000
0001
1000
,
0100
0000
1000
0000
0001
0100
0010
0100
,
0001
0000
1000
0001
1000
0000
0100
0010
,
0001
0010
0001
0010
0001
1000
0001
1000
,
0010
0100
0000
0101
,
0000
1100
0110
0000
,
0001
0100
1000
0200
,
0000
0301
0010
0100
,
0010
0000
0001
0010
0001
0000
0010
0100
,
0010
0000
0100
1000
0100
0000
1000
0001
,
2000
0000
0000
3001
,
0200
0000
0000
0300
,
0010
1000
0010
1000
0001
1000
0001
1000
,
0001
0010
0001
0010
0100
0010
0100
0010
,
0001
1000
0100
0002
,
0000
0103
1000
0010
,
0100
0000
0010
1000
0010
0000
0100
0010
,
0100
0000
0001
0100
0001
0000
1000
0001
,
2000
0000
0000
3001
,
0020
0000
0000
0030
,
0011
0110
0000
1100
,
0000
1001
1001
0000
,
0010
0000
0100
0001
0100
0000
0010
0000
,
1000
0001
1000
0000
0010
0000
0100
0001
,
0100
0000
0010
0000
1000
0100
1000
0000
,
0100
0000
0010
0001
0010
0000
0100
0010
,
0100
0000
1000
0001
1000
0000
0010
0000
,
0100
0001
0100
0000
0001
0000
0010
0001
,
0010
0000
0100
0000
1000
0001
1000
0000
,
0010
0000
0100
0001
1000
0100
0010
0001
,
1000
0010
1000
0001
,
1000
0000
0100
0000
0010
0001
1000
0001
,
0010
0001
1000
0001
,
0100
0000
0001
0000
1000
0100
0010
0100
,
1000
0000
0001
1000
0001
0000
0100
0010
,
1000
0010
1000
0010
1000
0001
1000
0001
,
0010
0100
0000
1100
,
0000
0101
0011
0000
,
0010
0000
0100
1000
0100
0000
0010
0000
,
0001
1000
0001
0000
0010
0000
0100
1000
,
0100
0000
0010
0000
0001
0100
0001
0000
,
0100
0000
0010
1000
0010
0000
0100
0010
,
0100
0000
0001
1000
0001
0000
0010
0000
,
0100
1000
0100
0000
1000
0000
0010
1000
,
0010
0000
0100
0000
0001
1000
0001
0000
,
0010
0000
0100
1000
0001
0100
0010
1000
,
0001
0010
0001
1000
,
0001
0000
0100
0000
0010
1000
0001
1000
,
0010
1000
0001
1000
,
0100
0000
1000
0000
0001
0100
0010
0100
,
0001
0000
1000
0001
1000
0000
0100
0010
,
0001
0010
0001
0010
0001
1000
0001
1000
,
0010
0000
0000
0010
0100
0000
0000
0100
,
0001
0000
1000
0000
0001
1000
0001
1000
,
0100
0000
0110
0000
0001
0100
1000
0010
,
0001
0000
0101
0000
0010
1000
0100
0001
,
0010
0000
0011
0000
0100
1000
0010
0001
,
0100
0000
0101
0000
0010
1000
0100
0001
,
0010
0000
1010
0000
1000
0010
0001
0100
,
1000
0000
0110
0000
0001
0100
1000
0010
,
0001
0000
0101
0000
1000
0010
0001
0100
,
1000
0000
0011
0000
0100
1000
0010
0001
,
0200
0000
0320
0000
,
0032
0000
0203
0000
,
0320
0000
2030
0000
,
3002
0000
0023
0000
,
0130
0000
0000
0000
0010
0000
0000
0000
0001
0000
0100
0000
1000
0000
0100
0000
0001
0000
0100
0000
1000
0000
0100
0000
0001
0000
0010
0000
1000
0000
0010
0100
,
0010
0000
0000
0000
0001
0000
0000
0000
1000
0000
0100
0000
0001
0000
0100
0000
1000
0000
0100
0000
0001
0000
0100
0000
1000
0000
0010
0000
0001
0000
0010
0100
,
0010
0000
0000
0000
1000
0000
0000
0000
0010
0000
1000
0000
0100
0000
1000
0000
0010
0000
1000
0000
0100
0000
1000
0000
0010
0000
1000
0000
0001
0000
0010
0100
,
0010
0000
0000
0000
0001
0000
0000
0000
0010
0000
0001
0000
0100
0000
0001
0000
0010
0000
0001
0000
0100
0000
0001
0000
0010
0000
0001
0000
1000
0000
0010
0100
,
0010
0110
0000
0000
0000
0000
0000
0000
,
1000
1100
0000
0000
0000
0000
0000
0000
,
0001
0101
0000
0000
0000
0000
0000
0000
,
0100
0110
0000
0000
0000
0000
0000
0000
,
1000
0000
1010
0000
0100
0001
0100
0000
0001
0000
0011
0000
0100
1000
0100
0000
,
1000
0000
1010
0000
0100
0001
0100
0000
0001
0000
0011
0000
0100
1000
0100
0000
,
0220
0000
0000
0330
,
0011
0110
0000
1100
0000
1001
0000
1010
,
0110
1010
0000
1001
0000
0101
0000
0110
,
1001
0000
1000
0100
,
0010
0000
0001
0010
0001
0000
1000
0010
0100
0001
0100
0001
1000
0100
1000
0100
,
0010
0000
0100
1000
0100
0000
0010
0000
,
0001
1000
0001
0000
0010
0000
0100
1000
,
0100
0000
0010
0000
0001
0100
0001
0000
,
0100
0000
0010
1000
0010
0000
0100
0010
,
0100
0000
0001
1000
0001
0000
0010
0000
,
0100
1000
0100
0000
1000
0000
0010
1000
,
0010
0000
0100
0000
0001
1000
0001
0000
,
0010
0000
0100
1000
0001
0100
0010
1000
,
0001
0000
0010
0000
0100
0010
0100
0000
,
1000
0100
1000
0000
0010
1000
0001
1000
,
0010
0000
0100
0000
0001
0100
0001
0000
,
1000
0100
1000
0000
0001
0100
0010
0100
,
0001
1000
0001
1000
0001
1000
0100
0010
,
0001
0010
0001
0010
0001
1000
0001
1000
,
0010
0100
0000
0101
,
0000
1100
1010
0000
,
0010
0000
0100
0001
0100
0000
0010
0000
,
1000
0001
1000
0000
0010
0000
0100
0001
,
0100
0000
0010
0000
1000
0100
1000
0000
,
0100
0000
0010
0001
0010
0000
0100
0010
,
0100
0000
1000
0001
1000
0000
0010
0000
,
0100
0001
0100
0000
0001
0000
0010
0001
,
0010
0000
0100
0000
1000
0001
1000
0000
,
0010
0000
0100
0001
1000
0100
0010
0001
,
1000
0000
0010
0000
0100
0010
0100
0000
,
0001
0100
0001
0000
0010
0001
1000
0001
,
0010
0000
0100
0000
1000
0100
1000
0000
,
0001
0100
0001
0000
1000
0100
0010
0100
,
1000
0001
1000
0001
1000
0001
0100
0010
,
1000
0010
1000
0010
1000
0001
1000
0001
,
0010
0000
0100
0000
,
0110
0000
0000
0000
1000
0001
1000
0001
,
1000
0100
0001
0200
,
0000
1300
0010
0100
,
0010
0000
1000
0010
1000
0000
0010
0100
,
0010
0000
0100
0001
0100
0000
0001
1000
,
0002
0000
0000
1003
,
0200
0000
0000
0300
,
0010
0001
0010
0001
1000
0001
1000
0001
,
1000
0010
1000
0010
0100
0010
0100
0010
,
1000
0001
0100
2000
,
0000
3100
0001
0010
,
0100
0000
0010
0001
0010
0000
0100
0010
,
0100
0000
1000
0100
1000
0000
0001
1000
,
0002
0000
0000
1003
,
0020
0000
0000
0030
,
1010
0110
0000
0101
,
0000
1001
1001
0000
,
0011
0110
0000
1100
,
0000
1001
1001
0000
,
0220
0000
0000
0000
,
0000
0000
0000
0330
;

//---------------dance-single - ----------------
#NOTES:
     dance-single:
     :
     Edit:
     19:
     1.000,1.000,0.604,0.347,0.245,1000.000,80.000,46.000,0.000,0.000,0.000,1.000,1.000,0.604,0.347,0.245,1000.000,80.000,46.000,0.000,0.000,0.000: // measure 0
0000
0000
0000
0000
,  // measure 1
0000
0000
0000
0000
,  // measure 2
0000
0000
0000
0000
,  // measure 3
0000
0000
0000
0000
,  // measure 4
0000
0000
0000
0000
,  // measure 5
1010
0000
0001
0010
0001
0100
0010
1000
,  // measure 6
1100
0000
0010
0001
1000
0010
0100
0010
,  // measure 7
2000
0000
3002
0203
,  // measure 8
0310
0001
0010
0001
0100
0010
0100
0010
1000
0100
1000
0100
1000
0010
0100
0001
,  // measure 9
1000
0000
0100
0010
0100
0000
0001
0000
,  // measure 10
1000
0100
1000
0000
0010
0000
0100
0001
,  // measure 11
0100
0000
0010
0000
1000
0100
1000
0000
,  // measure 12
0010
0001
0010
0001
0100
0010
0100
0010
,  // measure 13
0100
0000
1000
0010
1000
0000
0001
0000
,  // measure 14
0010
0001
0010
0000
1000
0000
0100
1000
,  // measure 15
0100
0000
0001
0000
1000
0001
1000
0000
,  // measure 16
0001
0010
0100
1000
0010
0100
0001
0100
,  // measure 17
0001
0010
1000
0001
,  // measure 18
1000
0000
0100
0010
1000
0010
1000
0010
,  // measure 19
0100
0000
0001
0000
1000
0000
0100
0010
,  // measure 20
0100
0000
0010
0000
1000
0100
1000
0100
,  // measure 21
0010
0000
0001
0100
0010
0000
0001
0100
,  // measure 22
0001
0100
0010
1000
0100
1000
0100
1000
,  // measure 23
0001
0101
0000
1100
,  // measure 24
0000
0110
2002
3003
,  // measure 25
0010
1000
0010
1000
0100
0000
0001
1000
,  // measure 26
0001
1000
0100
0000
1000
0001
0010
0001
,  // measure 27
0010
0000
1000
0100
1000
0100
0001
0000
,  // measure 28
1000
0001
1000
0001
0010
0100
0010
0100
,  // measure 29
1000
0100
1000
0100
1000
0000
0001
0100
,  // measure 30
0001
0100
0001
0000
0010
0100
0010
0100
,  // measure 31
0001
0000
1000
0100
1000
0100
0010
0000
,  // measure 32
1000
0010
0100
0001
0010
0100
1000
0010
,  // measure 33
0100
0010
0001
1000
,  // measure 34
0001
0000
0010
1000
0010
1000
0010
1000
,  // measure 35
0100
0000
1000
0000
0001
0000
0010
0100
,  // measure 36
0001
0000
0010
0000
0100
0001
0010
0100
,  // measure 37
1000
0000
0010
0001
0100
0000
0010
0001
,  // measure 38
1000
0010
1000
0010
0100
0001
0100
0001
,  // measure 39
0010
0000
0011
0000
,  // measure 40
0100
0010
2002
3003
,  // measure 41
0011
0001
0100
0010
,  // measure 42
1010
1000
0010
0010
,  // measure 43
0001
0000
0100
0010
0100
0010
1000
0001
,  // measure 44
1000
0010
1000
0010
0100
0001
0100
0001
,  // measure 45
0010
0000
1001
1001
,  // measure 46
2002
0000
0000
3003
,  // measure 47
0001
0010
0100
1000
0001
0100
0010
1000
,  // measure 48
0001
0010
0100
1000
0001
0100
0010
1000
,  // measure 49
0001
1000
0100
0010
,  // measure 50
0110
0001
0010
0100
,  // measure 51
1010
0000
1000
0010
1000
0010
0100
0001
,  // measure 52
1000
0100
1000
0100
0010
0001
0010
0001
,  // measure 53
0200
0300
1001
1001
,  // measure 54
2002
0000
0000
3003
,  // measure 55
1010
0110
0000
0101
,  // measure 56
0000
1001
2002
3003
,  // measure 57
1000
0100
1000
0100
0010
0000
0001
0100
,  // measure 58
0001
0100
0010
0000
1000
0010
1000
0010
,  // measure 59
0100
0000
0001
0010
0001
0010
0100
0000
,  // measure 60
0001
0010
0100
1000
0001
0100
0010
1000
,  // measure 61
0001
0010
0001
0010
0001
0000
1000
0010
,  // measure 62
1000
0010
0100
0000
0001
0010
0100
1000
,  // measure 63
0001
0000
0100
1000
0100
1000
0001
0000
,  // measure 64
0010
0001
0100
0010
1000
0100
0010
0001
,  // measure 65
1000
0010
1000
0001
,  // measure 66
1000
0000
0010
1000
0010
1000
0001
0100
,  // measure 67
0001
0000
0100
0000
0010
0000
0100
0001
,  // measure 68
1000
0000
0010
0000
0001
1000
0100
1000
,  // measure 69
0100
0000
0001
1000
0010
0000
1000
0100
,  // measure 70
1000
0100
0010
0100
0010
0001
1000
0010
,  // measure 71
0100
0101
0000
0011
,  // measure 72
0000
1100
1001
0000
,  // measure 73
0100
0001
0100
0001
0100
0000
1000
0010
,  // measure 74
1000
0010
0100
0000
0001
0010
0001
0010
,  // measure 75
0001
0000
1000
0010
1000
0100
1000
0000
,  // measure 76
0001
0100
0010
1000
0001
0010
0100
1000
,  // measure 77
0001
0100
0010
0100
0010
0000
1000
0001
,  // measure 78
1000
0001
0100
0000
0001
1000
0010
1000
,  // measure 79
0010
0000
0001
0100
0001
0100
0010
0000
,  // measure 80
0001
1000
0001
1000
0010
0100
0010
0100
,  // measure 81
0001
0100
0001
1000
,  // measure 82
0100
0000
0001
0010
0001
0010
0100
1000
,  // measure 83
0100
0000
1000
0000
0001
0000
1000
0001
,  // measure 84
0100
0000
0001
0000
0010
0100
1000
0100
,  // measure 85
1000
0000
0001
0100
0010
0000
1000
0010
,  // measure 86
1000
0001
0100
0001
1000
0100
1000
0001
,  // measure 87
0010
0000
0001
1000
0001
0000
0100
0001
,  // measure 88
1000
0100
0010
0001
0100
0010
1000
0001
,  // measure 89
0010
0000
0000
0000
0201
0000
0000
0000
0301
0000
0010
0000
0100
0000
1000
0100
,  // measure 90
1000
0000
0001
0000
0010
0000
0100
0000
0001
0000
1000
0000
0100
0000
0010
0001
,  // measure 91
0010
0000
0001
0000
1000
0000
0010
0000
0100
0000
0010
0000
1000
0000
0010
0100
,  // measure 92
0010
0000
0100
0000
0001
0000
1000
0000
0100
0000
0010
0000
0001
0000
0100
0001
,  // measure 93
0100
0000
0000
0010
0000
0000
0100
0000
0000
0001
0000
0000
1000
0000
0010
0000
1000
0000
0001
0000
0100
0000
0001
0000
,  // measure 94
1000
0000
0000
0000
0100
0000
0000
0000
1000
0000
0000
0000
0001
0000
0000
0000
0010
0000
0000
0000
0001
0000
0000
0000
0100
0000
0000
0000
0000
0000
0010
0000
0000
0000
0000
0000
0000
0000
0000
0000
0000
0000
0010
0000
0000
0001
0000
0000
,  // measure 95
0010
0100
0010
1000
0001
0010
0100
1000
,  // measure 96
0010
0001
0001
0001
0010
0001
0001
0000
,  // measure 97
2020
0000
0000
0030
0200
0000
0000
0300
,  // measure 98
0002
0000
0000
3000
0200
0000
0000
0003
,  // measure 99
0020
0000
0000
0300
2000
0000
0000
0030
,  // measure 100
0002
0000
0000
3000
0020
0000
0000
0033
,  // measure 101
0011
0000
0000
0000
0110
0000
0000
0000
0010
0000
1000
0000
0001
0000
0010
0000
0100
0000
1000
0000
0001
0000
0100
0000
0010
0000
0100
0000
0010
0100
0010
0100
,  // measure 102
0010
0000
0000
0000
0110
0000
0000
0000
1000
0000
0010
0000
0100
0000
0001
0000
1000
0000
0100
0000
0010
0000
0001
0000
0100
0000
0010
0000
1000
0100
1000
0100
,  // measure 103
1000
0000
0000
0000
0110
0000
0000
0000
0001
0000
0100
0000
0001
0000
0100
0000
0010
0000
1000
0000
0001
0000
0010
0000
0100
0000
1000
0000
0001
0100
0001
0100
,  // measure 104
0001
0000
0000
0000
0110
0000
0000
0000
1000
0000
0100
0000
0010
0000
0001
0000
0010
0000
0100
0000
1000
0000
0001
0000
0100
0000
0010
0000
0100
0010
0100
0010
,  // measure 105
0100
0220
0000
0000
0000
0000
0000
0300
,  // measure 106
1030
2200
0000
0000
0000
0000
0000
3000
,  // measure 107
0301
0202
0000
0000
0000
0000
0000
0300
,  // measure 108
0103
0220
0000
0000
0000
0000
0000
0300
,  // measure 109
0031
0000
0011
0000
0100
1000
0100
0000
1000
0000
1010
0000
0100
0001
0100
0000
,  // measure 110
0001
0000
0011
0000
0100
1000
0100
0000
1000
0000
1010
0000
0100
0001
0100
0000
,  // measure 111
0220
0000
0000
0330
,  // measure 112
1010
0110
0000
0101
0000
1001
0000
0011
,  // measure 113
1001
0011
0000
1001
0000
1100
0000
0110
,  // measure 114
2002
3000
0203
0320
,  // measure 115
1030
0010
1000
0010
0100
0001
0100
0001
1000
0100
1000
0100
0010
0001
0010
0001
,  // measure 116
1000
0100
1000
0100
0010
0000
0100
0010
,  // measure 117
0100
0010
0100
0000
1000
0100
1000
0100
,  // measure 118
1000
0000
0001
0100
0001
0100
0001
0000
,  // measure 119
1000
0010
1000
0010
0100
0001
0100
0001
,  // measure 120
1000
0100
0010
0001
1000
0000
0010
0100
,  // measure 121
0010
0100
0010
0000
1000
0001
0100
0010
,  // measure 122
1000
0000
0001
0010
0100
1000
0001
0000
,  // measure 123
1000
0001
1000
0001
1000
0001
1000
0001
,  // measure 124
0010
0001
0010
0001
0010
0100
0010
0100
,  // measure 125
0001
0100
0001
0100
0010
1000
0010
1000
,  // measure 126
0001
0100
0001
0100
0010
0100
0010
0100
,  // measure 127
1000
0010
0100
0001
1000
0100
0010
0001
,  // measure 128
1000
0010
0100
0001
1000
0001
0010
0100
,  // measure 129
1000
0001
1000
0100
0010
0001
0100
0010
,  // measure 130
1000
1010
0000
0101
,  // measure 131
0000
1001
0220
0330
,  // measure 132
1000
0001
0100
0001
0100
0000
1000
0001
,  // measure 133
0010
0001
0010
0000
0100
0010
0100
0010
,  // measure 134
0100
0000
0010
0001
0100
0001
0100
0000
,  // measure 135
0001
0100
0010
1000
0001
0010
0100
1000
,  // measure 136
0100
1000
0001
0010
0100
0000
0010
0100
,  // measure 137
0010
0100
0010
0000
1000
0001
1000
0001
,  // measure 138
0100
0000
0010
1000
0100
0010
0001
0000
,  // measure 139
1000
0001
0100
0010
1000
0001
0010
0100
,  // measure 140
1000
0010
1000
0010
0100
0001
0100
0001
,  // measure 141
1000
0100
1000
0100
1000
0001
0100
0010
,  // measure 142
1000
0001
0010
0100
1000
0001
0100
0010
,  // measure 143
0100
0001
1000
0010
0100
0001
0010
0001
,  // measure 144
1000
0010
1000
0001
0100
0001
1000
0100
,  // measure 145
1000
0001
0100
0010
1000
0100
0010
0001
,  // measure 146
1000
0000
0110
0000
,  // measure 147
1001
0000
0010
1000
0010
1000
0010
1000
,  // measure 148
0001
0100
1000
0010
,  // measure 149
1001
0001
0100
0001
,  // measure 150
0010
0000
1000
0100
0010
0001
0100
0010
,  // measure 151
0100
0001
1000
0010
0100
0001
1000
0100
,  // measure 152
0010
0000
1001
1001
,  // measure 153
2002
0000
0000
3003
,  // measure 154
0001
0100
0010
1000
0100
0001
0100
1000
,  // measure 155
0010
0100
0010
1000
0001
0100
0010
0100
,  // measure 156
0001
1000
0010
0100
,  // measure 157
1001
0001
0010
0100
,  // measure 158
1000
0000
0010
1000
0010
1000
0001
0010
,  // measure 159
0100
1000
0010
0100
0001
1000
0010
0100
,  // measure 160
0010
0000
1001
1001
,  // measure 161
2002
0000
0000
3003
,  // measure 162
0011
0101
0000
1100
,  // measure 163
0000
1010
0110
0000
,  // measure 164
1001
0110
0000
1100
,  // measure 165
0000
1001
1100
0110
,  // measure 166
0022
0000
0000
0000
,  // measure 167
0000
0000
0000
0033
;

//---------------dance-double - ----------------
#NOTES:
     dance-double:
     :
     Easy:
     11:
     0.497,1.000,0.045,0.211,0.015,427.000,6.000,28.000,0.000,0.000,0.000,0.497,1.000,0.045,0.211,0.015,427.000,6.000,28.000,0.000,0.000,0.000:
00000000
00000000
00000000
00000000
,
00000000
00000000
00000000
00000000
,
00000000
00000000
00000000
00000000
,
00000000
00000000
00000000
00000000
,
00000000
00000000
00000000
00000000
,
00001000
00000000
00000100
00000000
00000000
00000010
00000001
00000000
,
00000100
00000000
00000010
00000000
00000000
00001000
00000001
00000000
,
00002002
00000000
00000000
00000000
,
00000000
00000000
00000000
00003003
,
00000010
00000000
00000100
00000001
,
00000000
00000100
00000001
00000000
,
00000010
00000001
00000000
00001000
,
00000100
00000000
00010000
00000000
,
00001000
00000000
00100000
00010000
,
00000000
00100000
00010000
00000000
,
10000000
00010000
00000000
00000000
,
01000000
00100000
10000000
00000000
,
01000000
00000000
00010000
00000000
,
00001000
00000000
00000010
00000000
,
00000001
00000000
00000100
00000000
,
00001000
00000000
00000100
00000000
,
00000001
00000000
00000010
00000000
,
00001000
00010000
00001000
00000000
,
00100000
00100000
00000000
00010000
,
00000000
01000000
00010000
00000000
,
00100000
00000000
01000000
10000000
,
00000000
01000000
10000000
00000000
,
00100000
10000000
00000000
00010000
,
01000000
00000000
00001000
00000000
,
00010000
00000000
00000010
00001000
,
00000000
00000010
00001000
00000000
,
00000001
00001000
00000000
00000000
,
00000100
00000010
00000001
00000000
,
00000100
00000000
00001000
00000000
,
00010000
00000000
00100000
00000000
,
10000000
00000000
01000000
00000000
,
00010000
00000000
01000000
00000000
,
10000000
00000000
00100000
00000000
,
00010000
00001000
00010000
00000000
,
00000010
00000010
00000000
00001000
,
00000000
00000100
00001000
00000000
,
00000001
00000000
00000100
00000020
,
00000000
00000130
00000001
00000000
,
00000010
00000000
00000100
00000000
,
00010000
00000000
00001000
00000000
,
00200000
00000000
00000000
00310000
,
02000000
00000000
00000000
03000000
,
00100000
10000000
00100000
00000000
,
01000000
00010000
01000000
00000000
,
10000000
00000000
01000000
00200000
,
00000000
01300000
10000000
00000000
,
00100000
00000000
01000000
00000000
,
00001000
00000000
00010000
00000000
,
00000020
00000000
00000000
00001030
,
00000200
00000000
00000000
00000300
,
00000010
00000010
00000000
00000100
,
00000000
00001000
00001000
00000000
,
00000010
00000000
00000100
00000001
,
00000000
00000100
00000001
00000000
,
00000010
00000001
00000000
00001000
,
00000100
00000000
00010000
00000000
,
00001000
00000000
00100000
00010000
,
00000000
00100000
00010000
00000000
,
10000000
00010000
00000000
00000000
,
01000000
00100000
10000000
00000000
,
01000000
00000000
00010000
00000000
,
00001000
00000000
00000010
00000000
,
00000001
00000000
00000100
00000000
,
00001000
00000000
00000100
00000000
,
00000001
00000000
00000010
00000000
,
00001000
00010000
00001000
00000000
,
00100000
00100000
00000000
00010000
,
00000000
01000000
00010000
00000000
,
00100000
00000000
01000000
10000000
,
00000000
01000000
10000000
00000000
,
00100000
10000000
00000000
00010000
,
01000000
00000000
00001000
00000000
,
00010000
00000000
00000010
00001000
,
00000000
00000010
00001000
00000000
,
00000001
00001000
00000000
00000000
,
00000100
00000010
00000001
00000000
,
00000100
00000000
00001000
00000000
,
00010000
00000000
00100000
00000000
,
10000000
00000000
01000000
00000000
,
00010000
00000000
01000000
00000000
,
10000000
00000000
00100000
00000000
,
00010000
00001000
00010000
00000000
,
00000010
00000000
00001000
00000000
,
00001001
00000000
00000100
00000000
,
00000010
00000000
00000010
00000000
00000001
00000100
00001000
00000000
,
00010000
00000000
00010000
00000000
00001000
00010000
01000000
00000000
,
10000000
00000000
10000000
00000000
01000000
10000000
00100000
00000000
,
00010000
00000000
00010000
00000000
00100000
00010000
00001000
00000000
,
00010000
00000000
00010000
00000000
00001000
00000010
00000001
00000000
,
00001000
00000000
00001000
00000000
00000001
00000100
00000010
00000000
,
00010000
00000000
00010000
00000000
00001000
00000100
00000010
00000000
,
00001000
00000000
00001000
00000000
00000100
00000010
00000001
00000000
,
00000200
00000000
00000320
00000000
,
00002030
00000000
00023000
00000000
,
02030000
00000000
03200000
00000000
,
20300000
00000000
30020000
00000000
,
01030000
00000000
00100000
00000000
10000000
00000000
01000000
00000000
00100000
00000000
01000000
00000000
00010000
00001000
00010000
00000000
,
00000100
00000000
00000010
00000000
00000001
00000000
00000100
00000000
00000010
00000000
00000100
00000000
00001000
00010000
00001000
00000000
,
00010000
00000000
01000000
00000000
10000000
00000000
00100000
00000000
00010000
00000000
00001000
00000000
00000100
00000010
00000100
00000000
,
00001000
00000000
00000100
00000000
00000001
00000000
00000010
00000000
00001000
00000000
00010000
00000000
01000000
00100000
01000000
00000000
,
10000000
10000000
00000000
00000000
00000000
00000000
00000000
00000000
,
00100000
00100000
00000000
00000000
00000000
00000000
00000000
00000000
,
01000000
01000000
00000000
00000000
00000000
00000000
00000000
00000000
,
00010000
00010000
00000000
00000000
00000000
00000000
00000000
00000000
,
00100000
00010000
00100000
00000000
00001000
00010000
00001000
00000000
,
00000100
00000010
00000100
00000000
00000001
00001000
00000001
00000000
,
00000220
00000000
00000000
00000330
,
00000010
00000010
00000000
00000100
00000000
00001000
00000000
00001000
,
00000010
00000010
00000000
00010000
00000000
00001000
00000000
00100000
,
20020000
00000000
00000000
00000000
,
00000000
00000000
00000000
30030000
,
00100000
00000000
01000000
10000000
,
00000000
01000000
10000000
00000000
,
00100000
10000000
00000000
00010000
,
01000000
00000000
00001000
00000000
,
00010000
00000000
00000010
00001000
,
00000000
00000010
00001000
00000000
,
00000001
00001000
00000000
00000000
,
00000100
00000010
00000001
00000000
,
00000100
00000000
00001000
00000000
,
00010000
00000000
00100000
00000000
,
10000000
00000000
01000000
00000000
,
00010000
00000000
01000000
00000000
,
10000000
00000000
00100000
00000000
,
00010000
00001000
00010000
00000000
,
00000010
00000010
00000000
00001000
,
00000000
00000100
00001000
00000000
,
00000010
00000000
00000100
00000001
,
00000000
00000100
00000001
00000000
,
00000010
00000001
00000000
00001000
,
00000100
00000000
00010000
00000000
,
00001000
00000000
00100000
00010000
,
00000000
00100000
00010000
00000000
,
10000000
00010000
00000000
00000000
,
01000000
00100000
10000000
00000000
,
01000000
00000000
00010000
00000000
,
00001000
00000000
00000010
00000000
,
00000001
00000000
00000100
00000000
,
00001000
00000000
00000100
00000000
,
00000001
00000000
00000010
00000000
,
00001000
00010000
00001000
00000000
,
00100000
00000000
00010000
00000000
,
10010000
00000000
01000000
00000000
,
10000000
00000000
01000000
00200000
,
00000000
01300000
10000000
00000000
,
00100000
00000000
01000000
00000000
,
00001000
00000000
00010000
00000000
,
00000020
00000000
00000000
00001030
,
00000200
00000000
00000000
00000300
,
00000010
00000001
00000010
00000000
,
00000100
00001000
00000100
00000000
,
00000001
00000000
00000100
00000020
,
00000000
00000130
00000001
00000000
,
00000010
00000000
00000100
00000000
,
00010000
00000000
00001000
00000000
,
00200000
00000000
00000000
00310000
,
02000000
00000000
00000000
03000000
,
00100000
00100000
00000000
01000000
,
00000000
00010000
00010000
00000000
,
00100000
00100000
00000000
01000000
,
00000000
10000000
10000000
00000000
,
20020000
00000000
00000000
00000000
,
00000000
00000000
00000000
30030000
;

//---------------dance-double - ----------------
#NOTES:
     dance-double:
     :
     Medium:
     14:
     0.708,1.000,0.128,0.204,0.060,612.000,17.000,27.000,0.000,0.000,0.000,0.708,1.000,0.128,0.204,0.060,612.000,17.000,27.000,0.000,0.000,0.000:
00000000
00000000
00000000
00000000
,
00000000
00000000
00000000
00000000
,
00000000
00000000
00000000
00000000
,
00000000
00000000
00000000
00000000
,
00000000
00000000
00000000
00000000
,
00110000
00000000
01000000
00100000
00000000
00010000
01000000
00000000
,
10100000
00000000
10000000
01000000
00000000
00100000
00010000
00000000
,
00022000
00000000
00000000
00000000
,
00000000
00000000
00000000
00033000
,
00000010
00001000
00000100
00000010
,
00000001
00000100
00000010
00001000
,
00000100
00000010
00000001
00000100
,
00001000
00010000
01000000
10000000
,
00100000
10000000
01000000
00100000
,
00010000
01000000
00100000
10000000
,
01000000
00100000
00010000
01000000
,
00100000
00010000
00001000
00000100
,
00000001
00000100
00001000
00000100
,
00000001
00000100
00001000
00010000
,
00100000
10000000
00100000
00010000
,
00100000
10000000
01000000
00100000
,
00010000
00000000
00000000
00010000
01000000
00000000
00000000
01000000
,
00001000
00100000
01000000
10000000
,
00010000
10000000
00000000
01000000
,
00000000
00100000
01000000
00000000
,
00100000
00010000
01000000
00100000
,
10000000
01000000
00100000
00010000
,
01000000
00100000
10000000
01000000
,
00010000
00001000
00000100
00000001
,
00000010
00000001
00000100
00000010
,
00001000
00000100
00000010
00000001
,
00000100
00000010
00001000
00000100
,
00000010
00001000
00010000
01000000
,
10000000
01000000
00010000
01000000
,
10000000
01000000
00010000
00001000
,
00000010
00000001
00000010
00001000
,
00000010
00000001
00000100
00000010
,
00001000
00000000
00000000
00001000
00000100
00000000
00000000
00000100
,
00010000
00000010
00000100
00000001
,
00001000
00000001
00000000
00000100
,
00000000
00000010
00000100
00000000
,
00000001
00000010
00000100
00002000
,
00000000
00003010
00010000
00000100
,
00010000
00001000
00100000
00010000
,
10000000
00100000
01000000
00010000
,
20000000
00000000
00000000
31000000
,
00200000
00000000
00000000
00300000
,
00001000
00010000
01000000
10000000
,
00010000
01000000
00100000
00000000
,
10000000
00100000
01000000
00020000
,
00000000
00130000
00001000
01000000
,
00001000
00010000
00000010
00001000
,
00000001
00000010
00000100
00001000
,
00000002
00000000
00000000
00000103
,
00000020
00000000
00000000
00000030
,
00001000
00001000
00000000
00000110
,
00000000
00000001
00000001
00000000
,
00000010
00001000
00000100
00000010
,
00000001
00000100
00000010
00001000
,
00000100
00000010
00000001
00000100
,
00001000
00010000
01000000
10000000
,
00100000
10000000
01000000
00100000
,
00010000
01000000
00100000
10000000
,
01000000
00100000
00010000
01000000
,
00100000
00010000
00001000
00000100
,
00000001
00000100
00001000
00000100
,
00000001
00000100
00001000
00010000
,
00100000
10000000
00100000
00010000
,
00100000
10000000
01000000
00100000
,
00010000
00000000
00000000
00010000
01000000
00000000
00000000
01000000
,
00001000
00100000
01000000
10000000
,
00010000
10000000
00000000
01000000
,
00000000
00100000
01000000
00000000
,
00100000
00010000
01000000
00100000
,
10000000
01000000
00100000
00010000
,
01000000
00100000
10000000
01000000
,
00010000
00001000
00000100
00000001
,
00000010
00000001
00000100
00000010
,
00001000
00000100
00000010
00000001
,
00000100
00000010
00001000
00000100
,
00000010
00001000
00010000
01000000
,
10000000
01000000
00010000
01000000
,
10000000
01000000
00010000
00001000
,
00000010
00000001
00000010
00001000
,
00000010
00000001
00000100
00000010
,
00001000
00000000
00000000
00001000
00000100
00000000
00000000
00000100
,
00010000
00000010
00000100
00000001
,
00001000
00000000
00000001
00000000
,
00000100
00000010
00001000
00000100
,
00000010
00000000
00000110
00000000
00000001
00000100
00001000
00000000
,
00010000
00000000
00011000
00000000
00010000
00100000
10000000
00000000
,
00010000
00000000
01100000
00000000
10000000
01000000
00010000
00000000
,
00001000
00000000
00011000
00000000
00001000
00000010
00000001
00000000
,
00001000
00000000
00000110
00000000
00000001
00000100
00001000
00000000
,
00010000
00000000
00011000
00000000
00010000
00100000
10000000
00000000
,
00010000
00000000
01100000
00000000
10000000
01000000
00010000
00000000
,
00001000
00000000
00011000
00000000
00001000
00000010
00000001
00000000
,
00002000
00000000
00003200
00000000
,
00000320
00000000
00000032
00000000
,
00000203
00000000
00002300
00000000
,
00023000
00000000
00230000
00000000
,
01300000
00000000
00010000
00000000
10000000
01000000
00100000
00000000
00010000
01000000
00100000
00000000
10000000
01000000
00010000
00001000
,
00010000
00000000
00001000
00000000
00000010
00000100
00001000
00000000
00000010
00000100
00000001
00000000
00001000
00000100
00000010
00000001
,
00001000
00000000
00000010
00000000
00000100
00000010
00000100
00000000
00001000
00010000
00001000
00000000
00100000
00010000
10000000
00100000
,
01000000
00000000
10000000
00000000
01000000
00010000
00100000
00000000
01000000
10000000
00100000
00000000
01000000
00010000
10000000
01000000
,
00100000
00100000
00000000
00000000
00000000
00000000
00000000
00000000
,
00010000
00010000
00000000
00000000
00000000
00000000
00000000
00000000
,
00001000
00001000
00000000
00000000
00000000
00000000
00000000
00000000
,
00000100
00000100
00000000
00000000
00000000
00000000
00000000
00000000
,
00000001
00000010
00000100
00001000
00000001
00000100
00000010
00001000
,
00000100
00010000
01000000
00100000
00010000
01000000
00100000
10000000
,
00020000
00000000
00000000
00030000
,
00100000
00100000
00000000
01000000
00000000
10000000
00000000
10000000
,
00100000
00100000
00000000
01000000
00000000
00010000
00000000
00010000
,
00022000
00000000
00000000
00000000
,
00000000
00000000
00000000
00033000
,
00100000
00010000
01000000
00100000
,
10000000
01000000
00100000
00010000
,
01000000
00100000
10000000
01000000
,
00010000
00001000
00000100
00000001
,
00000010
00000001
00000100
00000010
,
00001000
00000100
00000010
00000001
,
00000100
00000010
00001000
00000100
,
00000010
00001000
00010000
01000000
,
10000000
01000000
00010000
01000000
,
10000000
01000000
00010000
00001000
,
00000010
00000001
00000010
00001000
,
00000010
00000001
00000100
00000010
,
00001000
00000000
00000000
00001000
00000100
00000000
00000000
00000100
,
00010000
00000010
00000100
00000001
,
00001000
00000001
00000000
00000100
,
00000000
00000010
00000100
00000000
,
00000010
00001000
00000100
00000010
,
00000001
00000100
00000010
00001000
,
00000100
00000010
00000001
00000100
,
00001000
00010000
01000000
10000000
,
00100000
10000000
01000000
00100000
,
00010000
01000000
00100000
10000000
,
01000000
00100000
00010000
01000000
,
00100000
00010000
00001000
00000100
,
00000001
00000100
00001000
00000100
,
00000001
00000100
00001000
00010000
,
00100000
10000000
00100000
00010000
,
00100000
10000000
01000000
00100000
,
00010000
00000000
00000000
00010000
01000000
00000000
00000000
01000000
,
00001000
00100000
01000000
10000000
,
00010000
00000000
10000000
00000000
,
10010000
00000000
01000000
01000000
,
10000000
00100000
01000000
00020000
,
00000000
00130000
00001000
01000000
,
00001000
00010000
00000010
00001000
,
00000001
00000010
00000100
00001000
,
00000002
00000000
00000000
00000103
,
00000020
00000000
00000000
00000030
,
00010000
00001000
00000100
00000001
,
00001000
00000100
00000010
00000000
,
00000001
00000010
00000100
00002000
,
00000000
00003010
00010000
00000100
,
00010000
00001000
00100000
00010000
,
10000000
00100000
01000000
00010000
,
20000000
00000000
00000000
31000000
,
00200000
00000000
00000000
00300000
,
00010000
00010000
00000000
01100000
,
00000000
10000000
10000000
00000000
,
00100000
00100000
00000000
01100000
,
00000000
00001000
00001000
00000000
,
00022000
00000000
00000000
00000000
,
00000000
00000000
00000000
00033000
;

//---------------dance-double - Elemental8----------------
#NOTES:
     dance-double:
     :
     Edit:
     19:
     1.000,1.000,0.408,0.257,0.245,1000.000,54.000,34.000,0.000,0.000,0.000,1.000,1.000,0.408,0.257,0.245,1000.000,54.000,34.000,0.000,0.000,0.000:
00000000
00000000
00000000
00000000
,
00000000
00000000
00000000
00000000
,
00000000
00000000
00000000
00000000
,
00000000
00000000
00000000
00000000
,
00000000
00000000
00000000
00000000
,
10000000
00000000
00100000
00010000
10000000
00100000
01000000
00010000
,
00100000
00000000
00000100
00001000
00000001
00000100
00000010
00000001
,
00002000
00000000
00023000
20030000
,
30100000
00010000
00100000
00010000
01000000
00001000
01000000
00001000
00010000
00000010
00010000
00000010
00001000
00000100
00001000
00000100
,
00000001
00000000
00000100
00010000
00000100
00000000
00001000
00000000
,
00010000
01000000
00010000
00000000
01000000
00000000
10000000
00100000
,
10000000
00000000
01000000
00000000
00010000
00001000
00010000
00000000
,
10000000
00100000
01000000
00010000
00100000
01000000
10000000
00010000
,
00100000
00000000
01000000
00010000
01000000
00000000
00100000
00000000
,
00001000
00010000
00001000
00000000
00000010
00000000
00000100
00000010
,
00000100
00000000
00000001
00000000
00000010
00010000
00000010
00000000
,
00001000
00100000
00010000
01000000
00100000
10000000
01000000
00100000
,
00010000
00100000
01000000
10000000
,
00100000
00000000
10000000
01000000
10000000
01000000
10000000
01000000
,
00100000
00000000
00010000
00000000
01000000
00000000
00010000
00100000
,
00010000
00000000
00001000
00000000
00000100
00010000
00000100
00010000
,
00001000
00000000
00000100
00000010
00000100
00000000
00000001
00000100
,
00000001
00000100
00000010
00001000
00000010
00001000
00000100
00001000
,
00000100
00001100
00000000
00101000
,
00000000
01010000
02200000
03300000
,
10000000
01000000
10000000
01000000
10000000
00000000
00100000
01000000
,
00100000
01000000
00100000
00000000
00001000
00010000
00001000
00010000
,
00001000
00000000
00000001
00000100
00000001
00000100
00000001
00000000
,
00000010
00001000
00000010
00001000
00000100
00010000
00000100
00010000
,
00001000
00100000
00001000
00100000
00010000
00000000
00100000
10000000
,
00100000
10000000
00100000
00000000
00001000
00100000
00001000
00100000
,
00001000
00000000
00010000
00100000
00010000
00100000
01000000
00000000
,
00100000
00001000
00100000
00001000
01000000
00010000
01000000
00010000
,
00100000
01000000
00001000
00010000
,
00000010
00000000
00000100
00000010
00000100
00000010
00000100
00000010
,
00001000
00000000
00000001
00000000
00000100
00000000
00010000
00000100
,
00010000
00000000
00001000
00000000
00100000
00010000
00100000
00010000
,
01000000
00000000
10000000
00100000
10000000
00000000
01000000
00010000
,
01000000
00010000
00100000
00001000
00100000
00001000
00010000
00001000
,
00010000
00000000
01100000
00000000
,
00001000
00010000
00000010
00000000
,
00000001
00000100
00000010
00001000
,
00000100
00010000
00001000
01000000
,
00010000
00000000
01000000
00010000
00100000
00001000
00100000
00001000
,
00010000
00000100
00010000
00000100
00001000
00000010
00001000
00000010
,
00000100
00000000
00000010
00001000
,
00002200
00000000
00000000
00003300
,
00000100
00010000
00000100
00010000
00001000
01000000
00001000
01000000
,
00010000
00100000
00010000
00100000
01000000
10000000
01000000
10000000
,
00010000
00100000
01000000
10000000
,
00100000
01000000
00001000
00010000
,
00000010
00000000
00000100
00000010
00001000
00000100
00001000
00000100
,
00010000
00001000
00010000
00001000
00100000
00010000
00100000
00010000
,
01000000
00000000
00100000
00001000
,
00022000
00000000
00000000
00033000
,
00000001
00000101
00000000
00010010
,
00000000
00010100
00022000
00033000
,
00001000
01000000
00001000
01000000
00001000
00000000
00010000
00000010
,
00010000
00000010
00010000
00000000
00001000
00100000
00001000
00100000
,
00001000
00000000
00010000
00000100
00010000
00000100
00010000
00000000
,
01000000
00010000
01000000
00010000
10000000
01000000
10000000
01000000
,
00100000
00010000
00100000
00010000
01000000
00000000
00100000
01000000
,
00100000
01000000
00100000
00000000
00001000
00010000
00001000
00010000
,
00001000
00000000
00000010
00001000
00000010
00001000
00000010
00000000
,
00001000
00010000
00001000
00010000
00100000
01000000
00100000
01000000
,
10000000
01000000
00010000
00100000
,
00010000
00000000
00001000
00100000
00001000
00100000
00001000
00100000
,
00010000
00000000
00000100
00000000
00001000
00000000
00000010
00000100
,
00000010
00000000
00000001
00000000
00000100
00001000
00000100
00001000
,
00000100
00000000
00001000
00010000
00001000
00000000
00010000
00100000
,
00010000
00100000
01000000
10000000
01000000
10000000
00100000
01000000
,
00100000
00110000
00000000
00010010
,
00000000
00101000
00022000
00033000
,
01000000
00010000
01000000
00010000
01000000
00000000
00010000
00001000
,
00010000
00001000
00010000
00000000
00000010
00001000
00000010
00001000
,
00000010
00000000
00010000
00000010
00010000
00000010
00010000
00000000
,
00000100
00001000
00000100
00001000
00000001
00000100
00000001
00000100
,
00000010
00001000
00000010
00001000
00000100
00000000
00001000
00010000
,
00001000
00010000
00100000
00000000
00010000
01000000
00100000
01000000
,
00100000
00000000
10000000
00010000
10000000
00010000
00100000
00000000
,
01000000
00100000
01000000
00100000
10000000
00010000
10000000
00010000
,
00100000
01000000
00010000
00100000
,
00010000
00000000
10000000
01000000
10000000
01000000
00100000
01000000
,
00100000
00000000
00010000
00000000
00100000
00000000
00001000
00010000
,
00001000
00000000
00000100
00000000
00000010
00001000
00000001
00001000
,
00000001
00000000
00000010
00000100
00000010
00000000
00000100
00001000
,
00000100
00001000
00000100
00010000
00001000
00010000
00001000
01000000
,
00100000
00000000
00010000
01000000
00010000
00000000
00100000
00010000
,
01000000
00100000
10000000
01000000
00100000
00010000
01000000
00100000
,
10000000
00000000
00000000
00000000
00010000
00000000
00000000
00000000
00100000
00000000
00001000
00000000
00010000
00000000
00001000
00010000
,
00001000
00000000
00000010
00000000
00000100
00000000
00000010
00000000
00010000
00000000
00000100
00000000
00001000
00000000
00000001
00000010
,
00000001
00000000
00001000
00000000
00000010
00000000
00000100
00000000
00010000
00000000
00001000
00000000
00100000
00000000
00010000
01000000
,
00010000
00000000
01000000
00000000
00100000
00000000
01000000
00000000
00010000
00000000
10000000
00000000
01000000
00000000
00100000
00010000
,
00100000
00000000
00000000
01000000
00000000
00000000
00010000
00000000
00000000
10000000
00000000
00000000
00100000
00000000
10000000
00000000
00010000
00000000
00100000
00000000
01000000
00000000
00010000
00000000
,
00100000
00000000
00000000
00000000
00001000
00000000
00000000
00000000
00010000
00000000
00000000
00000000
00000010
00000000
00000000
00000000
00000100
00000000
00000000
00000000
00001000
00000000
00000000
00000000
00000001
00000000
00000000
00000000
00000000
00000000
00001000
00000000
00000000
00000000
00000000
00000000
00000100
00000000
00000000
00000000
00000000
00000000
00010000
00000000
00000000
00001000
00000000
00000000
,
00010000
00001000
00100000
00001000
01000000
00010000
00100000
01000000
,
10000000
00100000
01000000
00010000
00100000
00000000
10000000
00000000
,
00020000
00000000
00230000
00000000
,
20300000
00000000
32000000
00000000
,
03002000
00000000
00003020
00000000
,
00000032
00000000
00000203
00000000
,
00000310
00000000
00000000
00000000
00010000
00000000
00000000
00000000
00001000
00000000
00100000
00000000
00010000
00000000
01000000
00000000
00100000
00000000
10000000
00000000
01000000
00000000
00100000
00000000
00001000
00000000
00010000
00000000
00000100
00001000
00000100
00001000
,
00000100
00000000
00000000
00000000
00000010
00000000
00000000
00000000
00001000
00000000
00000010
00000000
00001000
00000000
00000100
00000000
00001000
00000000
00000001
00000000
00000100
00000000
00000010
00000000
00010000
00000000
00001000
00000000
01000000
00100000
01000000
00100000
,
01000000
00000000
00000000
00000000
00001000
00000000
00000000
00000000
00100000
00000000
00010000
00000000
01000000
00000000
00010000
00000000
00100000
00000000
00001000
00000000
00010000
00000000
00001000
00000000
00100000
00000000
01000000
00000000
10000000
01000000
10000000
01000000
,
10000000
00000000
00000000
00000000
00100000
00000000
00000000
00000000
01000000
00000000
00010000
00000000
00001000
00000000
00010000
00000000
00000100
00000000
00001000
00000000
00000001
00000000
00000100
00000000
00000010
00000000
00001000
00000000
00000010
00000100
00000010
00000100
,
00000010
00000011
00000000
00000000
00000000
00000000
00000000
00000000
,
00001000
00001100
00000000
00000000
00000000
00000000
00000000
00000000
,
00010000
00110000
00000000
00000000
00000000
00000000
00000000
00000000
,
01000000
11000000
00000000
00000000
00000000
00000000
00000000
00000000
,
10000000
00000000
00100000
00000000
01000000
00010000
01000000
00000000
00100000
00000000
00001000
00000000
00010000
00000100
00010000
00000000
,
00000100
00000000
00001000
00000000
00000010
00000100
00000010
00000000
00000001
00000000
00001000
00000000
00000100
00010000
00000100
00000000
,
00022000
00000000
00000000
00033000
,
11000000
10100000
00000000
00110000
00000000
01010000
00000000
00101000
,
00101000
00011000
00000000
00010010
00000000
00001100
00000000
00000101
,
00001002
00000000
00002003
00023000
,
01030000
00100000
01000000
00100000
10000000
00010000
10000000
00010000
00100000
00001000
00100000
00001000
00010000
00000100
00010000
00000100
,
00001000
00010000
00001000
00010000
00001000
00000000
00000100
00010000
,
00000100
00010000
00000100
00000000
00000010
00001000
00000010
00001000
,
00000010
00000000
00000001
00001000
00000001
00001000
00000001
00000000
,
00001000
00100000
00001000
00100000
00010000
01000000
00010000
01000000
,
00100000
10000000
00100000
10000000
01000000
00000000
00100000
01000000
,
00100000
01000000
00100000
00000000
10000000
01000000
10000000
01000000
,
00100000
00000000
10000000
01000000
10000000
01000000
00010000
00000000
,
00100000
00010000
00100000
00010000
10000000
00100000
10000000
00100000
,
01000000
00010000
01000000
00010000
01000000
00010000
01000000
00010000
,
00100000
00001000
00100000
00001000
00100000
00001000
00100000
00001000
,
00010000
00000010
00010000
00000010
00010000
00000010
00010000
00000010
,
00001000
00000100
00001000
00000100
00000010
00000001
00000010
00000001
,
00001000
00000010
00001000
00000010
00010000
00001000
00010000
00001000
,
01000000
00010000
01000000
00010000
10000000
01000000
00100000
00010000
,
10000000
10010000
00000000
01001000
,
00000000
00010100
00022000
00033000
,
00010000
00001000
00000100
00001000
00000100
00000000
00000010
00001000
,
00000100
00001000
00000100
00000000
00000001
00000100
00000010
00000100
,
00000010
00000000
00000100
00010000
00001000
00010000
00001000
00000000
,
00100000
00001000
00100000
00001000
00100000
00010000
00100000
00010000
,
10000000
01000000
10000000
01000000
10000000
00000000
00010000
01000000
,
00010000
01000000
00010000
00000000
00001000
00000100
00001000
00000100
,
00001000
00000000
00000001
00001000
00000010
00001000
00000010
00000000
,
00000100
00010000
00000100
00010000
00001000
00100000
00001000
00100000
,
01000000
00010000
01000000
00010000
01000000
00010000
01000000
00010000
,
00100000
00001000
00100000
00001000
00100000
00001000
00100000
00001000
,
00010000
00000010
00010000
00000010
00001000
00000100
00001000
00000100
,
00000010
00000001
00000010
00000001
00000100
00000010
00000100
00000010
,
00010000
00001000
00010000
00001000
01000000
00100000
01000000
00100000
,
10000000
00010000
00100000
01000000
10000000
00100000
01000000
00010000
,
00100000
00000000
01001000
00000000
,
00010000
00000000
00001000
00000010
00001000
00000010
00001000
00000010
,
00000100
00001000
00000010
00010000
,
00001000
01000000
00100000
10000000
,
00010000
00000000
00100000
00010000
10000000
00100000
01000000
00010000
,
10000000
01000000
00100000
00010000
01000000
00100000
00010000
00001000
,
00100000
00000000
00011000
00011000
,
00022000
00000000
00000000
00033000
,
00000010
00000001
00000100
00000010
00001000
00000100
00010000
00001000
,
00100000
00010000
01000000
00100000
10000000
01000000
00100000
00010000
,
01000000
00100000
10000000
00010000
,
00100000
00001000
00010000
00000010
,
00001000
00000000
00000001
00001000
00000010
00010000
00001000
01000000
,
00010000
10000000
01000000
00100000
00010000
01000000
00100000
10000000
,
00010000
00000000
00101000
00101000
,
00202000
00000000
00000000
00303000
,
00010010
00001010
00000000
01001000
,
00000000
00010100
00011000
00000000
,
10100000
01010000
00000000
00011000
,
00000000
00001100
00001010
00000110
,
00000202
00000000
00000000
00000000
,
00000000
00000000
00000000
00000303
;

//---------------dance-double - ----------------
#NOTES:
     dance-double:
     :
     Hard:
     17:
     0.890,1.000,0.377,0.181,0.121: // measure 1
00000000
00000000
00000000
00000000
,  // measure 2
00000000
00000000
00000000
00000000
,  // measure 3
00000000
00000000
00000000
00000000
,  // measure 4
00000000
00000000
00000000
00000000
,  // measure 5
00000000
00000000
00000000
00000000
,  // measure 6
10010000
00000000
01000000
00100000
00000000
10000000
01000000
00100000
,  // measure 7
01100000
00000000
00010000
00100000
00000000
00001000
00010000
00000010
,  // measure 8
00001000
00000000
00000001
00000010
,  // measure 9
00000100
00000000
00001000
00000001
00001000
00000000
00000010
00000100
00000010
00000000
00010000
00000000
00001000
01000000
00001000
01000000
,  // measure 10
00010000
00000000
01000000
00010000
01000000
00000000
00100000
00000000
,  // measure 11
10000000
00100000
10000000
00000000
00010000
00000000
00100000
00010000
,  // measure 12
00100000
00000000
01000000
00000000
00100000
01000000
00100000
00000000
,  // measure 13
00010000
00001000
00000100
00000010
,  // measure 14
00000001
00000000
00000100
00000010
00000100
00000000
00000001
00000000
,  // measure 15
00001000
00000100
00001000
00000000
00000100
00000000
00000010
00000001
,  // measure 16
00000010
00000000
00000100
00000000
00001000
00000001
00001000
00000000
,  // measure 17
00000001
00000100
00001000
00010000
,  // measure 18
00100000
01000000
00100000
10000000
,  // measure 19
01000000
00000000
00100000
00000000
00010000
00000000
01000000
00010000
,  // measure 20
01000000
00100000
10000000
00100000
,  // measure 21
01000000
00000000
00010000
00000000
00100000
00000000
00001000
00010000
,  // measure 22
00001000
00000000
00000000
00001000
00000100
00000000
00000000
00000100
,  // measure 23
00000001
00000000
00001000
00000000
00000100
00000010
00000100
00000010
,  // measure 24
00000001
00000010
00000000
00000110
,  // measure 25
00000000
00001100
00001100
00000000
,  // measure 26
00001000
00000000
00000100
00001000
00000100
00000000
00000010
00000000
,  // measure 27
00000001
00000010
00000001
00000000
00001000
00000000
00000010
00001000
,  // measure 28
00000010
00000000
00000100
00000000
00000010
00000100
00000010
00000000
,  // measure 29
00001000
00010000
01000000
00100000
,  // measure 30
10000000
00000000
01000000
00100000
01000000
00000000
10000000
00000000
,  // measure 31
00010000
01000000
00010000
00000000
01000000
00000000
00100000
10000000
,  // measure 32
00100000
00000000
01000000
00000000
00010000
10000000
00010000
00000000
,  // measure 33
10000000
01000000
00010000
00001000
,  // measure 34
00000010
00000100
00000010
00000001
,  // measure 35
00000100
00000000
00000010
00000000
00001000
00000000
00000100
00001000
,  // measure 36
00000100
00000010
00000001
00000010
,  // measure 37
00000100
00000000
00001000
00000000
00000010
00000000
00010000
00001000
,  // measure 38
00010000
00000000
00000000
00010000
01000000
00000000
00000000
01000000
,  // measure 39
10000000
00000000
00010000
00000000
01000000
00100000
01000000
00100000
,  // measure 40
10000000
00100000
00000000
01100000
,  // measure 41
00000000
01010000
01010000
00000000
,  // measure 42
10000000
00100000
01000000
00020000
,  // measure 43
00000000
00130000
01000000
10000000
,  // measure 44
00100000
00000000
00000000
00100000
00010000
00000000
00000000
00010000
,  // measure 45
00001000
00000000
00000000
00001000
00000100
00000000
00000010
00001000
,  // measure 46
00000020
00000000
00000000
00001030
,  // measure 47
00000002
00000000
00000000
00000000
,  // measure 48
00000013
00000000
00000100
00000000
00001000
00000001
00001000
00000000
,  // measure 49
00000010
00000100
00000010
00000000
00001000
00000010
00001000
00000000
,  // measure 50
00000001
00000010
00000100
00002000
,  // measure 51
00000000
00003010
00000100
00000001
,  // measure 52
00000010
00000000
00000000
00000010
00001000
00000000
00000000
00001000
,  // measure 53
00010000
00000000
00000000
00010000
01000000
00000000
00100000
00010000
,  // measure 54
00200000
00000000
00000000
00310000
,  // measure 55
20000000
00000000
00000000
30000000
,  // measure 56
00110000
00110000
00000000
01100000
,  // measure 57
00000000
11000000
11000000
00000000
,  // measure 58
00010000
00000000
01000000
00010000
01000000
00000000
00100000
00000000
,  // measure 59
10000000
00100000
10000000
00000000
00010000
00000000
00100000
00010000
,  // measure 60
00100000
00000000
01000000
00000000
00100000
01000000
00100000
00000000
,  // measure 61
00010000
00001000
00000100
00000010
,  // measure 62
00000001
00000000
00000100
00000010
00000100
00000000
00000001
00000000
,  // measure 63
00001000
00000100
00001000
00000000
00000100
00000000
00000010
00000001
,  // measure 64
00000010
00000000
00000100
00000000
00001000
00000001
00001000
00000000
,  // measure 65
00000001
00000100
00001000
00010000
,  // measure 66
00100000
01000000
00100000
10000000
,  // measure 67
01000000
00000000
00100000
00000000
00010000
00000000
01000000
00010000
,  // measure 68
01000000
00100000
10000000
00100000
,  // measure 69
01000000
00000000
00010000
00000000
00100000
00000000
00001000
00010000
,  // measure 70
00001000
00000000
00000000
00001000
00000100
00000000
00000000
00000100
,  // measure 71
00000001
00000000
00001000
00000000
00000100
00000010
00000100
00000010
,  // measure 72
00000001
00000010
00000000
00000110
,  // measure 73
00000000
00001100
00001100
00000000
,  // measure 74
00001000
00000000
00000100
00001000
00000100
00000000
00000010
00000000
,  // measure 75
00000001
00000010
00000001
00000000
00001000
00000000
00000010
00001000
,  // measure 76
00000010
00000000
00000100
00000000
00000010
00000100
00000010
00000000
,  // measure 77
00001000
00010000
01000000
00100000
,  // measure 78
10000000
00000000
01000000
00100000
01000000
00000000
10000000
00000000
,  // measure 79
00010000
01000000
00010000
00000000
01000000
00000000
00100000
10000000
,  // measure 80
00100000
00000000
01000000
00000000
00010000
10000000
00010000
00000000
,  // measure 81
10000000
01000000
00010000
00001000
,  // measure 82
00000010
00000100
00000010
00000001
,  // measure 83
00000100
00000000
00000010
00000000
00001000
00000000
00000100
00001000
,  // measure 84
00000100
00000010
00000001
00000010
,  // measure 85
00000100
00000000
00001000
00000000
00000010
00000000
00010000
00001000
,  // measure 86
00010000
00000000
00000000
00010000
01000000
00000000
00000000
01000000
,  // measure 87
10000000
00000000
00010000
00000000
01000000
00100000
01000000
00100000
,  // measure 88
10000000
00000000
00000000
10000000
00100000
00000000
00000000
00100000
,  // measure 89
01000000
00000000
00010000
00000000
10000000
00000000
01000000
00100000
,  // measure 90
01000000
00000000
10010000
00000000
10000000
01000000
00010000
00001000
,  // measure 91
00010000
00000000
00001000
00000000
00010000
00001000
00000100
00000001
,  // measure 92
00001000
00000000
00001001
00000000
00000001
00000010
00001000
00010000
,  // measure 93
00001000
00000000
00011000
00000000
00001000
00010000
00100000
10000000
,  // measure 94
00010000
00000000
10010000
00000000
10000000
00100000
00010000
00001000
,  // measure 95
00010000
00000000
00011000
00000000
00010000
00001000
00000010
00000001
,  // measure 96
00001000
00000000
00001001
00000000
00000001
00000100
00001000
00010000
,  // measure 97
00001000
00000000
00011000
00000000
00001000
00010000
01000000
10000000
,  // measure 98
00020000
00000000
02030000
00000000
,  // measure 99
03200000
00000000
20300000
00000000
,  // measure 100
32000000
00000000
03020000
00000000
,  // measure 101
00032000
00000000
00003200
00000000
,  // measure 102
00000310
00000000
00001000
00000000
00000001
00000010
00000100
00010000
00001000
00100000
10000000
00100000
00010000
01000000
00010000
00000000
,  // measure 103
00100000
00000000
00010000
00000000
10000000
00100000
01000000
00001000
00010000
00000010
00000001
00000010
00001000
00000100
00001000
00000000
,  // measure 104
00000100
00000000
00001000
00000000
00000001
00000100
00000010
00010000
00001000
01000000
10000000
01000000
00010000
00100000
00010000
00000000
,  // measure 105
01000000
00000000
00010000
00000000
10000000
01000000
00100000
00001000
00010000
00000100
00000001
00000100
00001000
00000010
00001000
00000000
,  // measure 106
00000001
00000001
00000000
00000000
00000000
00000000
00000000
00000000
,  // measure 107
00001000
00001000
00000000
00000000
00000000
00000000
00000000
00000000
,  // measure 108
00000010
00000010
00000000
00000000
00000000
00000000
00000000
00000000
,  // measure 109
00000100
00000100
00000000
00000000
00000000
00000000
00000000
00000000
,  // measure 110
00000001
00000000
00000010
00000000
00000100
00001000
00000100
00000000
00010000
00000000
00001000
00000000
00100000
00010000
00100000
00000000
,  // measure 111
01000000
00000000
10000000
00000000
00010000
10000000
00010000
00000000
01000000
00000000
00100000
00000000
10000000
00100000
10000000
00000000
,  // measure 112
20020000
00000000
00000000
00000000
00000000
00000000
00000000
30030000
,  // measure 113
00110000
00110000
00000000
00011000
00000000
00011000
00000000
00011000
,  // measure 114
01010000
01010000
00000000
01100000
00000000
01100000
00000000
01100000
,  // measure 115
10010000
00000000
10000000
00100000
,  // measure 116
01000000
00000000
00010000
10000000
00010000
00000000
00100000
01000000
00100000
00000000
00001000
00000000
00010000
00000100
00010000
00000100
,  // measure 117
00001000
00000000
00000100
00001000
00000100
00000000
00000010
00000000
,  // measure 118
00000001
00000010
00000001
00000000
00001000
00000000
00000010
00001000
,  // measure 119
00000010
00000000
00000100
00000000
00000010
00000100
00000010
00000000
,  // measure 120
00001000
00010000
01000000
00100000
,  // measure 121
10000000
00000000
01000000
00100000
01000000
00000000
10000000
00000000
,  // measure 122
00010000
01000000
00010000
00000000
01000000
00000000
00100000
10000000
,  // measure 123
00100000
00000000
01000000
00000000
00010000
10000000
00010000
00000000
,  // measure 124
10000000
01000000
00010000
00001000
,  // measure 125
00000010
00000100
00000010
00000001
,  // measure 126
00000100
00000000
00000010
00000000
00001000
00000100
00000010
00000100
,  // measure 127
00001000
00000100
00000010
00000001
,  // measure 128
00000100
00000000
00000010
00000000
00010000
00001000
00010000
00001000
,  // measure 129
00010000
00000000
00000000
00010000
01000000
00000000
00000000
01000000
,  // measure 130
10000000
00000000
00010000
00000000
01000000
00100000
01000000
00100000
,  // measure 131
10000000
00100000
00000000
01100000
,  // measure 132
00000000
01010000
01010000
00000000
,  // measure 133
00010000
00000000
01000000
00010000
01000000
00000000
00100000
00000000
,  // measure 134
10000000
00100000
10000000
00000000
00010000
00000000
00100000
00010000
,  // measure 135
00100000
00000000
01000000
00000000
00100000
01000000
00100000
00000000
,  // measure 136
00010000
00001000
00000100
00000010
,  // measure 137
00000001
00000000
00000100
00000010
00000100
00000000
00000001
00000000
,  // measure 138
00001000
00000100
00001000
00000000
00000100
00000000
00000010
00000001
,  // measure 139
00000010
00000000
00000100
00000000
00001000
00000001
00001000
00000000
,  // measure 140
00000001
00000100
00001000
00010000
,  // measure 141
00100000
01000000
00100000
10000000
,  // measure 142
01000000
00000000
00100000
00000000
00010000
01000000
00100000
01000000
,  // measure 143
00010000
01000000
00100000
10000000
,  // measure 144
01000000
00000000
00100000
00000000
00001000
00010000
00001000
00010000
,  // measure 145
00001000
00000000
00000000
00001000
00000100
00000000
00000000
00000100
,  // measure 146
00000001
00000000
00001000
00000000
00000100
00000010
00000100
00000010
,  // measure 147
00000001
00000000
00000010
00000000
,  // measure 148
00001100
00000000
00000000
00000000
00000001
00001000
00000001
00001000
,  // measure 149
00000001
00000010
00000100
00002000
,  // measure 150
00000000
00003010
00000100
00000001
,  // measure 151
00000010
00000000
00000000
00000010
00001000
00000000
00000000
00001000
,  // measure 152
00010000
00000000
00000000
00010000
01000000
00000000
00100000
00010000
,  // measure 153
00200000
00000000
00000000
00310000
,  // measure 154
20000000
00000000
00000000
30000000
,  // measure 155
00100000
00000000
01000000
00000000
00010000
10000000
00010000
00000000
,  // measure 156
00100000
01000000
00100000
00000000
00010000
00100000
00010000
00000000
,  // measure 157
10000000
00100000
01000000
00020000
,  // measure 158
00000000
00130000
01000000
10000000
,  // measure 159
00100000
00000000
00000000
00100000
00010000
00000000
00000000
00010000
,  // measure 160
00001000
00000000
00000000
00001000
00000100
00000000
00000010
00001000
,  // measure 161
00000020
00000000
00000000
00001030
,  // measure 162
00000002
00000000
00000000
00000003
,  // measure 163
00001010
00001010
00000000
00000110
,  // measure 164
00000000
00000101
00000101
00000000
,  // measure 165
00000011
00000011
00000000
00000110
,  // measure 166
00000000
00001100
00001100
00000000
,  // measure 167
00022000
00000000
00000000
00000000
,  // measure 168
00000000
00000000
00000000
00033000
;

//---------------dance-double - ----------------
#NOTES:
     dance-double:
     :
     Challenge:
     18:
     0.983,1.000,0.415,0.181,0.166,832.000,55.000,24.000,0.000,0.000,0.000,0.983,1.000,0.415,0.181,0.166,832.000,55.000,24.000,0.000,0.000,0.000:
00000000
00000000
00000000
00000000
,
00000000
00000000
00000000
00000000
,
00000000
00000000
00000000
00000000
,
00000000
00000000
00000000
00000000
,
00000000
00000000
00000000
00000000
,
00000011
00000000
00000100
00000010
00000000
00000001
00000100
00000010
,
00000110
00000000
00001000
00000010
00000000
00010000
00001000
00100000
,
00010000
00000000
10000000
00100000
,
01000000
00000000
00010000
10000000
00010000
00000000
01000000
00001000
00010000
00001000
00010000
00001000
00010000
00000100
00010000
00000100
,
00000010
00000000
00000100
00001000
00000100
00000000
00000010
00000000
,
00000001
00001000
00000001
00000000
00000100
00000000
00000010
00001000
,
00000010
00000000
00010000
00000000
00001000
00100000
00001000
00000000
,
00100000
00000000
00010000
01000000
00010000
00000000
10000000
00000000
,
00100000
00000000
01000000
00100000
01000000
00000000
00010000
00000000
,
10000000
01000000
10000000
00000000
00100000
00000000
01000000
00010000
,
01000000
00000000
00100000
00000000
10000000
01000000
10000000
00000000
,
00010000
00000000
01000000
00010000
00100000
00001000
00010000
00000010
,
00001000
00000100
00000010
00000001
,
00000100
00000000
00000010
00000000
00001000
00000010
00000100
00000010
,
00001000
00000100
00000010
00000001
,
00000010
00000000
00000100
00000000
00010000
00001000
00010000
00001000
,
00010000
00000000
00000000
00010000
01000000
00000000
00000000
01000000
,
10000000
00010000
10000000
00010000
01000000
00100000
01000000
00100000
,
10000000
00100000
00000000
01010000
,
00000000
11000000
01010000
00000000
,
00100000
00000000
01000000
00010000
01000000
00000000
00100000
00000000
,
10000000
00010000
10000000
00000000
01000000
00000000
00100000
00010000
,
00100000
00000000
00001000
00000000
00010000
00000010
00010000
00000000
,
00000010
00000000
00001000
00000100
00001000
00000000
00000001
00000000
,
00000010
00000000
00000100
00000010
00000100
00000000
00001000
00000000
,
00000001
00000100
00000001
00000000
00000010
00000000
00000100
00001000
,
00000100
00000000
00000010
00000000
00000001
00000100
00000001
00000000
,
00001000
00000000
00000100
00001000
00000010
00010000
00001000
00100000
,
00010000
01000000
00100000
10000000
,
01000000
00000000
00100000
00000000
00010000
00100000
01000000
00100000
,
00010000
01000000
00100000
10000000
,
00100000
00000000
01000000
00000000
00001000
00010000
00001000
00010000
,
00001000
00000000
00000000
00001000
00000100
00000000
00000000
00000100
,
00000001
00001000
00000001
00001000
00000100
00000010
00000100
00000010
,
00000001
00000010
00000000
00001100
,
00000000
00000101
00001100
00000000
,
00000001
00000010
00000100
00002000
,
00000000
00003010
00000100
00000001
,
00001000
00000000
00000100
00001000
00000100
00000000
00010000
00001000
,
00010000
00000000
00001000
01000000
00001000
00000000
00100000
00010000
,
00200000
00000000
00000000
00310000
,
20000000
00000000
00000000
30000000
,
00100000
01000000
00100000
01000000
00010000
10000000
00010000
10000000
,
01000000
00100000
01000000
00100000
00010000
00100000
00010000
00000000
,
10000000
00100000
01000000
00020000
,
00000000
00130000
01000000
10000000
,
00010000
00000000
01000000
00010000
01000000
00000000
00001000
00010000
,
00001000
00000000
00010000
00000100
00010000
00000000
00000010
00001000
,
00000020
00000000
00000000
00001030
,
00000002
00000000
00000000
00000003
,
00001010
00000110
00000000
00000101
,
00000000
00001001
00001001
00000000
,
00000010
00000000
00000100
00001000
00000100
00000000
00000010
00000000
,
00000001
00001000
00000001
00000000
00000100
00000000
00000010
00001000
,
00000010
00000000
00010000
00000000
00001000
00100000
00001000
00000000
,
00100000
00000000
00010000
01000000
00010000
00000000
10000000
00000000
,
00100000
00000000
01000000
00100000
01000000
00000000
00010000
00000000
,
10000000
01000000
10000000
00000000
00100000
00000000
01000000
00010000
,
01000000
00000000
00100000
00000000
10000000
01000000
10000000
00000000
,
00010000
00000000
01000000
00010000
00100000
00001000
00010000
00000010
,
00001000
00000100
00000010
00000001
,
00000100
00000000
00000010
00000000
00001000
00000010
00000100
00000010
,
00001000
00000100
00000010
00000001
,
00000010
00000000
00000100
00000000
00010000
00001000
00010000
00001000
,
00010000
00000000
00000000
00010000
01000000
00000000
00000000
01000000
,
10000000
00010000
10000000
00010000
01000000
00100000
01000000
00100000
,
10000000
00100000
00000000
01010000
,
00000000
11000000
01010000
00000000
,
00100000
00000000
01000000
00010000
01000000
00000000
00100000
00000000
,
10000000
00010000
10000000
00000000
01000000
00000000
00100000
00010000
,
00100000
00000000
00001000
00000000
00010000
00000010
00010000
00000000
,
00000010
00000000
00001000
00000100
00001000
00000000
00000001
00000000
,
00000010
00000000
00000100
00000010
00000100
00000000
00001000
00000000
,
00000001
00000100
00000001
00000000
00000010
00000000
00000100
00001000
,
00000100
00000000
00000010
00000000
00000001
00000100
00000001
00000000
,
00001000
00000000
00000100
00001000
00000010
00010000
00001000
00100000
,
00010000
01000000
00100000
10000000
,
01000000
00000000
00100000
00000000
00010000
00100000
01000000
00100000
,
00010000
01000000
00100000
10000000
,
00100000
00000000
01000000
00000000
00001000
00010000
00001000
00010000
,
00001000
00000000
00000000
00001000
00000100
00000000
00000000
00000100
,
00000001
00001000
00000001
00001000
00000100
00000010
00000100
00000010
,
00000001
00000000
00000000
00000001
00000010
00000000
00000000
00000010
,
00000100
00000000
00001000
00000000
00000010
00010000
00000010
00010000
,
00001000
00000000
00011000
00000000
00010000
01000000
10000000
00100000
,
00010000
00000000
00011000
00000000
00001000
00000100
00000001
00000010
,
00001000
00000000
00011000
00000000
00010000
01000000
10000000
00100000
,
00010000
00000000
00011000
00000000
00001000
00000100
00000001
00000010
,
00001000
00000000
00011000
00000000
00010000
00100000
10000000
01000000
,
00010000
00000000
00011000
00000000
00001000
00000010
00000001
00000100
,
00001000
00000000
00011000
00000000
00010000
00100000
10000000
01000000
,
00010000
00000000
00001100
00000000
00001000
00000010
00000001
00000100
,
00000020
00000000
00000230
00000000
,
00000302
00000000
00000023
00000000
,
00002030
00000000
00023000
00000000
,
02030000
00000000
23000000
00000000
,
30010000
00000000
00000000
00000000
01000000
00000000
00000000
00000000
00100000
00000000
10000000
00000000
00010000
00000000
10000000
00000000
01000000
00000000
00010000
00000000
00001000
00000000
00000100
00000000
00000001
00000000
00000010
00000000
00000100
00000000
00000010
00000001
,
00000010
00000000
00000000
00000000
00000100
00000000
00000000
00000000
00000010
00000000
00000001
00000000
00001000
00000000
00000001
00000000
00000100
00000000
00001000
00000000
00010000
00000000
01000000
00000000
10000000
00000000
00100000
00000000
01000000
00000000
00100000
10000000
,
00100000
00000000
00000000
00000000
00010000
00000000
00000000
00000000
01000000
00000000
10000000
00000000
00010000
00000000
10000000
00000000
00100000
00000000
00010000
00000000
00001000
00000000
00000010
00000000
00000001
00000000
00000100
00000000
00000010
00000000
00000100
00000001
,
00000100
00000000
00000000
00000000
00001000
00000000
00000000
00000000
00000100
00000000
00000001
00000000
00001000
00000000
00000001
00000000
00000010
00000000
00001000
00000000
00010000
00000000
00100000
00000000
10000000
00000000
01000000
00000000
00100000
00000000
01000000
10000000
,
01000000
01100000
00000000
00000000
00000000
00000000
00000000
00000000
,
00010000
01010000
00000000
00000000
00000000
00000000
00000000
00000000
,
10000000
11000000
00000000
00000000
00000000
00000000
00000000
00000000
,
01000000
01100000
00000000
00000000
00000000
00000000
00000000
00000000
,
10000000
00000000
00100000
00000000
01000000
00001000
00010000
00000000
00001000
00000000
00010000
00000000
00000100
00001000
00000001
00000000
,
00000010
00000000
00000001
00000000
00001000
00000001
00000010
00000000
00000100
00000000
00001000
00000000
00000001
00000100
00000010
00000000
,
00002002
00000000
00000000
00003003
,
00001010
00011000
00000000
00101000
00000000
00011000
00000000
01001000
,
01010000
01001000
00000000
00011000
00000000
00001100
00000000
00000110
,
00001001
00000000
00000001
00000010
,
00000100
00000000
00001000
00000001
00001000
00000000
00000100
00010000
00001000
00010000
00001000
00010000
00001000
01000000
00001000
01000000
,
00100000
00000000
01000000
00010000
01000000
00000000
00100000
00000000
,
10000000
00010000
10000000
00000000
01000000
00000000
00100000
00010000
,
00100000
00000000
00001000
00000000
00010000
00000010
00010000
00000000
,
00000010
00000000
00001000
00000100
00001000
00000000
00000001
00000000
,
00000010
00000000
00000100
00000010
00000100
00000000
00001000
00000000
,
00000001
00000100
00000001
00000000
00000010
00000000
00000100
00001000
,
00000100
00000000
00000010
00000000
00000001
00000100
00000001
00000000
,
00001000
00000000
00000100
00001000
00000010
00010000
00001000
00100000
,
00010000
01000000
00100000
10000000
,
01000000
00000000
00100000
00000000
00010000
00100000
01000000
00100000
,
00010000
01000000
00100000
10000000
,
00100000
00000000
01000000
00000000
00001000
00010000
00001000
00010000
,
00001000
00000000
00010000
00000100
00010000
00000000
00000010
00001000
,
00000001
00001000
00000001
00001000
00000100
00000010
00000100
00000010
,
00000001
00000010
00000000
00001100
,
00000000
00000101
00001100
00000000
,
00000010
00000000
00000100
00001000
00000100
00000000
00000010
00000000
,
00000001
00001000
00000001
00000000
00000100
00000000
00000010
00001000
,
00000010
00000000
00010000
00000000
00001000
00100000
00001000
00000000
,
00100000
00000000
00010000
01000000
00010000
00000000
10000000
00000000
,
00100000
00000000
01000000
00100000
01000000
00000000
00010000
00000000
,
10000000
01000000
10000000
00000000
00100000
00000000
01000000
00010000
,
01000000
00000000
00100000
00000000
10000000
01000000
10000000
00000000
,
00010000
00000000
01000000
00010000
00100000
00001000
00010000
00000010
,
00001000
00000100
00000010
00000001
,
00000100
00000000
00000010
00000000
00001000
00000010
00000100
00000010
,
00001000
00000100
00000010
00000001
,
00000010
00000000
00000100
00000000
00010000
00001000
00010000
00001000
,
00010000
00000000
00001000
01000000
00001000
00000000
00100000
00010000
,
10000000
00010000
10000000
00010000
01000000
00100000
01000000
00100000
,
10000000
00000000
00100000
00000000
,
01010000
00000000
00000000
00000000
10000000
00100000
01000000
00100000
,
10000000
00100000
01000000
00020000
,
00000000
00130000
01000000
10000000
,
00010000
00000000
01000000
00010000
01000000
00000000
00001000
00010000
,
00001000
00000000
00010000
00000100
00010000
00000000
00000010
00001000
,
00000020
00000000
00000000
00001030
,
00000002
00000000
00000000
00000003
,
00000010
00000100
00000010
00000100
00001000
00000001
00001000
00000001
,
00000100
00000010
00000100
00000010
00001000
00000010
00001000
00000000
,
00000001
00000010
00000100
00002000
,
00000000
00003010
00000100
00000001
,
00001000
00000000
00000100
00001000
00000100
00000000
00010000
00001000
,
00010000
00000000
00001000
01000000
00001000
00000000
00100000
00010000
,
00200000
00000000
00000000
00310000
,
20000000
00000000
00000000
30000000
,
00110000
01100000
00000000
11000000
,
00000000
10010000
10010000
00000000
,
10100000
01100000
00000000
01010000
,
00000000
00011000
00011000
00000000
,
00002020
00000000
00000000
00000000
,
00000000
00000000
00000000
00003030
;
