#TITLE:Desert Journey;
#SUBTITLE:;
#ARTIST:dj TAKA;
#TITLETRANSLIT:;
#SUBTITLETRANSLIT:;
#ARTISTTRANSLIT:;
#GENRE:;
#CREDIT:;
#MENUCOLOR:white;
#METERTYPE:DDR X;
#BANNER:Desert Journey.png;
#BACKGROUND:Desert Journey-bg.png;
#LYRICSPATH:;
#CDTITLE:./CDTITLES/DanceDanceRevolution HOTTEST PARTY 2.png;
#MUSIC:Desert Journey.mp3;
#OFFSET:1.545;
#SAMPLESTART:13.851;
#SAMPLELENGTH:15.000;
#SELECTABLE:YES;
#LISTSORT:;
#DISPLAYBPM:140.000;
#BPMS:0.000=140.000;
#STOPS:;
#BGCHANGES:;
#ATTACKS:;

//---------------dance-single - ----------------
#NOTES:
     dance-single:
     :
     Hard:
     13:
     0.535,0.569,0.152,0.190,0.142: // measure 1
0000
0000
0000
0000
,  // measure 2
0000
0000
0000
0000
,  // measure 3
0000
0000
0000
0000
,  // measure 4
0000
0000
0000
0000
,  // measure 5
0000
0000
0000
0000
,  // measure 6
1000
1000
1000
1000
,  // measure 7
0001
0000
0001
0000
0001
0000
0001
0001
,  // measure 8
0010
0000
0010
0000
0010
0000
0010
0010
,  // measure 9
0100
0000
0000
0000
,  // measure 10
1000
0000
0000
0000
1000
0100
0000
0000
1000
0100
1000
0000
0010
0000
0100
0000
,  // measure 11
0001
0100
0000
0000
0001
0100
0000
0000
0001
0000
0010
0000
0110
0000
1010
0000
,  // measure 12
0001
0100
0000
0000
0010
0100
0000
0000
0010
1000
0010
0000
0001
0000
0100
0000
,  // measure 13
0001
0010
0000
0000
0001
0010
0000
0000
0001
0000
0010
0000
0101
0000
1010
0000
,  // measure 14
0001
0000
0100
0000
1000
0100
1000
0010
,  // measure 15
0002
0010
0103
0000
1000
0010
1000
0100
,  // measure 16
0002
0100
1003
0000
1000
0001
1000
0100
,  // measure 17
1000
0000
0010
0000
1000
0000
0000
0000
0001
0010
0000
0000
0100
0000
1000
0000
,  // measure 18
1001
0000
0000
0000
1000
0010
0000
0000
1000
0010
1000
0000
0100
0000
0010
0000
,  // measure 19
1000
0100
0000
0000
1000
0100
0000
0000
0001
0000
0100
0000
0011
0000
1010
0000
,  // measure 20
1000
0010
0000
0000
0100
0010
0000
0000
0100
0001
0100
0000
1000
0000
0010
0000
,  // measure 21
1000
0010
0000
0000
1000
0010
0000
0000
1000
0000
0010
0000
1100
0000
0011
0000
,  // measure 22
1001
0000
0010
0000
0001
0100
0001
0010
,  // measure 23
2000
0010
3100
0000
0001
0010
0001
0100
,  // measure 24
2000
0100
3001
0000
0001
1000
0001
0100
,  // measure 25
0001
0001
0100
0000
1000
1000
0100
0100
,  // measure 26
1000
0000
0100
0000
1000
0100
0001
0100
,  // measure 27
0010
0000
0010
0001
0100
0010
0001
0010
,  // measure 28
0100
0000
0001
0000
0010
0100
0001
1000
,  // measure 29
2000
0000
3001
0010
0100
0000
1000
1000
,  // measure 30
0001
0000
0010
0000
0001
0010
1000
0010
,  // measure 31
0100
0000
0100
1000
0010
0100
1000
0100
,  // measure 32
0010
0000
1000
0000
0100
0010
1000
0001
,  // measure 33
0001
0010
1000
0100
0010
0100
0010
0001
,  // measure 34
0011
0000
0000
0010
0001
0010
1000
0010
,  // measure 35
0100
1000
0100
0010
0001
0010
0001
0010
,  // measure 36
2000
0000
0200
0000
3000
1300
0100
0010
,  // measure 37
0001
0010
0100
0010
0001
0010
1000
0010
,  // measure 38
0200
0000
0002
0000
0300
1000
0013
0100
,  // measure 39
1000
0100
0001
0010
1000
0010
0100
0010
,  // measure 40
2000
0000
0020
0000
3000
0001
1030
0010
,  // measure 41
1000
0001
0100
0010
1000
0010
0100
0010
,  // measure 42
0100
0000
0000
0000
,  // measure 43
2000
0000
0000
0000
0010
0000
0000
0100
0000
0000
3001
0000
0001
0000
1000
0000
,  // measure 44
0100
0000
0100
0000
0001
0000
0000
0010
0000
0000
0100
0000
0110
0000
0000
0000
,  // measure 45
1000
0000
0100
0000
1100
0000
0000
0010
0000
0000
1000
0000
0001
0000
1000
0000
,  // measure 46
0001
1000
0010
0000
0100
0000
1000
0000
,  // measure 47
0002
0000
0010
0000
0010
0000
0000
0100
0000
0000
1003
0000
0001
0000
1000
0000
,  // measure 48
0100
0000
0010
0000
1000
0000
0000
0100
0000
0000
0010
0000
0110
0000
0000
0000
,  // measure 49
0001
0000
0100
0000
0101
0000
0000
0010
0000
0000
1000
0000
0001
0000
1000
0000
,  // measure 50
0001
0010
0100
0010
1000
0100
0010
0001
,  // measure 51
1000
0100
1000
0000
0010
0000
0100
0000
0001
0000
0010
0000
0100
0000
0010
0000
,  // measure 52
0001
0100
0001
0010
0001
1000
0100
0010
,  // measure 53
1000
0100
0001
0010
0001
0100
1000
0010
,  // measure 54
0100
0010
0100
0000
0010
0000
0001
0000
0010
0000
0100
0000
1000
0000
0000
0000
,  // measure 55
0010
1000
0010
0000
1000
0000
0010
0000
0100
0000
0001
0000
0010
0000
0100
0000
,  // measure 56
1000
0001
0200
0020
0000
0000
0330
0000
,  // measure 57
1000
0100
0002
0020
0000
0000
0033
0000
,  // measure 58
0001
0100
2000
0020
0000
0000
3030
0000
,  // measure 59
1000
0100
1000
0000
0001
0010
0001
0000
1000
0000
0001
0000
0010
0000
0001
0000
,  // measure 60
0200
0000
0000
0300
,  // measure 61
1001
0000
0000
0000
;

//---------------dance-single - ----------------
#NOTES:
     dance-single:
     :
     Medium:
     7:
     0.356,0.398,0.275,0.076,0.014: // measure 1
0000
0000
0000
0000
,  // measure 2
0000
0000
0000
0000
,  // measure 3
0000
0000
0000
0000
,  // measure 4
0000
0000
0000
0000
,  // measure 5
0000
0000
0000
0000
,  // measure 6
0100
0100
0100
0100
,  // measure 7
0010
0010
0010
0010
,  // measure 8
0100
0100
0100
0100
,  // measure 9
0100
0100
0000
0000
,  // measure 10
0001
0000
0100
0000
0001
0010
0100
0000
,  // measure 11
1000
0000
0010
0000
1000
0010
1000
0010
,  // measure 12
1000
0000
0100
0000
1000
0010
0100
0000
,  // measure 13
0001
0000
0100
0000
0001
0010
0001
0010
,  // measure 14
0001
0010
0100
1000
,  // measure 15
0001
0110
0010
1100
,  // measure 16
0001
1000
0010
0100
,  // measure 17
0001
0100
0001
0000
1000
0010
1000
0100
,  // measure 18
0001
0000
0010
0000
0001
0100
0010
0000
,  // measure 19
1000
0000
0100
0000
1000
0100
1000
0100
,  // measure 20
1000
0000
0010
0000
1000
0100
0010
0000
,  // measure 21
0001
0000
0010
0000
0001
0100
0001
0100
,  // measure 22
0001
0100
0010
1000
,  // measure 23
0001
0110
0100
1010
,  // measure 24
0001
1000
0100
0010
,  // measure 25
0001
0010
0001
0000
1000
0100
1000
0010
,  // measure 26
1000
0000
0001
0010
,  // measure 27
0101
1000
1010
0001
,  // measure 28
0010
0000
1000
0010
,  // measure 29
0100
0110
0010
1001
,  // measure 30
1000
0000
0001
0100
,  // measure 31
1010
1000
0101
0001
,  // measure 32
0100
0000
1000
0100
,  // measure 33
0010
0110
0100
1001
,  // measure 34
0011
0000
0000
0000
0001
0000
0100
1000
,  // measure 35
0100
0000
0000
0000
0011
0000
0100
1000
,  // measure 36
0100
0000
0001
1000
,  // measure 37
0010
0000
1000
0001
,  // measure 38
1010
0000
0000
0000
0100
0000
1000
0010
,  // measure 39
1010
0000
0000
0000
0100
0000
1000
0010
,  // measure 40
1010
0000
0110
0000
,  // measure 41
1001
0000
0000
0000
1000
0010
0100
0001
,  // measure 42
0010
0000
0000
0000
,  // measure 43
0020
0000
1030
1100
,  // measure 44
0020
0000
0130
0110
,  // measure 45
0200
0000
0301
0011
,  // measure 46
0200
0000
0310
0110
,  // measure 47
0002
0000
0000
0000
0000
0000
0000
0100
0000
0000
0103
0000
0010
0000
0000
0000
,  // measure 48
0002
0000
0000
0000
0000
0000
0000
0010
0000
0000
0013
0000
0100
0000
0000
0000
,  // measure 49
2000
0000
0000
0000
0000
0000
0000
0010
0000
0000
3010
0000
0100
0000
0000
0000
,  // measure 50
1000
0100
1000
0010
0100
0001
0100
0001
,  // measure 51
0010
0100
1000
0001
,  // measure 52
1000
0000
0010
0000
1000
0010
1000
0100
,  // measure 53
0010
0100
0001
1000
,  // measure 54
0001
0000
0100
0000
0001
0010
0100
0000
,  // measure 55
0001
0000
0100
0000
0001
0010
0001
0100
,  // measure 56
0001
0100
1000
0000
,  // measure 57
1001
0010
0010
0000
,  // measure 58
1001
0010
0010
0000
,  // measure 59
1100
0110
0011
0100
,  // measure 60
0020
0000
0000
0030
,  // measure 61
0110
0000
0000
0000
;

//---------------dance-single - ----------------
#NOTES:
     dance-single:
     :
     Easy:
     4:
     0.213,0.284,0.123,0.019,0.000: // measure 1
0000
0000
0000
0000
,  // measure 2
0000
0000
0000
0000
,  // measure 3
0000
0000
0000
0000
,  // measure 4
0000
0000
0000
0000
,  // measure 5
0000
0000
0000
0000
,  // measure 6
1000
1000
1000
1000
,  // measure 7
0001
0001
0001
0001
,  // measure 8
1000
1000
1000
1000
,  // measure 9
0001
0000
0000
0000
,  // measure 10
0001
0000
0100
0000
,  // measure 11
0001
0100
0001
0001
,  // measure 12
1000
0000
0010
0000
,  // measure 13
1000
0100
1000
1000
,  // measure 14
0001
0000
0001
0000
,  // measure 15
0001
0000
0001
0000
,  // measure 16
1000
0000
1000
0000
,  // measure 17
0010
0010
0100
0000
,  // measure 18
1000
0000
0010
0000
,  // measure 19
1000
0100
1000
1000
,  // measure 20
0001
0000
0100
0000
,  // measure 21
0001
0010
0001
0001
,  // measure 22
1000
0000
1000
0000
,  // measure 23
1000
0100
1000
0000
,  // measure 24
0001
0000
0001
0000
,  // measure 25
0100
0100
0010
0000
,  // measure 26
1000
0000
0010
0100
,  // measure 27
1000
0000
0010
0001
,  // measure 28
0010
0000
0001
1000
,  // measure 29
1000
0000
0100
0001
,  // measure 30
1001
0000
0010
1000
,  // measure 31
0001
0000
0001
1000
,  // measure 32
0100
0000
0100
0010
,  // measure 33
0010
0000
0100
1000
,  // measure 34
1001
0000
0100
0000
,  // measure 35
1000
0000
0100
0000
,  // measure 36
0100
0000
0000
0000
,  // measure 37
1000
0000
0010
0000
,  // measure 38
1001
0000
0010
0000
,  // measure 39
0001
0000
0010
0000
,  // measure 40
0010
0000
0110
0000
,  // measure 41
1001
0000
0001
1000
,  // measure 42
0000
0000
0000
0000
,  // measure 43
0001
0000
0100
0100
,  // measure 44
0000
0000
0100
0100
,  // measure 45
1000
0000
0100
0100
,  // measure 46
0000
0000
0100
0100
,  // measure 47
1000
0000
0000
1001
,  // measure 48
0000
0000
0000
1001
,  // measure 49
0001
0000
0000
1001
,  // measure 50
1000
0100
0010
0001
,  // measure 51
1000
0010
0100
0000
,  // measure 52
1000
0001
0010
0000
,  // measure 53
1000
0010
1000
0000
,  // measure 54
0100
0001
0100
0000
,  // measure 55
0001
0100
0001
0000
,  // measure 56
1000
0100
1000
0000
,  // measure 57
0110
0000
0100
0010
,  // measure 58
0110
0000
0010
0100
,  // measure 59
0110
0000
1001
0000
,  // measure 60
0220
0000
0000
0000
,  // measure 61
0330
0000
0000
0000
;

//---------------dance-single - ----------------
#NOTES:
     dance-single:
     :
     Beginner:
     3:
     0.130,0.224,0.133,0.000,0.000: // measure 1
0000
0000
0000
0000
,  // measure 2
0000
0000
0000
0000
,  // measure 3
0000
0000
0000
0000
,  // measure 4
0000
0000
0000
0000
,  // measure 5
0000
0000
0000
0000
,  // measure 6
1000
1000
1000
0000
,  // measure 7
0001
0001
0001
0000
,  // measure 8
1000
1000
1000
0000
,  // measure 9
0000
0000
0000
0000
,  // measure 10
0001
0000
0100
0000
,  // measure 11
0001
0000
0000
0000
,  // measure 12
1000
0000
0010
0000
,  // measure 13
1000
0000
0000
0000
,  // measure 14
0001
0000
1000
0000
,  // measure 15
1000
0000
0001
0000
,  // measure 16
1000
0000
0000
0000
,  // measure 17
0010
0010
0010
0000
,  // measure 18
1000
0000
0010
0000
,  // measure 19
0001
0000
0000
0000
,  // measure 20
1000
0000
0100
0000
,  // measure 21
1000
0000
0000
0000
,  // measure 22
0001
0000
1000
0000
,  // measure 23
1000
0000
0001
0000
,  // measure 24
0001
0000
0000
0000
,  // measure 25
0100
0100
0100
0000
,  // measure 26
1000
0000
0000
0000
,  // measure 27
0100
0000
0000
0000
,  // measure 28
0010
0000
0000
0000
,  // measure 29
0001
0000
0000
0000
,  // measure 30
1001
0000
0000
0000
,  // measure 31
0001
0000
0000
0000
,  // measure 32
1000
0000
0000
0000
,  // measure 33
0001
0000
1000
0000
,  // measure 34
1001
0000
0000
0000
,  // measure 35
0010
0000
0000
0000
,  // measure 36
0100
0000
0000
0000
,  // measure 37
1000
0000
0000
0000
,  // measure 38
1001
0000
0000
0000
,  // measure 39
0110
0000
0000
0000
,  // measure 40
1001
0000
0110
0000
,  // measure 41
1001
0000
0000
0000
,  // measure 42
0000
0000
0000
0000
,  // measure 43
0000
0000
1000
1000
,  // measure 44
0000
0000
0100
0100
,  // measure 45
0000
0000
0001
0001
,  // measure 46
0000
0000
0010
0010
,  // measure 47
0000
0000
0000
1001
,  // measure 48
0000
0000
0000
0110
,  // measure 49
0000
0000
0000
1001
,  // measure 50
0000
0000
0000
0000
,  // measure 51
1000
0000
0100
0000
,  // measure 52
1000
0000
0010
0000
,  // measure 53
1000
0000
1000
0000
,  // measure 54
0001
0000
0001
0000
,  // measure 55
0100
0000
0001
0000
,  // measure 56
1000
0000
0010
0000
,  // measure 57
1001
0000
0000
0000
,  // measure 58
0110
0000
0000
0000
,  // measure 59
1001
0000
0000
0000
,  // measure 60
0110
0000
0000
0000
;

//---------------dance-single - ----------------
#NOTES:
     dance-single:
     :
     Challenge:
     17:
     0.768,0.926,0.152,0.190,0.816:
0000
0000
0000
0000
,
0000
0000
0000
0000
,
0000
0000
0000
0000
,
0000
0000
0000
0000
,
0000
0000
0000
0000
,
0001
0100
0010
1000
0100
0010
0100
1000
,
0001
0100
0001
0100
1000
0100
1000
0100
,
0001
0100
0001
0010
0100
1000
0020
0200
,
0000
0000
0000
0330
0000
1001
0000
0000
,
0001
0100
0001
0100
1000
0100
1000
0100
0000
0100
0010
0100
0010
0100
0001
0100
,
0001
0100
0001
0100
0001
0100
0001
0010
1000
0100
0010
0001
0100
0010
1000
0001
,
0100
1000
0100
1000
0100
1000
0100
1000
0000
0100
0010
0100
0010
0001
1000
0010
,
0100
0001
0100
0001
0000
0010
0000
0010
0001
0010
0001
0010
1000
0010
1000
0010
,
0001
0010
0001
0010
0100
0010
0100
0010
0000
0000
1000
0100
0010
0001
0010
0100
,
1000
0100
1000
0100
1000
0100
1000
0100
0010
0001
0010
0001
0010
0001
0010
0001
,
1000
0100
0010
0001
0010
0100
1000
0000
0001
0000
1000
0100
1000
0100
1000
0100
,
1000
0010
1000
0010
0100
0001
0100
0001
1000
0100
0010
0001
0100
0010
1000
0001
,
1000
0000
0010
1000
0000
0010
0000
1000
0010
1000
0010
1000
0001
1000
0001
1000
,
0001
0100
0001
0100
0000
0000
0010
0001
0010
0001
0100
0010
1000
0100
0010
0001
,
1000
0010
1000
0010
0100
0001
0100
0001
1000
0000
0001
0000
1000
0100
0010
0001
,
1000
0100
0010
0001
0000
0001
0000
0010
1000
0100
0010
0001
1000
0010
0100
0001
,
1000
0100
1000
0100
0010
0001
0010
0001
0000
0010
0000
0001
0100
0010
1000
0001
,
1000
0100
1000
0100
0010
0100
0010
0100
0010
0001
0010
0001
1000
0100
0010
0001
,
1000
0010
1000
0010
0001
0010
0001
0010
0000
0001
0000
0010
0001
0100
0010
1000
,
0001
0010
0100
1000
0000
0001
0000
1000
0100
0010
0100
0010
0001
1000
0010
0100
,
0001
1000
0010
1000
0001
0010
0100
0010
,
0001
1000
0010
0001
0010
1000
0001
0010
,
0100
0000
0010
0000
0001
0000
0001
0000
0000
1000
0000
0010
0100
0000
0001
0000
,
0100
0000
0010
0000
0100
0000
0001
0000
0100
1000
0100
0000
0020
0000
0100
0000
,
0032
0000
2003
0000
3001
0010
1000
0010
,
0100
0000
0002
0000
0003
0000
1010
0000
0000
0100
0000
0000
1000
0000
0100
0000
,
0002
0000
0000
2003
0000
0100
0100
3001
,
0000
0000
0010
0000
1000
0000
0100
0000
0010
1000
0001
1000
0100
0000
0010
0000
,
1001
0000
0000
0001
0010
0001
1000
0100
,
1000
0000
0000
0000
0000
0000
1000
0000
0001
0010
0001
0000
0100
0000
0010
0000
,
1001
0000
0000
0001
2000
0000
0000
0000
0000
0000
3001
0000
0100
0000
0010
0000
,
2001
0000
0000
0000
3000
0000
0010
0000
0001
1000
0001
0000
0010
0000
0100
0000
,
1001
0000
0000
0010
0100
0000
0000
0000
0000
0000
1100
0000
1000
0000
0001
0000
,
0011
0000
0000
0000
0000
0000
0010
0000
1000
0001
1000
0000
0100
0000
0010
0000
,
1100
0000
0000
0010
0001
0000
0000
0000
0000
0000
0001
0000
1000
0010
1000
0000
,
0100
0000
0001
0000
0100
1000
0000
1000
0001
0000
0010
0000
0100
0000
0010
0000
,
0110
0000
0000
0000
0000
0000
0000
0000
0001
0000
1000
0010
0100
0000
0001
0000
,
1100
0000
0000
0000
0101
0000
0000
0000
0000
0000
1000
0000
0001
0000
0100
0010
,
1000
0000
0100
0010
0001
0000
0100
0010
1000
0000
0100
0000
0010
0000
0100
0001
,
1000
0000
0100
0000
1000
0000
0100
0010
0001
0000
1000
0000
0100
0000
0010
0100
,
0001
0000
1000
0000
0001
1000
0100
0010
0001
1000
0100
0000
0110
0000
0000
0000
,
0001
0000
0010
0000
1000
0000
0001
0100
0010
0000
1000
0000
0010
0000
1000
0010
,
1000
0000
0001
0000
1000
0000
0001
0100
0000
0000
0010
0000
0110
0000
1000
0000
,
0001
0010
0100
1000
0001
0000
0010
0001
1000
0010
0100
0000
0001
1000
0001
1000
,
0001
0010
0100
1000
0001
0100
0010
1000
0000
0000
0001
1000
0001
0000
0000
0000
,
1000
0100
1000
0100
0001
0100
0010
0100
,
1000
0000
0100
0000
1000
0000
0010
0000
0001
1000
0001
0000
0100
0000
0001
0000
,
1000
0000
0010
0000
0001
0000
1000
0000
0100
1000
0100
0001
0100
0000
1000
0000
,
0001
1000
0001
1000
0001
0000
1000
0010
0100
0000
1000
0000
0201
0000
0000
0000
,
0310
0000
0001
0000
1000
0000
0100
0000
0001
0000
0100
0000
0010
0000
0001
1000
,
0010
0100
2000
0002
0000
0000
0000
3003
,
1000
0100
0020
0002
0000
0000
0000
0033
,
0001
0010
0200
2000
0000
0000
0000
3300
,
0100
1000
0100
0000
0010
0001
0010
0000
0001
1000
0001
0000
0010
0100
0001
1000
,
0200
0000
0000
0300
,
2002
0000
0000
0000
,
3003
0000
0000
0000
;
