#TITLE:Dark Black Forest(short trip);
#SUBTITLE:;
#ARTIST:Steve Rhyner;
#TITLETRANSLIT:;
#SUBTITLETRANSLIT:;
#ARTISTTRANSLIT:;
#GENRE:;
#CREDIT:;
#MENUCOLOR:white;
#METERTYPE:DDR X;
#BANNER:Dark Black Forest (short trip).png;
#BACKGROUND:Dark Black Forest (short trip)-bg.png;
#LYRICSPATH:;
#CDTITLE:./CDTITLES/DANCE DANCE REVOLUTION PSX -MAX USA-.PNG;
#MUSIC:Dark Black Forest (short trip).mp3;
#OFFSET:-1.618;
#SAMPLESTART:42.720;
#SAMPLELENGTH:15.000;
#SELECTABLE:YES;
#LISTSORT:;
#DISPLAYBPM:140.000;
#BPMS:0.000=140.000;
#STOPS:;
#BGCHANGES:;
#ATTACKS:;

//---------------dance-single - ----------------
#NOTES:
     dance-single:
     :
     Easy:
     4:
     0.259,0.298,0.094,0.356,0.000: // measure 1
0000
0000
0000
0000
,  // measure 2
0000
0000
0000
0000
,  // measure 3
0000
0000
0000
0000
,  // measure 4
0020
0030
0000
0000
,  // measure 5
2000
3000
0000
0000
,  // measure 6
0002
0003
0000
0000
,  // measure 7
0000
0000
0000
0000
,  // measure 8
0000
0000
0000
0000
,  // measure 9
0020
0030
0010
0000
,  // measure 10
2000
3000
0100
0000
,  // measure 11
0002
0003
0100
0000
,  // measure 12
2000
3000
0001
0000
,  // measure 13
1000
0010
0200
0300
,  // measure 14
0001
1000
0020
0030
,  // measure 15
0100
0001
2000
3000
,  // measure 16
0010
0001
1000
0001
,  // measure 17
0001
0100
0100
1000
,  // measure 18
0010
0100
0100
0001
,  // measure 19
2000
3000
0020
0030
,  // measure 20
0200
0300
0002
0003
,  // measure 21
1000
0000
1000
0100
,  // measure 22
0001
1000
0001
0100
,  // measure 23
2000
3000
0002
0003
,  // measure 24
0200
0300
0020
0030
,  // measure 25
0001
1000
0100
0001
,  // measure 26
2000
3000
0001
0100
,  // measure 27
0020
0030
0100
0100
,  // measure 28
0000
0001
0000
1000
,  // measure 29
0010
2000
3000
0110
,  // measure 30
0100
0020
0030
1001
,  // measure 31
0100
0000
0110
0000
,  // measure 32
0100
0000
1001
0000
,  // measure 33
0010
0010
0100
0100
,  // measure 34
0001
0001
1000
1000
,  // measure 35
0010
0001
0100
1000
,  // measure 36
0100
0001
0100
1000
,  // measure 37
0010
0001
0000
1001
,  // measure 38
0010
1000
0000
1001
,  // measure 39
0020
0030
2000
3000
,  // measure 40
0200
0000
0000
0300
,  // measure 41
0000
0001
0100
2000
,  // measure 42
3000
0010
0100
0001
,  // measure 43
1000
0000
0001
0000
,  // measure 44
0010
0001
1000
0100
,  // measure 45
0002
0003
1000
0110
,  // measure 46
0020
0000
0030
1001
,  // measure 47
0200
0300
0020
0030
,  // measure 48
0001
0001
1000
0100
,  // measure 49
0010
0001
1000
0100
,  // measure 50
0002
0103
2000
3010
,  // measure 51
0100
0100
0001
1000
,  // measure 52
2002
0000
0000
3003
;

//---------------dance-single - ----------------
#NOTES:
     dance-single:
     :
     Medium:
     6:
     0.330,0.387,0.084,0.387,0.000: // measure 1
0000
0000
0000
0000
,  // measure 2
0000
0000
0000
0000
,  // measure 3
0000
0000
0000
0000
,  // measure 4
0200
0000
0300
0000
0010
0000
0000
0001
,  // measure 5
2000
0000
0000
3100
,  // measure 6
0002
0000
0003
1000
,  // measure 7
0000
0002
0000
0003
0000
0200
0000
0300
,  // measure 8
0000
2000
0000
3000
0000
0000
0000
0000
,  // measure 9
0002
0003
0100
0000
,  // measure 10
2000
3000
0100
0000
,  // measure 11
0010
1000
0100
0001
,  // measure 12
0010
0100
1000
0001
,  // measure 13
1000
1000
0100
0001
,  // measure 14
0010
0001
0100
1000
,  // measure 15
0020
0030
0002
0003
,  // measure 16
0200
0300
1000
0001
,  // measure 17
1001
0100
0010
0001
,  // measure 18
0110
1000
0100
0001
,  // measure 19
2200
3300
0202
0303
,  // measure 20
0010
0000
1000
0000
0001
0100
0010
0000
,  // measure 21
1000
0001
0100
0000
0010
0000
0001
0000
,  // measure 22
0100
0000
1000
0000
0010
0001
0100
0000
,  // measure 23
0010
0001
1000
0100
,  // measure 24
0010
0010
0100
0100
,  // measure 25
0010
1000
0002
0000
0103
0000
0010
0000
,  // measure 26
1000
0001
0020
0000
0130
0000
1000
0000
,  // measure 27
0200
0300
0020
0030
,  // measure 28
2000
3000
0002
0003
,  // measure 29
0010
0010
2000
3100
,  // measure 30
0001
0001
0020
0130
,  // measure 31
0001
1000
0100
0000
0010
0001
0100
0000
,  // measure 32
0010
1000
0100
0001
,  // measure 33
0020
1030
0200
0301
,  // measure 34
2000
3010
0002
0103
,  // measure 35
0020
0000
0000
0030
,  // measure 36
2000
0000
3001
0000
0010
0100
1000
0000
,  // measure 37
0010
0001
1000
0001
0000
0000
0110
0000
,  // measure 38
0010
1000
0010
0100
0000
0000
0110
0000
,  // measure 39
0002
0003
2000
3000
,  // measure 40
0200
0000
0000
0300
,  // measure 41
0001
1000
0000
0010
0000
0100
0000
0002
,  // measure 42
0000
1000
0000
0100
0000
0013
0000
0001
,  // measure 43
0000
1000
0000
2000
0000
0001
0000
0100
,  // measure 44
0000
3100
0000
0010
0000
1000
0000
0001
,  // measure 45
0100
0001
0000
1000
0000
0010
0000
0100
,  // measure 46
0000
0010
1000
0001
0000
1000
0001
0000
,  // measure 47
0000
0010
0000
1000
0000
0100
0000
0001
,  // measure 48
0000
0100
0010
1000
0000
0001
0200
0000
,  // measure 49
0300
0100
0010
0000
1000
0000
0010
0000
,  // measure 50
1000
0001
1001
0100
,  // measure 51
0010
0010
0100
0100
,  // measure 52
2002
0000
0000
0000
,  // measure 53
0000
0000
0000
3003
;

//---------------dance-single - ----------------
#NOTES:
     dance-single:
     :
     Hard:
     8:
     0.401,0.413,0.042,0.523,0.021: // measure 1
0000
0000
0000
0000
,  // measure 2
0000
0000
0000
0000
,  // measure 3
0000
0000
0000
0000
0000
0000
0000
1000
,  // measure 4
0010
0000
0000
0000
0000
0000
0001
1000
,  // measure 5
0100
0000
0000
0000
0000
0000
0000
0000
0000
0000
0010
1000
0000
0000
0200
0000
,  // measure 6
0000
0300
0000
0000
0000
0000
0010
1000
,  // measure 7
0001
0100
0000
0000
0000
0100
0000
0000
,  // measure 8
0000
2002
0000
0000
0000
0000
0000
0000
3003
0000
0000
0000
0000
0000
0000
0000
,  // measure 9
0020
1000
0001
1030
,  // measure 10
2002
0000
0000
3003
,  // measure 11
0200
0001
1000
0301
,  // measure 12
2000
0000
3002
0000
,  // measure 13
0023
0000
0001
0130
,  // measure 14
2000
0000
0002
3003
,  // measure 15
0020
0000
0000
0230
,  // measure 16
0302
2000
0000
3003
,  // measure 17
0200
0301
1000
0100
,  // measure 18
0002
0103
0010
1000
,  // measure 19
0001
0100
0100
0000
1000
0010
0100
0000
,  // measure 20
0001
1000
0100
0000
0010
0000
0001
0000
,  // measure 21
2000
0000
3100
0000
0010
0001
1000
0000
,  // measure 22
0020
0000
0130
0000
0001
1000
1000
0000
,  // measure 23
0100
0100
1000
0000
0010
0010
0100
0000
,  // measure 24
0002
2003
3020
0130
,  // measure 25
0001
0100
0010
1000
0200
0000
0300
0000
,  // measure 26
0010
0001
1000
0100
0020
0000
0030
0000
,  // measure 27
0001
0100
0010
0000
0010
1000
0100
0000
,  // measure 28
0010
0000
1000
0000
0001
0100
1000
0000
,  // measure 29
0020
1030
0200
0301
,  // measure 30
0002
0000
0013
0000
2000
0100
3100
0000
,  // measure 31
0010
0001
1000
0100
0010
0001
0100
0000
,  // measure 32
2000
0000
3002
0000
0013
1000
0100
0000
,  // measure 33
0001
1000
0001
1000
0200
0000
0300
0000
,  // measure 34
0020
0000
0031
1000
0200
0000
0300
0000
,  // measure 35
1000
0001
0010
0000
0010
0001
0100
0000
,  // measure 36
0020
0000
0230
0000
0301
1000
0100
0000
,  // measure 37
0010
0001
0100
0010
0200
0000
0300
0000
,  // measure 38
0020
0000
0130
0001
2000
0000
3000
0000
,  // measure 39
0002
0103
0020
1030
,  // measure 40
0200
0000
0301
0000
1000
0001
0100
0000
,  // measure 41
0010
1000
0100
0000
0010
0001
0100
0000
,  // measure 42
0001
0000
1000
0000
0001
0100
0010
0000
,  // measure 43
1000
0100
2001
3001
,  // measure 44
0010
0002
1000
0103
,  // measure 45
2000
0010
0000
0100
3000
0001
0000
0100
,  // measure 46
0020
1000
0000
0100
0030
1000
0000
0001
,  // measure 47
2000
0001
3000
0100
0000
0001
0000
0100
,  // measure 48
0000
1000
0000
0001
0000
0100
0000
0010
,  // measure 49
1000
0100
1000
0001
0000
0100
0000
0010
,  // measure 50
0100
0010
0000
0002
0000
1000
0003
0100
,  // measure 51
1000
0001
1000
0010
0100
0001
1000
0000
,  // measure 52
0220
0000
0330
0000
0000
0010
0000
0000
,  // measure 53
0000
0100
0000
0000
0000
0000
0000
0000
1000
0001
0000
0000
0000
0000
0000
0000
;

//---------------dance-double - ----------------
#NOTES:
     dance-double:
     :
     Easy:
     4:
     0.220,0.268,0.052,0.126,0.000:
00000000
00000000
00000000
00000000
,
00000000
00000000
00000000
00000000
,
00000000
00000000
00000000
00000000
,
00000000
00000000
00000000
00000000
,
00000002
00000000
00000000
00000003
,
00002000
00000000
00000000
00003000
,
00000020
00000000
00000000
00000030
,
00000200
00000000
00000000
00000300
,
00000001
00000000
00000100
00000000
,
00001000
00000000
00010000
00000000
,
01000000
00000000
10000000
00000000
,
00010000
00000000
01000000
01000000
,
00100000
00000000
00100000
00000000
,
10000000
01000000
00010000
00001000
,
00000100
00000001
00001000
00000100
,
00000010
00000000
00000010
00001001
,
00000100
00000000
00000100
00000000
,
00000010
00000001
00000100
00001000
,
00010000
00000000
00100000
00000000
,
10000000
00010000
01000000
00100000
,
10000000
10000000
01000000
01000000
,
00010000
00010000
00001000
00001000
,
00000010
00000001
00001000
00000100
,
00000020
00000000
00000000
00000030
,
00001001
00000000
00000100
00000000
,
00000010
00000000
00000001
00000000
,
00000100
00000000
00010000
00000000
,
10000000
10000000
00010000
10000000
,
01000000
00000000
00010000
00000000
,
00000010
00000000
00000100
00000000
,
00000001
00001000
00000100
00000010
,
00001001
00000000
00000010
00001000
,
00010000
01000000
10000000
00010000
,
02000000
00000000
00000000
03000000
,
00100000
10000000
00010000
01000000
,
00100000
00010000
00001000
00000010
,
00000002
00000000
00000000
00000003
,
00002000
00000000
00000000
00003000
,
00000020
00000030
00000200
00000300
,
00000001
00000010
00000100
00010000
,
00011000
00000000
01000000
00100000
,
10000000
00000000
00010000
00100000
,
01000000
00000000
10000000
00000000
,
00010000
00000000
00100000
01000000
,
10000000
10000000
00100000
00010000
,
00001000
00000000
00000010
00000001
,
00001000
00000000
00000100
00000000
,
00000010
00000001
00001000
00000100
,
00000010
00000001
00001000
00010000
,
00100000
01000000
10000000
00010000
,
01000000
00100000
10000000
00010000
,
20020000
30030000
00000000
00000000
;

//---------------dance-double - ----------------
#NOTES:
     dance-double:
     :
     Medium:
     7:
     0.323,0.359,0.052,0.105,0.000:
00000000
00000000
00000000
00000000
,
00000000
00000000
00000000
00000000
,
00000000
00000000
00000000
00000000
,
00000000
00000000
00000000
00000000
,
00000002
00000000
00000000
00001003
,
00002000
00000000
00000000
00003010
,
00000020
00000000
00000000
00000130
,
00000200
00000000
00000000
00000300
,
00000001
00000000
00000001
00000000
00001000
00000000
00000001
00000010
,
00001000
00000000
00010000
00000000
00010000
00000000
00001000
01000000
,
00100000
00000000
10000000
00000000
10000000
00000000
00010000
00100000
,
01000000
00000000
01000000
00000000
01000000
00000000
10000000
00010000
,
00100000
01000000
10000000
00100000
,
00010000
00001000
00000010
00000001
,
00001000
00001000
00000010
00000100
,
00000001
00001000
00000100
00000000
00000010
00000001
00000100
00000000
,
00001001
00001000
00000000
00000010
00000000
00000100
00000000
00000001
,
00000000
00000010
00000000
00001000
00000000
00010000
00000000
01000000
,
00000000
10000000
00000000
00010000
00000000
10000000
00000000
00100000
,
00000000
01000000
00000000
00010000
00000000
10000000
00010000
01000000
,
00000000
00100000
00000000
10000000
00000000
01000000
00000000
00010000
,
00000000
00001000
00000000
00000100
00000000
00000001
00000000
00000010
,
00000000
00000100
00000000
00001000
00000000
00000010
00000000
00000100
,
00000001
00000010
00000100
00000000
00001000
00000001
00000100
00000000
,
00001001
00000000
00000100
00000010
00000001
00000000
00000100
00000000
,
00001000
00000000
00010000
01000000
10000000
00000000
00100000
00000000
,
01000000
00000000
00010000
00100000
01000000
00000000
10000000
00000000
,
00100000
01000000
00010000
00000000
00100000
01000000
10000000
00000000
,
10010000
00000000
01000000
00100000
01000000
00000000
10000000
00000000
,
00100000
00000000
00010000
00001000
00010000
00000000
00000100
00000000
,
00000010
00000001
00000100
00001000
,
00000010
00000100
00000001
00000000
00001000
00000010
00000100
00000000
,
00002002
00000000
00000000
00000000
,
00000000
00000000
00000000
00003003
,
00000010
00000000
00000100
00001000
,
00010000
00000000
01000000
00000000
10000000
00010000
01000000
00000000
,
00100000
00000000
10000000
01000000
00100000
00000000
00010000
00000000
,
10000000
10000000
01000000
00010000
,
00000010
00000000
00000100
00000000
00000001
00000010
00000100
00000000
,
00002000
00000000
00000010
00003100
,
00000001
00000010
00001000
00010000
,
00100000
10000000
00010000
01000000
,
00100000
10000000
01000000
00100000
,
00010000
00000000
01000000
00000000
00100000
10000000
01000000
00000000
,
00010000
00000010
00000100
00000001
,
00001000
00000100
00000010
00000001
,
00001000
00000000
00000010
00000000
00000100
00000001
00001000
00000000
,
00000010
00000100
00000001
00000010
,
00001000
00000000
01000000
00000000
00100000
10000000
01000000
00000000
,
00100000
00000000
00010000
00000000
10000000
01000000
00100000
00000000
,
00001000
00000000
00010000
00000000
00000100
00000010
00000001
00000000
,
00001100
00000000
00000000
00000000
00000000
00000020
00000000
00000000
,
00000000
00020000
00000030
00000000
00000200
00000000
00030300
00000000
;

//---------------dance-double - ----------------
#NOTES:
     dance-double:
     :
     Hard:
     9:
     0.384,0.469,0.105,0.220,0.058:
00000000
00000000
00000000
00000000
,
00000000
00000000
00000000
00000000
,
00000000
00000000
00000000
00000000
,
00000000
00000000
00000000
00000000
,
20000000
00000000
00000000
00000000
,
00020000
00000000
00000000
30000000
,
00200000
00000000
00000000
00030000
,
02000000
00000000
00000000
03300000
,
10000000
00000000
00000000
01000000
00000000
00000000
00010000
00000000
00000000
00001000
00000000
00000000
00000000
00000000
00000100
00000000
,
00000001
00000000
00000000
00001000
00000000
00000000
00000010
00000000
00000000
00000100
00000000
00000000
00000000
00000000
00000001
00000000
,
00000010
00000000
00000000
00001000
00000000
00000000
00010000
00000000
00000000
01000000
00000000
00000000
00000000
00000000
10000000
00000000
,
00010000
00000000
00000000
00100000
00000000
00000000
01000000
00000000
00000000
10000000
00000000
00000000
00000000
00000000
00010000
00000000
,
01000000
00100000
00000000
00000000
10000000
00000000
00000000
00010000
00000000
00000000
00100000
00000000
00000000
01000000
00000000
00000000
,
10000000
00100000
00010000
00001000
00000010
00000001
00001000
00000100
,
00000010
00000001
00001000
00000000
00000010
00000100
00000001
00000000
,
00001100
00000000
00000001
00000000
00000010
00000100
00001000
00000000
,
00010100
00000000
00001000
01000000
00100000
10000000
00010000
00000000
,
00100000
01000000
10000000
00000000
00100000
01000000
00010000
00000000
,
00100000
01000000
10000000
00100000
01000000
00000000
10010000
00000000
,
00100000
01000000
00010000
00000000
00100000
01000000
10000000
00000000
,
00100000
00010000
00001000
00000010
,
00000001
00001000
00000100
00000000
00000010
00000001
00000100
00000000
,
00001000
00010000
00001000
01000000
00100000
10000000
00010000
00100000
,
01000000
10000000
01000000
00100000
00010000
01000000
00100000
00000000
,
20010000
00100000
02000000
33000000
,
10020000
00100000
02000000
03030000
,
00100000
10000000
00010000
00001000
,
00000010
00000000
00000100
00000000
00000001
00001000
00000100
00000000
,
00000021
00001000
00000032
00000103
,
00001020
00000001
00002030
00003100
,
00000010
00000001
00001000
00000000
00000010
00000100
00000001
00000000
,
00000010
00000001
00001000
00000010
00000100
00000001
00001000
00000000
,
00000010
00000001
00001000
00010000
,
00100000
01000000
10000000
00010000
,
00200000
00000000
02000000
03300000
,
20020000
00000000
30030000
00000000
00100000
01000000
00100000
00000000
,
10000000
00010000
01000000
00100000
20000000
00000000
30000000
00000000
,
01000000
00010000
00002000
00003000
,
00010000
00000100
00000010
00000001
00000200
00000000
00000300
00000000
,
00001000
00000000
00000100
00000000
00000010
00000001
00000100
00000000
,
00001001
00000000
00000100
00000000
00000010
00000001
00000100
00000000
,
00001000
00000000
00010000
00000000
01000000
10000000
00010000
00000000
,
00100000
01000000
10000000
00100000
,
00010000
00000000
00001000
00000000
00000010
00000001
00000100
00000000
,
00000010
00001000
00000001
00000000
00000010
00000000
00000100
00000000
,
00001000
00000001
00000100
00000000
00000010
00000000
00001000
00000000
,
00000001
00000100
00001000
00000000
00010000
01000000
10000000
00000000
,
00100000
00000000
01000000
00000000
00010000
10000000
01000000
00000000
,
00100000
00010000
01000000
00000000
00001000
00010000
00000100
00000000
,
00000010
00000001
00001000
00000000
00000010
00000100
00000001
00000000
,
00001000
00000010
00000100
00000001
00001000
00000100
00000010
00000000
,
00002002
00000000
00000000
00000000
,
00000000
00000000
00000000
00003003
;

//---------------dance-single - ----------------
#NOTES:
     dance-single:
     :
     Beginner:
     3:
     0.175,0.250,0.042,0.283,0.000:
0000
0000
0000
0000
,
0000
0000
0000
0000
,
0002
0000
0000
0003
,
2000
0000
0000
3000
,
0002
0000
0000
0003
,
2000
0000
0000
3000
,
0002
0000
0000
0003
,
2000
0000
0000
3000
,
0200
0000
0000
0300
,
0020
0000
0000
0030
,
2000
0000
0000
3000
,
0002
0000
0000
0003
,
1000
0000
1000
0000
,
0100
0000
0100
0000
,
0010
0000
0010
0000
,
0001
0000
0001
0000
,
0001
0000
0001
0000
,
1000
0000
1000
0000
,
0100
0000
0100
0000
,
1000
0000
0001
0000
,
0010
0000
0010
0000
,
0100
0000
1000
0000
,
0002
0000
0000
0003
,
0020
0000
0000
0030
,
0100
0100
0200
0300
,
0010
0010
0020
0030
,
1000
1000
2000
3000
,
0001
0001
0002
0003
,
1000
0000
0001
0000
,
1000
0000
0001
0000
,
0010
0000
0100
0000
,
0010
0000
0100
0000
,
2000
0000
0000
3000
,
0002
0000
0000
0003
,
0020
0000
0000
0030
,
0200
0000
0000
0300
,
0020
0000
0000
0030
,
2000
0000
0000
3000
,
0002
0000
0000
0003
,
1001
0000
0110
0000
,
1001
0000
1000
0000
,
1000
1000
1000
0000
,
0001
0000
1000
0000
,
0100
0100
0100
0000
,
1000
0000
0001
0000
,
0010
0010
0010
0000
,
1000
0000
0001
0000
,
0001
0001
0001
0000
,
1000
0000
1000
0000
,
0020
0000
0000
0030
,
0200
0000
0000
0300
,
2002
0000
0000
0000
,
0000
0000
0000
0000
,
3003
0000
0000
0000
;

//---------------dance-single - ----------------
#NOTES:
     dance-single:
     :
     Challenge:
     14:
     0.658,0.638,0.178,0.042,0.707: // measure 1
0220
0000
0000
0000
,  // measure 2
0000
0000
0000
0000
,  // measure 3
0330
0000
0000
0000
0000
0000
0000
1000
,  // measure 4
1001
0000
0000
0000
0000
0000
1000
0100
,  // measure 5
0011
0000
0000
0000
0000
0000
0000
0000
0000
0000
0010
1000
0000
0000
0101
0000
,  // measure 6
0000
0000
0000
0000
0000
0000
0000
0000
0000
0000
0000
0000
0000
0000
0000
0000
0000
0000
0000
0000
0000
1000
0000
0100
,  // measure 7
0000
1000
0000
0100
0000
0000
0000
0000
0000
0000
0000
0000
0000
0000
0000
0110
0000
0000
0000
0000
0000
0000
0000
0000
,  // measure 8
0000
1000
1001
0000
0000
0000
0000
0000
,  // measure 9
0001
0100
0000
0100
1000
0000
0100
0010
0000
0001
1000
0000
0100
0000
0010
0001
,  // measure 10
1000
0010
0000
0010
1000
0000
0100
0001
0000
0010
1000
0000
0001
0000
0010
1000
,  // measure 11
0100
0001
0000
0001
0010
0000
1000
0100
0000
0001
0100
0000
0010
0000
0001
0100
,  // measure 12
1000
0010
0000
0010
0100
0000
0001
1000
0000
0100
0001
0000
0010
0000
1000
0100
,  // measure 13
0010
0001
0000
0001
1000
0000
0100
0001
0000
1000
0001
0000
0100
0000
0001
0100
,  // measure 14
1000
0100
0000
0100
0001
0000
0010
0100
0000
1000
0001
0000
0100
0000
1000
0001
,  // measure 15
0010
0010
0100
0100
,  // measure 16
1000
0001
1000
0001
,  // measure 17
0100
1000
0000
0100
0001
0000
0010
1000
0000
0010
0100
0000
0001
0000
0010
0001
,  // measure 18
1000
0010
0000
0100
0001
0000
1000
0100
0000
0100
1000
0000
0001
0000
0010
0001
,  // measure 19
0100
1000
0000
1000
0010
0000
0100
0001
0000
1000
0001
0000
0100
0000
0010
1000
,  // measure 20
0001
0100
0000
1000
0001
0000
0010
0100
0000
1000
0100
0000
0001
0000
0100
0010
,  // measure 21
1000
0001
0000
0010
1000
0000
0100
0010
0000
0010
0001
0000
1000
0000
0100
0001
,  // measure 22
0010
1000
0000
0100
0010
0000
0001
1000
0000
1000
0100
0000
0001
0000
1000
0010
,  // measure 23
0100
0010
0000
0010
1000
0000
0100
0001
0000
1000
0100
0000
0010
0000
1000
0100
,  // measure 24
0001
0100
0000
1000
0001
0000
0010
0100
0000
0100
0010
0000
1000
0000
0010
0001
,  // measure 25
0010
0100
0000
0010
0100
0000
1000
0001
0000
1000
0001
0000
0010
0000
0100
0010
,  // measure 26
1000
0100
0000
1000
0100
0000
0010
0001
0000
0010
0001
0000
0100
0000
1000
0010
,  // measure 27
0001
0100
0000
0001
0010
0000
1000
0100
0000
1000
0010
0000
0100
0000
0001
0100
,  // measure 28
0010
1000
0000
0100
1000
0000
0001
0100
0000
0010
0100
0000
1000
0000
0001
0100
,  // measure 29
0010
1000
0000
1000
0100
0000
0010
0001
0000
0100
0010
0000
0001
0000
1000
0100
,  // measure 30
1000
0100
0000
0010
0001
0000
0010
0001
0000
1000
0100
0000
0010
0000
1000
0100
,  // measure 31
0010
0001
0000
0100
0010
0000
1000
0100
0000
0010
0001
0000
0100
0000
0010
1000
,  // measure 32
0100
0010
0000
0001
0010
0000
0100
0001
0000
1000
0010
0000
0100
0000
0010
1000
,  // measure 33
0001
0010
0100
1000
0100
0010
0001
0000
1001
0000
0000
0000
0000
0000
0000
0000
,  // measure 34
0001
0010
0100
1000
0100
0010
0001
0000
1100
0000
0000
0000
0000
0000
0000
0000
,  // measure 35
0001
0010
0100
1000
0100
0010
0001
0000
0011
0000
0000
0000
0000
0000
0000
0000
,  // measure 36
0001
0010
0100
1000
0100
0010
0001
0000
0010
0000
0001
0000
0010
0000
0001
0000
,  // measure 37
1000
0010
0100
0001
0100
0010
1000
0000
1001
0000
0000
0000
0000
0000
0000
0000
,  // measure 38
0001
0100
0010
1000
0100
0010
0001
0000
1010
0000
0000
0000
0000
0000
0000
0000
,  // measure 39
0010
0001
0100
1000
0100
0001
0010
0000
0101
0000
0000
0000
0000
0000
0000
0000
,  // measure 40
1001
0110
1100
0101
,  // measure 41
0010
1000
0100
0001
0010
0001
0100
0010
,  // measure 42
0001
0100
1000
0100
0001
0100
0010
1000
,  // measure 43
0100
0010
0001
0100
1000
0100
0001
0010
,  // measure 44
0001
0010
0001
1000
0100
1000
0100
1000
,  // measure 45
0001
0010
0100
0010
0001
1000
0001
0100
,  // measure 46
0010
1000
0100
1000
0010
1000
0100
0001
,  // measure 47
1000
0010
0001
1000
0100
0010
0001
1000
,  // measure 48
0010
0100
0001
0010
0001
0010
1000
0010
,  // measure 49
1000
0010
0001
0010
0100
0010
1000
0010
,  // measure 50
0100
0001
0010
0100
1000
0100
1000
0001
,  // measure 51
0010
0000
0100
0000
0010
0000
0001
0000
1000
0000
0100
0000
0001
1000
0001
0000
,  // measure 52
2002
0000
0000
0000
,  // measure 53
0000
0000
0000
0000
,  // measure 54
3003
0000
0000
0000
;

//---------------dance-double - ----------------
#NOTES:
     dance-double:
     :
     Challenge:
     14:
     0.694,0.638,0.115,0.167,0.769:
20020000
00000000
00000000
00000000
,
00000000
00000000
00000000
00000000
,
30030000
00000000
00000000
00000000
00000000
00000000
00000000
00000100
,
00000011
00000000
00000000
00000000
00000000
00000000
10000000
01000000
,
00110000
00000000
00000000
00000000
,
00000000
00000000
00000000
00000000
00000000
00000000
00000000
00000000
00000000
00000000
00000000
00000000
00000000
00000000
00000000
00000000
00000000
00000000
00000000
00000000
00000000
00000010
00000000
00001000
,
00000000
00000100
00000000
00000001
00000000
00000000
00000000
00000000
00000000
00000000
00000000
00000000
00000000
00000000
00000000
00110000
00000000
00000000
00000000
00000000
00000000
00000000
00000000
00000000
,
00000000
00001000
00001001
00000000
00000000
00000000
00000000
00000000
,
00000001
00000100
00000000
00000010
00001000
00000000
00010000
00001000
00000000
00000100
00001000
00000000
00010000
00000000
00100000
00010000
,
10000000
01000000
00000000
00100000
00010000
00000000
01000000
00010000
00000000
00001000
00010000
00000000
00000100
00000000
00001000
00000001
,
00000100
00000010
00000000
00001000
00000100
00000000
00000001
00001000
00000000
00000100
00001000
00000000
00100000
00000000
00010000
01000000
,
10000000
00010000
00000000
10000000
01000000
00000000
00100000
00010000
00000000
00001000
00100000
00000000
00001000
00000000
00000010
00010000
,
00001000
00010000
00000000
00000100
00001000
00000000
00000010
00000001
00000000
00000100
00000010
00000000
00001000
00000000
00010000
00100000
,
10000000
01000000
00000000
00100000
00010000
00000000
10000000
00100000
00000000
01000000
00010000
00000000
00100000
00000000
00001000
00010000
,
00001000
00000100
00000000
00000010
00000001
00000000
00001000
00000100
00000000
00010000
00001000
00000000
00010000
00000000
01000000
00100000
,
10000000
00010000
00000000
00100000
00001000
00000000
00010000
00000100
00000000
00000100
00001000
00000000
00000001
00000000
00000100
00001000
,
00010000
00100000
00000000
01000000
00010000
00000000
00100000
10000000
00000000
00100000
01000000
00000000
00010000
00000000
00001000
00010000
,
00100000
00010000
00000000
00001000
00000100
00000000
00000010
00000100
00000000
00000001
00001000
00000000
00100000
00000000
00010000
00100000
,
01000000
10000000
00000000
00100000
00010000
00000000
00100000
00010000
00000000
00001000
00010000
00000000
00000100
00000000
00001000
00010000
,
00001000
00000100
00000000
00001000
00000010
00000000
00000001
00000100
00000000
00000010
00001000
00000000
00010000
00000000
01000000
00100000
,
10000000
00010000
00000000
00100000
10000000
00000000
01000000
00100000
00000000
00100000
00010000
00000000
00100000
00000000
00001000
00010000
,
00000100
00010000
00000000
00001000
00000100
00000000
00001000
00000100
00000000
00000001
00000010
00000000
00000100
00000000
00001000
00010000
,
01000000
00010000
00000000
10000000
01000000
00000000
00100000
00010000
00000000
10000000
01000000
00000000
00010000
00000000
00001000
00100000
,
00001000
00010000
00000000
00001000
00000100
00000000
00000010
00001000
00000000
00001000
00000001
00000000
00000100
00000000
00001000
00010000
,
00100000
01000000
00000000
10000000
01000000
00000000
00100000
00010000
00000000
00001000
00010000
00000000
00001000
00000000
00000100
00001000
,
00000010
00000100
00000000
00000001
00000100
00000000
00001000
00010000
00000000
00100000
00010000
00000000
01000000
00000000
10000000
00100000
,
00010000
01000000
00000000
00010000
00100000
00000000
00001000
00100000
00000000
00010000
00001000
00000000
00000010
00000000
00000001
00000100
,
00000010
00001000
00000000
00000100
00010000
00000000
00001000
00100000
00000000
00010000
00001000
00000000
00100000
00000000
01000000
00100000
,
10000000
00010000
00000000
00100000
01000000
00000000
00001000
00010000
00000000
00100000
00001000
00000000
00000100
00000000
00000010
00001000
,
00000001
00000100
00000000
00001000
00100000
00000000
00010000
00001000
00000000
00100000
01000000
00000000
00010000
00000000
10000000
01000000
,
00100000
00010000
00000000
00001000
00010000
00000000
00000100
00010000
00000000
00000100
00001000
00000000
00000001
00000000
00000100
00000010
,
00001000
00000100
00000000
00010000
00100000
00000000
01000000
00010000
00000000
10000000
00100000
00000000
01000000
00000000
00100000
00000000
,
00010000
00001000
00000100
00001000
00010000
00001000
00000010
00000000
00002020
00000000
00000000
00000000
00003030
00000000
00000000
00000000
,
00000001
00000010
00000100
00001000
00000100
00000010
00000001
00000000
00002002
00000000
00000000
00000000
00003003
00000000
00000000
00000000
,
00010000
00100000
01000000
10000000
01000000
00100000
00010000
00000000
00220000
00000000
00000000
00000000
00330000
00000000
00000000
00000000
,
00001000
00000010
00000100
00000001
00000010
00000100
00001000
00000000
00010000
00000000
00100000
00000000
01000000
00000000
00010000
00000000
,
10000000
00100000
01000000
00010000
01000000
00100000
10000000
00000000
20020000
00000000
00000000
00000000
30030000
00000000
00000000
00000000
,
00001000
00000100
00000010
00000001
00000100
00000010
00001000
00000000
00002002
00000000
00000000
00000000
00003003
00000000
00000000
00000000
,
00100000
00010000
01000000
10000000
01000000
00010000
00100000
00000000
02020000
00000000
00000000
00000000
03030000
00000000
00000000
00000000
,
00000010
00000100
00000001
00000100
00001000
00000010
00000100
00001000
,
00100000
00001000
01000000
00001000
00100000
00001000
01000000
00001000
,
00100000
00010000
00100000
01000000
10000000
00010000
01000000
00100000
,
00010000
00100000
00010000
00001000
00010000
00000100
00010000
00000010
,
00001000
00000100
00000010
00000001
00000100
00000010
00001000
00000100
,
00100000
01000000
00010000
00100000
01000000
10000000
00010000
01000000
,
00100000
10000000
01000000
00010000
10000000
00100000
00010000
00001000
,
00010000
00100000
00001000
00100000
00001000
00010000
00000100
00001000
,
00000100
00000010
00000001
00000100
00001000
00000100
00000001
00000100
,
00001000
00100000
00010000
00100000
01000000
00100000
10000000
00100000
,
01000000
00010000
00001000
00100000
00001000
00010000
00000100
00001000
,
00000010
00000100
00000010
00000000
00000001
00000010
00000001
00000000
00000100
00001000
00000100
00000000
00010000
00001000
00010000
00002000
,
00020000
00000000
00000000
00000000
,
00000000
00000000
00000000
00000000
,
00033000
00000000
00000000
00000000
;
