#TITLE:DOUBLE TORNARD;
#SUBTITLE:;
#ARTIST:evo-X;
#TITLETRANSLIT:;
#SUBTITLETRANSLIT:;
#ARTISTTRANSLIT:;
#GENRE:;
#CREDIT:;
#MENUCOLOR:;
#METERTYPE:DDR;
#BANNER:DOUBLE TORNARD.png;
#BACKGROUND:DOUBLE TORNARD-bg.png;
#LYRICSPATH:;
#CDTITLE:./CDTITLES/DanceDanceRevolution 2010.png;
#MUSIC:DOUBLE TORNARD.mp3;
#OFFSET:2.671;
#SAMPLESTART:19.280;
#SAMPLELENGTH:15.000;
#SELECTABLE:YES;
#LISTSORT:;
#BPMS:0.000=153.000;
#STOPS:;
#BGCHANGES:;
#ATTACKS:;

//---------------dance-single - ----------------
#NOTES:
     dance-single:
     :
     Hard:
     8:
     0.587,0.619,0.207,0.066,0.042:
0000
0000
0000
0000
,
0000
0000
0000
0000
,
0000
0000
0000
0000
,
0000
0000
0000
0000
,
0000
0000
0000
0000
,
0000
0000
0000
0000
,
0200
0000
0001
0000
0010
0000
0301
0010
,
0200
0000
1000
0000
0010
0000
1300
0010
,
0002
0000
0010
0000
1000
0000
0013
1000
,
0002
0000
0010
0000
1000
0000
0013
0100
,
2000
0000
0001
0000
0010
0000
3001
0010
,
2000
0000
0010
0000
0001
0000
3010
0001
,
0200
0010
1000
0310
,
1000
0010
1000
0001
1000
0010
1000
0100
,
0010
0001
1000
0100
1000
0010
0100
0010
,
1000
0001
1000
0100
0000
0000
0000
0000
,
1000
0100
1000
0010
0100
0010
1000
0100
,
1000
0001
0010
0100
0000
0000
0000
0010
,
0001
1000
0001
0100
0001
0010
0100
0010
,
0001
1000
0001
0100
0000
0000
0000
0010
,
0001
0100
0001
0010
0100
0010
0001
0100
,
0001
1000
0010
0100
0110
0000
0101
0000
,
0000
0000
0101
0000
0000
1100
0000
0000
1000
0000
0000
0001
0000
0000
0100
0000
,
0000
0001
1000
0010
0000
0001
0010
0100
,
0000
0000
0011
0000
0000
1010
0000
0000
1000
0000
0000
0001
0000
0000
0010
0000
,
0000
0001
1000
0100
0000
0001
0100
0010
,
0000
0000
1100
0000
0000
0101
0000
0000
0001
0000
0000
1000
0000
0000
0100
0000
,
0000
1000
0001
0010
0000
1000
0010
0100
,
0000
0000
1010
0000
0000
0011
0000
0000
0001
0000
0000
1000
0000
0000
0010
0000
,
1000
0100
0010
0001
1000
0010
0100
0100
,
0010
1000
0001
0100
0001
0010
0100
0010
,
0001
1000
0001
0100
0000
0000
0000
0000
,
0001
0100
0001
0010
0100
0010
0001
0100
,
0001
1000
0010
0100
0000
0000
0000
0010
,
1000
0001
1000
0100
1000
0010
0100
0010
,
1000
0001
1000
0100
0000
0000
0000
0010
,
1000
0100
1000
0010
0100
0010
1000
0100
,
1000
0001
0010
0100
0110
0000
1100
0000
,
0001
0010
0100
1000
1000
0010
0100
0001
,
0001
0010
0100
1000
0001
1000
0010
0100
,
0001
0100
0010
1000
1000
0100
0010
0001
,
0001
0100
0010
1000
0001
1000
0100
0010
,
1000
0010
0100
0001
0001
0010
0100
1000
,
1000
0010
0100
0001
1000
0001
0010
0100
,
1000
0100
0010
0001
0001
0100
0010
1000
,
1000
0100
0010
0001
1000
0001
0100
0010
,
1001
0000
0000
0000
0000
0000
0010
0001
,
1000
0100
0010
0001
1000
0100
0010
0100
,
1000
0100
0010
0001
1000
0100
0010
0001
,
0010
0100
0010
0001
1000
0100
0101
0000
,
1000
0100
0010
0001
1000
0100
0010
0001
,
1000
0100
0010
0001
1000
0100
0010
0100
,
1000
0100
0010
0001
1000
0100
0010
0001
,
0010
0100
0010
0001
1000
0100
0101
0000
,
1001
0001
0100
0010
0110
0100
0010
1000
,
0010
0001
0010
0100
1000
0100
0010
0001
,
1100
0100
1000
0100
0010
0100
1000
0001
,
0010
0100
1000
0001
0010
0100
1000
0001
,
1001
1000
0001
1000
0110
0100
0010
0100
,
0010
1000
0010
0100
0001
0100
0010
1000
,
0101
0100
0001
0100
1000
0100
0001
1000
,
0010
0100
0001
1000
0010
0100
0001
0100
,
0001
0010
0100
1000
0001
0010
0100
1000
,
0010
0100
0010
0100
0001
1000
0100
0010
,
0001
0010
0100
1000
0010
0100
0010
0100
,
0001
0000
1000
0000
0100
0000
1100
0000
0000
0001
0100
0000
0001
0000
0000
0000
;

//---------------dance-single - ----------------
#NOTES:
     dance-single:
     :
     Beginner:
     2:
     0.238,0.433,0.414,0.019,0.000:
0000
0000
0000
0000
,
0000
0000
0000
0000
,
0000
0000
0000
0000
,
0000
0000
0000
0000
,
0000
0000
0000
0000
,
0000
0000
0000
0000
,
0020
0000
0000
0030
,
0000
0000
0000
0000
,
1000
0000
0001
0000
,
1000
0000
0001
0000
,
0020
0000
0000
0000
,
0030
0000
0000
0000
,
0001
0000
1000
0000
,
0001
0000
1000
0000
,
1001
0000
1001
0000
,
1001
0000
1001
0000
,
1001
0000
1001
0000
,
1001
0000
1001
0000
,
1001
1001
1001
0000
,
1001
1001
1001
0000
,
1001
1001
1001
0000
,
1001
0000
1001
1001
,
0000
0100
0000
0010
,
0010
0010
0010
0000
,
0001
0000
1000
0000
,
0001
0000
1000
0000
,
0000
0100
0000
0010
,
0010
0010
0010
0000
,
0001
0000
1000
0000
,
0001
0000
1000
0000
,
1001
0000
1001
0000
,
1001
0000
1001
0000
,
1001
0000
1001
0000
,
1001
0000
1001
0000
,
1001
1001
1001
0000
,
1001
1001
1001
0000
,
1001
1001
1001
0000
,
1001
0000
1001
1001
,
0000
0000
0000
0000
,
0010
0010
0010
0010
,
0000
0000
0000
0000
,
1000
1000
1000
1000
,
0000
0000
0000
0000
,
0100
0100
0100
0100
,
0000
0000
0000
0000
,
0001
0001
0001
0001
,
0001
0000
0000
0000
,
0100
0000
1000
0000
,
0100
0000
0001
0000
,
0100
0000
1000
0000
,
1000
1000
1000
1000
,
1000
0000
0100
0000
,
0001
0001
0001
0001
,
0001
0000
0100
0000
,
1000
1000
1000
0000
,
0001
0001
0001
0000
,
1000
0000
0001
0000
,
0100
0100
0100
0000
,
0001
0001
0001
0000
,
1000
1000
1000
0000
,
0001
0000
1000
0000
,
0100
0100
0100
0000
,
0110
0000
0000
0000
,
0000
0000
0000
0000
,
0010
0000
0010
0000
,
0000
1001
1001
1001
;

//---------------dance-single - ----------------
#NOTES:
     dance-single:
     :
     Easy:
     4:
     0.277,0.340,0.207,0.019,0.000:
0000
0000
0000
0000
,
0000
0000
0000
0000
,
0000
0000
0000
0000
,
0000
0000
0000
0000
,
0000
0000
0000
0000
,
0000
0000
0000
0000
,
0020
0000
0000
0030
,
0000
0000
0000
0000
,
0010
1000
0010
0001
,
0010
1000
0010
0001
,
0020
0000
0000
0000
,
0030
0000
0000
0000
,
0010
0001
0010
1000
,
0010
0001
0010
1000
,
1001
0000
0100
0000
,
1001
0000
0010
0000
,
1001
0000
0100
0000
,
1001
0000
0010
0000
,
1001
0100
0100
0000
,
1001
0010
0010
0000
,
1001
0100
0100
0000
,
1001
0000
1001
1001
,
0001
0100
1000
0100
,
0001
0100
1000
0100
,
0001
0100
1000
0100
,
0001
0100
1000
1000
,
1000
0100
0001
0100
,
1000
0100
0001
0100
,
1000
0100
0001
0100
,
1000
0100
0001
0001
,
1001
0000
0100
0000
,
1001
0000
0010
0000
,
1001
0000
0100
0000
,
1001
0000
0010
0000
,
1001
0100
0100
0000
,
1001
0010
0010
0000
,
1001
0100
0100
0000
,
1001
0000
0110
0110
,
1000
0001
1000
0001
,
1000
0001
1000
1000
,
0001
1000
0001
1000
,
0001
1000
0001
0001
,
0001
1000
0001
1000
,
0001
1000
0001
0001
,
1000
0001
1000
0001
,
1000
0001
1000
1000
,
0001
0000
0000
0000
,
0100
0000
1000
0000
,
0100
0000
0001
0000
,
0100
0000
1000
0000
,
1000
1000
0001
0001
,
1000
0000
0100
0000
,
0001
0001
1000
1000
,
0001
0000
0100
0000
,
1000
1000
0001
0001
,
1000
0100
0001
0100
,
1000
1000
0001
0001
,
1000
0100
0001
0010
,
0001
0001
1000
1000
,
0001
0100
1000
0100
,
0001
0001
1000
1000
,
0001
0100
1000
0010
,
0110
0000
0000
0000
,
0000
0000
0000
0000
0000
0000
0010
0010
,
0010
0000
0010
0000
,
0010
0001
0100
1001
;

//---------------dance-single - ----------------
#NOTES:
     dance-single:
     :
     Medium:
     6:
     0.393,0.461,0.452,0.000,0.000:
0000
0000
0000
0000
,
0000
0000
0000
0000
,
0000
0000
0000
0000
,
0000
0000
0000
0000
,
0000
0000
0000
0000
,
0000
0000
0000
0000
,
0001
0000
0001
0000
0001
0100
0000
0000
,
1000
0000
1000
0000
1000
0100
0000
0000
,
0100
0000
0100
0000
0100
1000
0000
0000
,
0100
0000
1000
0000
0100
0010
0000
0000
,
0001
0000
0100
0000
0001
0100
0000
0000
,
0100
0000
0001
0000
0100
0001
0000
0000
,
0100
0000
1000
0000
0100
0000
1000
0100
,
1000
0000
0001
0100
0001
0000
0100
0000
,
1100
0000
1000
0000
0110
0000
1000
0001
,
1000
0010
0000
0000
0000
0000
1000
0000
,
1010
0000
0010
0000
1100
0000
1000
0001
,
0100
0010
0000
0000
0000
0100
0001
0000
,
0011
0000
0001
0000
0110
0000
0001
1000
,
0001
0010
0000
0000
0000
0100
0001
0000
,
0101
0000
0010
0000
0101
0000
0001
1000
,
0100
0000
0110
0000
1001
0000
0000
0010
,
0000
1000
0000
0001
0000
0010
0000
0001
,
0000
0100
0000
0001
0000
0010
0000
0101
,
0000
1000
0000
0001
0000
0100
0000
0001
,
0000
0010
0000
0001
0000
0100
0000
1010
,
0000
0011
0000
1000
0000
0010
0000
1000
,
0000
0100
0000
1000
0000
0010
0000
1100
,
0000
0101
0000
1000
0000
0100
1000
0001
,
0100
0000
0001
1000
0100
0000
0100
0000
,
0101
0000
0001
0000
0110
0000
0001
1000
,
0001
0010
0000
0000
0000
0000
0001
0000
,
0011
0000
0010
0000
0101
0000
0001
1000
,
0100
0010
0000
0000
0000
0100
1000
0000
,
1010
0000
1000
0000
0110
0000
1000
0001
,
1000
0010
0000
0000
0000
0100
1000
0000
,
1100
0000
0010
0000
1100
0000
1000
0001
,
0100
0000
0110
0000
1001
0000
1000
0010
,
0100
0101
0001
0010
,
0100
0000
1000
0000
0100
0000
0010
0001
,
1100
0001
0100
1000
,
0100
0000
0001
0000
1000
0000
0001
0010
,
0100
1100
1000
0010
,
0100
0000
0001
0000
0100
0000
0010
1000
,
0101
1000
0100
0001
,
0100
1000
0001
1001
,
0000
0000
0000
1010
,
0000
0101
0000
1001
,
0000
1100
0000
0011
,
0000
1001
0000
1001
,
0100
0011
0100
1100
,
0100
0101
0100
1001
,
0100
0101
0100
1100
,
0100
1001
0100
1000
,
0101
1000
0100
0001
,
0100
0000
1000
0001
0100
0000
0001
0000
,
1000
0100
0010
0011
,
0001
1000
0100
0001
,
1100
0001
0100
1000
,
0100
0000
0001
1000
0100
0000
1000
0000
,
0001
0000
0100
0000
0010
0000
1000
0010
,
1000
0010
1000
0010
1000
0010
0100
0000
,
0000
0000
0000
0000
,
0000
0000
0000
0000
0000
0010
0100
0000
,
0000
0000
0110
0000
0010
0000
0010
1000
,
0010
1000
0000
0001
0000
0000
0000
0000
;

//---------------dance-single - ----------------
#NOTES:
     dance-single:
     :
     Challenge:
     10:
     0.871,1.000,0.038,0.837,0.583: // measure 1
0000
0000
0000
0000
,  // measure 2
0000
0000
0000
0000
,  // measure 3
0000
0000
0000
0000
,  // measure 4
0000
0000
0000
0000
,  // measure 5
0002
0023
0230
2300
,  // measure 6
0002
0000
0000
3003
,  // measure 7
1010
0100
0001
0100
1010
0100
0001
0010
,  // measure 8
0100
0001
1000
0100
0010
0100
1000
0010
,  // measure 9
0001
0100
0010
0001
1000
0001
0010
1000
,  // measure 10
0001
0100
0010
1000
0100
0001
0100
1000
,  // measure 11
0002
0000
1000
1000
1000
1000
1003
0000
,  // measure 12
0100
0001
0010
1000
0001
1000
0010
0001
,  // measure 13
0100
0001
0010
0001
1000
0001
0010
0100
,  // measure 14
0010
0001
0010
0001
0100
0010
0100
0010
1000
0100
1000
0100
0010
0001
0010
0001
,  // measure 15
1000
0100
1000
0010
0100
0001
0010
0100
,  // measure 16
1000
0100
0001
1000
0020
0000
0030
0000
,  // measure 17
0100
0010
1000
0001
1000
0100
0001
0100
,  // measure 18
0010
1000
0010
0002
2000
0000
3003
0010
,  // measure 19
0002
1000
0003
1000
0001
0000
0100
0000
0002
0010
0003
0010
0100
0000
0010
0000
,  // measure 20
0002
1000
0003
1000
0001
0000
0100
0000
2000
0001
3000
0001
1000
0000
0010
0000
,  // measure 21
0002
0100
0003
0100
0001
0000
0010
0000
0200
0010
0300
0010
0001
0000
0100
0000
,  // measure 22
0002
1000
0003
1000
0010
0000
0100
0000
0001
1000
0010
0100
0001
0010
0100
1000
,  // measure 23
0001
0000
0002
0100
0003
0200
0010
0300
0020
1000
0030
2000
0100
3000
0200
0000
,  // measure 24
0310
0001
1000
0010
1000
0001
0010
0100
,  // measure 25
0001
0000
0002
0010
0003
0020
0100
0030
0200
0001
0300
0002
1000
0003
2000
0000
,  // measure 26
3100
0001
1000
0100
0001
1000
0010
0001
,  // measure 27
0100
0000
0200
0010
0300
0020
1000
0030
2000
0001
3000
0002
0010
0003
0020
0000
,  // measure 28
0130
1000
0001
0010
0001
1000
0010
0100
,  // measure 29
1000
0000
2000
0100
3000
0200
0010
0300
0020
0001
0030
0002
1000
0003
2000
0000
,  // measure 30
3010
0001
0100
0001
0010
0100
0001
0010
1000
0100
0010
1000
0100
0001
0100
1000
,  // measure 31
0010
1000
0001
0100
0001
0010
1000
0010
,  // measure 32
0001
1000
0001
0200
0000
0000
0000
0000
,  // measure 33
1300
0010
1000
0001
0010
0100
0001
0100
,  // measure 34
0001
1000
0010
0200
0000
0310
0010
0100
,  // measure 35
2000
0001
3000
0001
1000
0000
1000
0000
2000
0010
3000
0010
0100
0000
0100
0000
,  // measure 36
2000
0001
3000
0001
1000
0000
0010
0000
0020
1000
0030
1000
0010
0000
0001
0000
,  // measure 37
2000
0100
3000
0100
1000
0000
0100
0000
0200
0010
0300
0010
1000
0000
0010
0000
,  // measure 38
0002
1000
0003
1000
0001
0000
0100
0000
0010
1000
0100
0001
1000
0010
1000
0010
,  // measure 39
0001
0000
0002
0010
0003
0020
0100
0030
0200
1000
0300
2000
0001
3000
0002
0000
,  // measure 40
1003
0000
2000
0100
3000
0200
0010
0300
0020
0001
0030
0002
1000
0003
2000
0000
,  // measure 41
3001
0000
0002
0100
0003
0200
0010
0300
0020
1000
0030
2000
0001
3000
0002
0000
,  // measure 42
1003
0000
2000
0010
3000
0020
0100
0030
0200
0001
0300
0002
1000
0003
2000
0000
,  // measure 43
3001
0000
0002
0010
0003
0020
0100
0030
0200
1000
0300
2000
0001
3000
0002
0000
,  // measure 44
1003
0000
2000
0100
3000
0200
0010
0300
0020
0001
0030
0002
1000
0003
2000
0000
,  // measure 45
3001
0000
0002
0100
0003
0200
0010
0300
0020
1000
0030
2000
0001
3000
0002
0000
,  // measure 46
1003
0000
2000
0010
3000
0020
0100
0030
0200
0001
0300
0002
1000
0003
1000
0000
,  // measure 47
0001
0010
0100
1000
0001
0100
0010
1000
,  // measure 48
0001
0100
0010
1000
0100
1000
0001
0010
,  // measure 49
0001
1000
0100
1000
0010
0100
0001
0010
,  // measure 50
0001
1000
0100
1000
0100
0010
0002
0000
,  // measure 51
0013
0100
1000
0001
1000
0100
0010
0001
,  // measure 52
1000
0010
0001
1000
0100
0001
1000
0100
,  // measure 53
1000
0001
1000
0001
1000
0001
1000
0001
1000
0001
1000
0001
1000
0001
1000
0001
,  // measure 54
1000
0000
0100
0000
1000
0000
0010
0000
0001
0000
1000
0000
0220
0000
0000
0300
,  // measure 55
0130
1000
0100
1000
0001
0100
0001
0010
,  // measure 56
0100
0010
0001
1000
0010
0001
1000
0100
,  // measure 57
0001
1000
0100
1000
0001
0100
0001
1000
,  // measure 58
0010
0100
0001
0010
0001
0100
1000
0001
,  // measure 59
0100
0000
1000
0000
0001
0000
1000
0100
0001
0000
0010
0000
1000
0000
0100
0001
,  // measure 60
0010
0000
0100
0000
1000
0000
0001
0100
0010
0000
1000
0000
0010
0000
0001
0100
,  // measure 61
1000
0000
0010
0000
0001
0000
0100
0010
1000
0000
0100
0000
0001
0000
0100
1000
,  // measure 62
0001
0010
0100
0010
0100
1000
0001
0100
0010
1000
0010
1000
0001
0100
0001
0100
,  // measure 63
0010
1000
0010
0001
1000
0100
0010
0001
,  // measure 64
0100
0010
1000
0010
0001
1000
0010
1000
,  // measure 65
0010
0100
0001
0100
1000
0010
0001
1000
,  // measure 66
0100
0000
0001
0000
1000
0000
0100
0010
0000
1000
0001
0000
0220
0000
0000
0000
,  // measure 67
0000
0000
0000
0000
,  // measure 68
0000
0000
0000
0330
;
