#TITLE:Cosmic Hurricane;
#SUBTITLE:;
#ARTIST:TAG;
#TITLETRANSLIT:;
#SUBTITLETRANSLIT:;
#ARTISTTRANSLIT:;
#GENRE:;
#CREDIT:;
#BANNER:Cosmic Hurricane.png;
#BACKGROUND:Cosmic Hurricane-bg.png;
#LYRICSPATH:;
#CDTITLE:./CDTITLES/DanceDanceRevolution X3 VS 2ndMIX.png;
#MUSIC:Cosmic Hurricane.ogg;
#OFFSET:0.000;
#SAMPLESTART:74.650;
#SAMPLELENGTH:15.000;
#SELECTABLE:YES;
#BPMS:0.000=188.000
;
#STOPS:68.000=0.957
;
#BGCHANGES:;
#KEYSOUNDS:;
#ATTACKS:;

//---------------dance-single - ----------------
#NOTES:
     dance-single:
     :
     Challenge:
     15:
     0.801,0.872,0.330,0.459,0.423,599.000,41.000,57.000,0.000,0.000,0.000,0.801,0.872,0.330,0.459,0.423,599.000,41.000,57.000,0.000,0.000,0.000:
0000
0000
0000
0000
,
0000
0000
0000
0000
,
0000
0000
0000
0000
,
0000
0000
0000
0000
,
0000
0000
0000
0000
,
0000
0000
0000
0000
,
0000
0000
0000
0000
,
0000
0000
0000
0000
,
0000
0000
0000
0000
,
2002
0000
0000
0003
,
0020
0000
0000
0000
0000
0000
3030
0100
,
0202
0000
0000
0003
,
0020
0000
0000
0000
0000
0000
0330
1000
,
1000
0000
0000
1010
0000
0000
0001
0000
0001
0000
0000
0101
0000
0000
0010
0000
,
0010
0000
0000
0011
0000
0000
0100
0000
0100
0000
0000
1100
0000
0000
0001
0000
,
1000
0001
1000
0000
0010
0000
0100
0000
0001
1000
0001
0000
0010
0000
0100
0000
,
1000
0100
1000
0000
0001
0100
0001
0000
1000
0100
1000
0100
1000
0001
2000
0002
,
0000
3003
0000
0000
0000
0000
0000
0000
0000
0000
0000
0000
0000
0000
0000
0000
0021
0000
0000
0000
0000
0000
0000
0000
0000
0000
0000
0000
0000
0000
0000
0000
2030
0000
0000
0000
0000
0000
0000
0000
0000
0000
0000
0000
0000
0000
0000
0000
3001
0000
0000
0000
0000
0000
0000
0000
0010
0000
0000
0000
0000
0000
0000
0000
,
0100
0000
0010
0000
0001
0000
0100
0000
1000
0000
0100
0000
0010
0000
1000
0100
,
1000
0001
0201
0000
2300
0000
3001
0010
,
0100
0000
0001
0000
0100
0000
1000
0000
0100
0000
0010
0000
1000
0000
0100
0010
,
0100
0010
0120
0000
0032
0000
0103
0010
,
0001
0000
0010
0000
0100
0000
0001
0000
1000
0000
0100
0000
0010
0000
0100
1000
,
0100
0010
0021
0000
0230
0000
1300
0010
,
0100
0000
0010
0000
0001
0000
0010
0000
1000
0000
0100
0000
1000
0000
0010
0100
,
0010
1000
1100
0000
0210
0000
0301
0010
,
0100
0000
1000
0000
0001
0000
0100
0000
0010
0000
1000
0000
0100
0000
0010
0100
,
1000
0001
0011
0000
0210
0000
0301
0010
,
0100
0000
1000
0000
0001
0000
0010
0000
0001
0000
1000
0010
0100
0000
0001
0000
,
0101
0000
0000
0000
0010
0000
0000
1010
0000
0000
0100
0000
0000
0011
0000
0000
,
0010
0000
0001
0000
0100
0000
0000
0101
0000
0000
0010
0000
0000
1010
0000
0000
,
1000
0010
0001
1001
0200
0000
1300
1001
,
0200
0000
0000
0000
0310
0000
1000
0001
1000
0000
0100
0000
0010
0001
0000
0010
,
0001
0100
0002
0000
0010
0000
1000
0000
,
0103
0000
0001
0010
1000
0100
1000
0010
,
0001
0010
2000
0000
0100
0000
0001
0000
,
3010
0000
1000
0100
0001
0010
1000
0010
,
0001
0010
0200
0000
1000
0000
0010
0000
,
0301
0000
0100
1000
0010
0100
0001
0010
,
0100
0000
1000
0000
0001
0100
0001
0000
0010
0000
0100
0000
1000
0100
1000
0000
,
0010
0000
0100
0000
0001
0010
0001
0000
1000
0010
1000
0000
0001
0010
0100
1000
,
0010
0100
0001
0010
0200
0000
0000
0000
0000
0000
0000
0000
0000
0000
0000
0000
,
0000
0010
0000
0000
,
0301
0100
2000
0000
0000
0000
0000
0000
,
0000
0010
0000
0000
,
0100
3002
0000
0000
,
0000
0010
0000
0000
,
1003
0001
0200
0000
0000
0000
0000
0000
,
0000
0010
0000
1300
,
0001
0000
1000
0100
1000
0010
0000
0100
,
0010
0100
0001
0100
0001
0010
0000
0100
,
0010
0100
1000
0100
1000
0010
0000
0100
,
0010
0100
0001
0100
0001
0010
0000
0100
,
0010
0100
1000
0100
1000
0010
0100
0010
,
0100
0001
1000
0010
1000
0100
1000
0010
,
0100
0000
0010
0000
0100
0001
1000
0000
0010
0000
0100
0000
0010
1000
0001
0000
,
0100
0000
0010
0000
1000
0100
0010
0000
0010
0100
1000
0000
0001
0100
0001
0100
,
0001
1000
0002
2000
0000
0000
0000
0000
3003
0000
0000
0000
1100
0000
0000
0000
,
0101
0000
1001
0000
0011
0020
0000
0130
,
2000
0000
0100
0000
3100
0000
0010
0000
0100
0000
0010
0002
1000
0000
1003
0000
,
0010
0100
0110
0000
1010
2000
0000
3100
,
0020
0000
0001
0000
0031
0000
0100
0000
0010
0000
0100
0001
1000
0000
0100
0000
,
0010
0001
0011
0000
1100
0200
0000
0310
,
0002
0000
1000
0000
1003
0000
0010
0000
0100
0000
0001
0020
0100
0000
0130
0000
,
1000
0001
1001
0000
0101
0002
0000
0013
,
0200
0000
1000
0000
1300
0000
0100
0000
0010
0000
0100
1000
0010
0000
0100
0000
,
0001
1000
1001
0000
0011
0002
0100
0103
,
0020
1000
1030
0001
0100
1000
0200
0001
,
0301
1000
0010
0000
0100
0000
0001
0000
0101
0000
0200
0000
0010
0000
0310
0000
,
2000
0001
3001
0010
1000
0010
0002
0100
,
0103
0010
1000
0000
0100
0000
0010
0000
0011
0000
0020
0000
0100
0000
0130
0000
,
1000
0000
0001
0100
0001
0000
0200
0000
0010
0000
0310
0000
1000
0000
0001
0000
,
0010
0000
0100
0000
0100
0000
0000
0000
1001
0000
0000
0100
1000
0000
0001
0000
,
0010
0001
0010
0001
0200
0000
0000
0000
0000
0000
0000
0000
0000
0000
0000
0000
,
0300
0000
0000
0000
1001
0000
1000
0010
0000
1000
0100
0000
0100
0010
0000
0001
,
0010
0000
0100
0000
1000
0000
0001
0100
0000
0001
0020
0000
0000
0000
0100
0000
,
0130
0000
1000
0000
0001
0000
0100
0001
0000
0010
0001
0000
0001
1000
0000
0100
,
1000
0000
0010
0000
0100
0000
0001
0010
0000
0001
0200
0000
0000
0000
0010
0000
,
0310
0000
1000
0000
1000
0000
0010
1000
0000
0100
1000
0000
1000
0010
0000
0100
,
0010
0000
1000
0000
0001
0000
0010
0001
0000
0100
0020
0000
0000
0000
0100
0000
,
0130
0000
0001
0000
0010
0000
0100
1000
0000
0001
0100
0000
0100
0001
0000
1000
,
0010
0000
0100
0000
0001
0000
1000
0001
0000
0100
0020
0000
1000
0000
2030
0000
,
0100
0000
3100
0000
0110
0000
0010
0001
0000
0100
0010
0000
1000
0010
0000
0100
,
0010
0000
1000
0000
0100
0000
0100
0010
0000
0001
2000
0000
0010
0000
3010
0000
,
0100
0000
0001
0000
0101
0000
1000
0001
0000
0010
0100
0000
1000
0010
0000
0100
,
0001
0000
0010
0000
0001
0000
0001
1000
0000
0100
0020
0000
0001
0000
0031
0000
,
1000
0000
0001
0000
1001
0000
1000
0100
0000
0010
0100
0000
1000
0010
0000
0100
,
0001
0000
0010
0000
0010
0000
0100
1000
0000
0001
0200
0000
0010
0000
0310
0000
,
1000
0000
0001
0000
1001
0000
0010
0000
0100
1000
0100
0000
0010
0000
0001
0000
,
0100
0001
0100
0000
0010
0000
0010
1000
0000
1000
0100
0000
0010
0000
0001
0000
,
1000
0000
0001
0000
1000
0010
0100
0000
0010
0000
1000
0000
0001
0010
0100
0000
,
0010
0000
0001
0000
1000
0001
0010
0000
0001
1000
0010
0000
1000
0010
0100
0001
,
0010
0100
1000
0001
0200
0000
0000
0000
0000
0000
0000
0000
0000
0000
0000
0000
,
0000
0010
0000
0000
,
0000
0300
0000
0000
;

//---------------dance-single - ----------------
#NOTES:
     dance-single:
     :
     Beginner:
     3:
     0.125,0.148,0.024,0.032,0.000,102.000,3.000,4.000,0.000,0.000,0.000,0.125,0.148,0.024,0.032,0.000,102.000,3.000,4.000,0.000,0.000,0.000:
0000
0000
0000
0000
,
0000
0000
0000
0000
,
0000
0000
0000
0000
,
0000
0000
0000
0000
,
0000
0000
0000
0000
,
0000
0000
0000
0000
,
0000
0000
0000
0000
,
0000
0000
0000
0000
,
0000
0000
0000
0000
,
1000
0000
0000
0000
,
0000
0000
0000
0000
,
0001
0000
0000
0000
,
0000
0000
0000
0000
,
1000
0000
0000
0000
,
0001
0000
0000
0000
,
1000
0000
0001
0000
,
1000
0000
0001
0000
,
0000
0000
0000
0000
,
0000
0001
0000
0001
,
0000
0001
0000
0000
,
0000
1000
0000
1000
,
0000
1000
0000
0000
,
0000
0001
0000
0001
,
0000
0001
0000
0000
,
0000
0100
0000
0100
,
0000
0001
0000
0001
,
0000
0010
0000
0000
,
0000
0100
0000
0100
,
0000
0001
0000
0000
,
0000
1000
0000
1000
,
0000
0010
0000
0000
,
0000
0100
0000
0010
,
0000
0100
0000
0010
,
0000
0001
0000
0000
,
0000
0010
0000
0000
,
0000
0001
0000
0000
,
0000
0100
0000
0000
,
0000
1000
0000
0000
,
0000
0010
0000
0000
,
0000
1000
0000
0000
,
0000
0100
0000
0000
,
0000
1001
0000
0000
,
0000
1000
0000
0000
,
0000
0000
0000
0000
,
0000
0001
0000
0000
,
0000
0000
0000
0000
,
0000
1000
0000
0000
,
0000
0000
0000
0000
,
0000
0001
0000
0000
,
0000
2000
0000
0000
,
0000
0000
0000
3000
,
0000
0020
0000
0000
,
0000
0000
0000
0030
,
0000
0002
0000
0000
,
0000
0000
0000
0003
,
0000
0200
0000
0000
,
0000
0000
0000
0000
,
0300
0000
0000
0000
,
0000
1000
0000
1000
,
0000
0100
0000
0000
,
0000
0010
0000
0010
,
0000
0001
0000
0000
,
0000
0001
0000
0001
,
0000
0100
0000
0000
,
0000
0010
0000
0010
,
0000
0100
0000
0000
,
0000
1000
0000
0100
,
0000
1000
0000
0000
,
0000
0010
0000
0100
,
0000
0010
0000
0000
,
0000
0001
0000
0100
,
0000
0001
0000
0000
,
0000
1001
0000
0000
,
0000
0000
0000
0000
,
0000
1000
0000
1000
,
0000
0001
0000
0001
,
0000
0010
0000
0100
,
0000
0010
0000
0000
,
0000
1000
0000
1000
,
0000
0010
0000
0000
,
0000
0001
0000
0001
,
0000
0010
0000
0000
,
0000
1000
0000
1000
,
0000
0001
0000
0001
,
0000
1000
0000
0001
,
0000
1000
0000
0000
,
0000
0100
0000
0000
,
0000
0010
0000
0000
,
0000
0001
0000
0001
,
0000
1000
0000
1000
,
0000
0001
0000
1000
,
0000
0001
0000
1000
,
0000
1001
0000
0000
;

//---------------dance-single - ----------------
#NOTES:
     dance-single:
     :
     Easy:
     6:
     0.279,0.341,0.048,0.169,0.000,216.000,6.000,21.000,0.000,0.000,0.000,0.279,0.341,0.048,0.169,0.000,216.000,6.000,21.000,0.000,0.000,0.000:
0000
0000
0000
0000
,
0000
0000
0000
0000
,
0000
0000
0000
0000
,
0000
0000
0000
0000
,
0000
0000
0000
0000
,
0000
0000
0000
0000
,
0000
0000
0000
0000
,
0000
0000
0000
0000
,
0000
0000
0000
0000
,
0200
0000
0000
0300
,
0020
0000
0000
0030
,
0200
0000
0000
0300
,
0020
0000
0000
0030
,
1000
0000
1000
0000
,
0001
0000
0001
0000
,
2000
3000
0002
0003
,
1000
0001
1000
0001
,
0000
0001
0001
0100
,
0000
0001
0000
0010
,
0000
1000
1000
0100
,
0000
1000
0000
0010
,
0000
1000
1000
0001
,
0000
1000
0000
0001
,
0000
0100
0100
0010
,
0000
1000
0000
0001
,
0000
1000
0100
1000
,
0000
0001
0001
1000
,
0000
0001
0100
0001
,
0000
1000
1000
0001
,
0000
0100
0010
0100
,
0000
0010
0010
0100
,
0000
1001
0000
0110
,
0000
1000
0001
1000
,
0001
2000
0000
0000
,
3000
1000
0010
0100
,
0000
0002
0000
0000
,
0003
0001
0010
0100
,
0000
0020
0000
0000
,
0030
0010
0100
0010
,
0000
0200
0000
0000
,
0300
0001
0001
1000
,
1000
1001
0000
0000
,
0000
0000
0000
0000
,
0000
0100
0000
0000
,
0000
0000
0000
0000
,
0000
0001
0000
0000
,
0000
0000
0000
0000
,
0000
1000
0000
0000
,
0000
0000
0000
0000
,
0000
0000
0001
0000
,
0001
0000
0100
0000
,
0100
0000
1000
0000
,
1000
0000
0100
0000
,
0100
0001
0001
0001
,
0001
1000
1000
1000
,
1000
0002
0003
2000
,
3000
0001
1000
0001
,
1000
0000
0000
0000
,
0000
1001
0000
1000
,
1000
0001
0100
0010
,
1000
0100
0000
0001
,
0001
1000
0010
0100
,
0001
0010
0000
1000
,
1000
0100
0010
0100
,
0001
1000
0000
0001
,
0001
0100
0010
0100
,
0100
0001
0000
0100
,
0010
1000
0010
0100
,
1000
0010
0000
0001
,
0010
0100
0010
0001
,
1000
0100
0000
0001
,
1000
0100
1000
0001
,
0010
0100
0000
0100
,
0010
0110
0000
0000
,
0000
1000
1000
0010
,
0010
0001
0100
0002
,
0003
0100
0100
0001
,
0001
0010
1000
0020
,
0030
1000
1000
0010
,
0010
0100
0010
0200
,
0300
0001
0001
0100
,
0100
0001
1000
0002
,
0003
1000
0100
1000
,
0100
0010
0001
0002
,
0003
0100
0010
0100
,
0010
1000
0100
0200
,
0300
0010
0001
0010
,
0001
0100
0010
0200
,
0300
0001
0000
0001
,
0000
1000
0000
1000
,
0000
0001
0001
1000
,
1000
0010
0100
0001
,
1000
2002
0000
0000
,
0000
0000
0000
0000
,
0000
3003
0000
0000
;

//---------------dance-single - ----------------
#NOTES:
     dance-single:
     :
     Medium:
     9:
     0.435,0.455,0.266,0.185,0.000,322.000,33.000,23.000,0.000,0.000,0.000,0.435,0.455,0.266,0.185,0.000,322.000,33.000,23.000,0.000,0.000,0.000:
0000
0000
0000
0000
,
0000
0000
0000
0000
,
0000
0000
0000
0000
,
0000
0000
0000
0000
,
0000
0000
0000
0000
,
0000
0000
0000
0000
,
0000
0000
0000
0000
,
0000
0000
0000
0000
,
0000
0000
0000
0000
,
1002
0000
0000
0000
,
0200
0000
0000
0303
,
2010
0000
0000
0000
,
0200
0000
0000
3300
,
0010
0010
0100
0100
,
1000
1000
0001
0001
,
2000
3010
0002
0013
,
1000
0010
1000
0000
0001
0010
0001
0010
,
0100
0000
1000
0000
1000
0000
0001
0010
,
0100
1000
0100
0001
,
0100
0000
1000
0000
1000
0000
0010
0100
,
0001
0100
0001
1000
,
0001
0000
0010
0000
0010
0000
0100
1000
,
0010
0001
0100
1000
,
0100
0000
0001
0000
0001
0000
1000
0010
,
0100
0001
1000
1001
,
1001
0000
2000
0000
3100
0000
0001
0010
,
0100
0000
1000
0000
0010
0000
0100
0010
,
0100
0010
0200
0000
0310
0000
1000
0001
,
0010
0000
0100
0000
1000
0000
0001
1000
,
0001
0210
0001
0010
,
0301
0120
1000
0100
,
1030
0010
1100
0010
,
0101
0000
0010
0100
0010
0000
1000
0000
,
1001
0020
0001
0100
,
0031
0100
0001
0100
,
0010
0200
0010
0001
,
0310
0000
1000
0000
0001
1000
0000
0100
,
0010
0020
0001
0100
,
0031
0100
1000
0001
,
0100
0101
0000
1100
,
0000
0000
1000
0001
0100
0001
1000
0000
,
0010
0110
0000
0000
,
0000
0000
0000
0000
,
0000
0010
0000
0000
,
0000
0000
0000
0000
,
0100
1000
0000
0000
,
0000
0001
0000
0000
,
0000
1000
0000
0000
,
0000
0001
0000
0000
,
0000
0000
0010
0000
0000
1000
0000
0000
,
0010
0000
0100
0000
0000
0001
0000
0000
,
0100
0000
0001
0000
0000
0010
0000
0000
,
0001
0000
1000
0000
0000
0100
0000
0000
,
1000
0001
0001
1000
,
1000
0010
0010
0100
,
0100
0002
0103
2000
,
3100
0000
0001
0000
0101
0000
1000
0001
,
1000
0001
0000
0000
0000
0000
0000
0000
,
0000
0000
1001
0000
0001
0010
0000
0010
,
0001
2000
0100
0010
,
3001
0000
0100
0000
0010
1000
0000
1000
,
0100
0020
0001
0100
,
1030
0000
0010
0000
0010
0100
0000
0100
,
0010
0002
0010
1000
,
0103
0000
0010
0000
0001
0100
0000
0100
,
0010
0000
0100
0000
0010
0000
1000
0001
,
1000
0000
1001
0000
0001
0100
0000
0010
,
0100
0001
0100
0010
,
1000
0000
0001
0000
1000
0100
0000
0010
,
0100
0010
0001
0100
,
0010
0000
1000
0000
0001
0100
0000
0001
,
1000
1000
0100
0001
,
0100
0000
0010
0000
0001
1000
0000
0010
,
0100
1001
0000
0000
,
0000
0001
0011
0100
,
1100
0000
1000
0000
0002
0000
0103
0010
,
0100
1000
1010
0100
,
0101
0000
0001
0000
2000
0000
3100
0010
,
0100
1000
1001
0001
,
0101
0000
0010
0000
2000
0000
3001
0100
,
0010
0100
1001
0010
,
1001
0000
0100
0000
0010
0000
1000
0001
,
1000
0001
0010
0000
0100
0000
0101
0000
,
0101
1000
0100
1100
,
1100
0010
0001
0011
,
0011
0100
0010
0110
,
0110
0001
0100
0010
,
1000
0000
0010
1000
0100
0000
0100
1000
,
0010
1000
1000
0100
,
0100
0001
0001
0010
,
0010
0000
1000
0100
1000
0000
0001
0010
,
0001
0000
0010
0100
0010
0000
0001
1000
,
0001
2002
0000
0000
,
0000
0000
0000
0000
,
0000
3003
0000
0000
;

//---------------dance-single - ----------------
#NOTES:
     dance-single:
     :
     Hard:
     12:
     0.597,0.645,0.137,0.153,0.109,483.000,17.000,19.000,0.000,0.000,0.000,0.597,0.645,0.137,0.153,0.109,483.000,17.000,19.000,0.000,0.000,0.000:
0000
0000
0000
0000
,
0000
0000
0000
0000
,
0000
0000
0000
0000
,
0000
0000
0000
0000
,
0000
0000
0000
0000
,
0000
0000
0000
0000
,
0000
0000
0000
0000
,
0000
0000
0000
0000
,
0000
0000
0000
0000
,
1001
0010
0000
0010
,
1000
0010
0000
0010
,
1001
0010
0000
0010
,
0001
0010
0000
0010
,
0100
0000
0000
0100
0000
0000
0100
0000
0001
0000
0000
0001
0000
0000
0001
0000
,
1000
0000
0000
1000
0000
0000
1000
0000
0100
0000
0000
0100
0000
0000
0100
0000
,
0010
0000
0000
0001
0000
0000
0100
0000
0010
0000
0000
1000
0000
0000
0100
0000
,
0010
0001
1000
0010
0100
0001
1000
0001
,
1001
0000
0010
0000
0010
0000
1000
0100
,
1000
0010
0000
0010
0100
0001
1000
0100
,
0010
0001
1000
0000
1000
0000
0100
0010
,
0100
0001
0000
0100
1000
0001
0000
0100
,
0010
0000
0100
0000
0100
0000
0010
1000
,
0010
0100
0000
0001
0010
0100
1000
0001
,
0100
0010
0100
0000
0100
0000
0001
0100
,
0001
0010
0000
0010
0100
1000
0010
0100
,
0001
1000
0001
0000
0011
0000
1000
0100
,
0010
0001
0100
0001
1000
0010
0100
0001
,
0100
0100
0010
0000
1010
0000
1000
0001
,
0100
0010
1000
0001
0100
1000
0100
0001
,
0010
0000
0110
0000
1000
0000
0010
0001
,
0100
0001
1001
0000
0100
0000
0010
1000
,
0100
1000
1010
0000
0100
0000
0011
0000
,
0100
0000
1000
0100
1000
0010
0100
0001
,
0010
0200
0010
0001
,
0010
0000
0301
0000
0010
0001
0000
0010
,
0001
1000
0020
0000
0100
0000
1000
0000
,
0100
0000
1030
0000
0100
1000
0000
0100
,
1000
0002
0100
0010
,
0100
0000
0013
0000
0100
0010
0000
0100
,
0010
1000
0001
0010
0100
0000
1000
0010
,
0100
0000
0001
0010
0100
1000
0001
0100
,
0010
2000
0000
0000
,
0000
0000
0000
0000
,
3010
0100
0000
0000
0000
0000
0000
0000
,
0000
0000
0000
0000
,
1000
0010
0000
0000
,
0000
0001
0000
0000
,
0010
0100
0000
0000
0000
0000
0000
0000
,
0000
1000
0000
0000
,
0000
0000
1001
0000
0010
1000
0000
0010
,
0100
0000
0001
0000
0010
0100
0000
1000
,
0001
0100
0010
0000
0100
0001
0000
1000
,
0100
0000
0001
0000
0100
1000
0000
0001
,
0100
0010
1000
0100
1000
0100
0010
0100
,
0010
0100
0010
0001
0010
0001
0100
0001
,
0100
0001
0110
1000
0001
0000
0110
0001
,
1000
0000
0100
0010
0100
0010
1000
0100
,
0010
0001
0000
0000
0000
0000
0002
0000
,
2003
0000
3010
0000
1000
0100
1000
0100
,
0010
0100
0001
0010
0100
2000
0100
0000
,
0001
0000
3010
0000
0100
0001
0100
0001
,
1000
0001
1000
0100
0010
0002
1000
0000
,
0100
0000
0013
0000
0100
0010
0100
0010
,
0100
0001
1000
0100
1000
0002
0010
0000
,
0100
0000
1003
0000
0001
0010
0001
0010
,
0100
1000
0100
0010
0100
0010
0001
0100
,
0010
1000
0100
0000
1100
0000
0010
0001
,
0010
1000
0001
0100
0010
0100
0001
2000
,
0010
0000
3001
0000
0101
0000
1000
0001
,
0010
0001
0100
1000
0010
1000
0001
0020
,
0001
0000
0130
0000
0110
0000
1000
0100
,
0010
0000
0001
1000
0100
1000
0010
0200
,
0010
0000
0301
0100
0010
1000
0100
0010
,
0001
1000
1001
0000
0000
0000
0000
0000
,
0000
0000
0000
0000
0010
0000
0000
1000
0100
0000
0010
0000
0000
0001
0010
0000
,
0100
0000
1000
0000
0001
0000
0000
0010
0100
0000
0020
0000
0000
0000
0001
0000
,
0130
0000
0010
0000
1000
0000
0000
0001
0100
0000
0010
0000
0000
0100
0001
0000
,
1000
0000
0100
0000
0010
0000
0000
0001
0100
0000
0020
0000
0000
0000
0100
0000
,
0031
0000
1000
0000
0100
0000
0000
0010
0100
0000
0001
0000
0000
0100
1000
0000
,
0001
0000
0100
0000
0010
0000
0000
1000
0010
0000
0200
0000
0000
0000
1300
0000
,
0100
0000
0001
0000
1000
0000
0000
0100
0010
0000
0001
0000
0000
0010
0100
0000
,
1000
0000
0001
0000
0100
0000
0000
1000
0100
0000
0001
0000
0010
0000
0001
0000
,
0010
0000
0001
0000
0100
0000
0000
0010
1000
0000
0100
0000
0000
0010
0001
0000
,
0100
0000
0010
0000
0100
0000
0000
0001
1000
0000
0200
0000
0000
0000
0010
0000
,
0301
0000
0100
0000
0010
0000
0000
1000
0100
0000
0010
0000
0000
0100
1000
0000
,
0010
0000
0100
0000
0001
0000
0000
0010
0100
0000
2000
0000
0000
0000
0001
0000
,
3100
0000
0010
0000
0100
0000
0000
0001
1000
0000
0100
0000
0000
0010
0100
0000
,
1000
0000
0001
0000
0100
0000
0000
0010
0100
0000
0010
0000
1000
0000
0100
0000
,
0010
0000
0001
0100
0010
1000
0001
0100
,
0010
1000
0100
0010
0001
1000
0100
0010
,
0001
0100
0010
1000
0010
0100
0001
1000
,
0010
0100
1000
0100
0010
1000
0100
0010
,
0001
2002
0000
0000
,
0000
0000
0000
0000
,
0000
3003
0000
0000
;

//---------------dance-double - ----------------
#NOTES:
     dance-double:
     :
     Easy:
     6:
     0.276,0.303,0.048,0.169,0.000,213.000,6.000,21.000,0.000,0.000,0.000,0.276,0.303,0.048,0.169,0.000,213.000,6.000,21.000,0.000,0.000,0.000:
00000000
00000000
00000000
00000000
,
00000000
00000000
00000000
00000000
,
00000000
00000000
00000000
00000000
,
00000000
00000000
00000000
00000000
,
00000000
00000000
00000000
00000000
,
00000000
00000000
00000000
00000000
,
00000000
00000000
00000000
00000000
,
00000000
00000000
00000000
00000000
,
00000000
00000000
00000000
00000000
,
00002000
00000000
00000000
00003000
,
00200000
00000000
00000000
00300000
,
00020000
00000000
00000000
00030000
,
00000020
00000000
00000000
00000030
,
00000100
00000000
00000100
00000000
,
00001000
00000000
00001000
00000000
,
00020000
00030000
00002000
00003000
,
00010000
00010000
00001000
00001000
,
00000000
00010000
00001000
00010000
,
00000000
00001000
00000000
01000000
,
00000000
00100000
01000000
00100000
,
00000000
10000000
00000000
01000000
,
00000000
00100000
00010000
00100000
,
00000000
00001000
00000000
00010000
,
00000000
00000100
00001000
00000100
,
00000000
00000010
00000000
00000001
,
00000000
00000100
00000100
00001000
,
00001000
00010000
00000000
00100000
,
00000000
10000000
10000000
00010000
,
00010000
10000000
00000000
01000000
,
00000000
00010000
00010000
00001000
,
00001000
00000100
00000000
00000010
,
00000000
00001001
00000000
00000110
,
00000000
00001000
00000001
00001000
,
00000001
00000020
00000000
00000000
,
00000030
00000001
00000100
00001000
,
00000000
00002000
00000000
00000000
,
00003000
00010000
00001000
00010000
,
00000000
00200000
00000000
00000000
,
00300000
00010000
10000000
00010000
,
00000000
02000000
00000000
00000000
,
03000000
00100000
10000000
01000000
,
00100000
10010000
00000000
00000000
,
00000000
00000000
00000000
00000000
,
00000000
01000000
00000000
00000000
,
00000000
00000000
00000000
00000000
,
00000000
00010000
00000000
00000000
,
00000000
00000000
00000000
00000000
,
00000000
00000100
00000000
00000000
,
00000000
00000000
00000000
00000000
,
00000000
00000001
00000000
00000001
,
00000000
00000100
00000000
00000010
,
00000000
00001000
00000000
00001000
,
00000000
00000100
00000000
00001000
,
00000000
00010000
00000000
00010000
,
00000000
00001000
00000000
00100000
,
00000000
00020000
00030000
20000000
,
30000000
00100000
00100000
01000000
,
01000000
00000000
00000000
00000000
,
00000000
10010000
00000000
00100000
,
01000000
00010000
01000000
00100000
,
01000000
00001000
00000000
00010000
,
00000100
00001000
00000100
00010000
,
00000100
00000010
00000000
00000100
,
00000001
00001000
00000001
00000100
,
00000001
00000010
00000000
00000100
,
00001000
00010000
00001000
00000100
,
00001000
00010000
00000000
00010000
,
00001000
00100000
00010000
01000000
,
10000000
01000000
00000000
00100000
,
01000000
10000000
01000000
00100000
,
10000000
00010000
00000000
00010000
,
01000000
10000000
01000000
00010000
,
00001000
00010000
00010000
00001000
,
00001000
00011000
00000000
00000000
,
00000000
00000100
00000100
00001000
,
00001000
00000010
00000010
00000200
,
00000300
00000001
00000001
00000100
,
00000100
00001000
00001000
00020000
,
00030000
00001000
00001000
00100000
,
00100000
00010000
00010000
00200000
,
00300000
01000000
01000000
00100000
,
00100000
01000000
01000000
20000000
,
30000000
00010000
10000000
00010000
,
10000000
00100000
01000000
00200000
,
00300000
01000000
00010000
01000000
,
00010000
00100000
00010000
00200000
,
00300000
00001000
00010000
00001000
,
00010000
00000010
00001000
00000020
,
00000030
00001000
00000000
00001000
,
00000000
00000001
00000000
00000001
,
00000000
00000100
00000100
00001000
,
00001000
00010000
00001000
00010000
,
00001000
00022000
00000000
00000000
,
00000000
00000000
00000000
00000000
,
00000000
00033000
00000000
00000000
;

//---------------dance-double - ----------------
#NOTES:
     dance-double:
     :
     Medium:
     9:
     0.425,0.455,0.250,0.177,0.000,317.000,31.000,22.000,0.000,0.000,0.000,0.425,0.455,0.250,0.177,0.000,317.000,31.000,22.000,0.000,0.000,0.000:
00000000
00000000
00000000
00000000
,
00000000
00000000
00000000
00000000
,
00000000
00000000
00000000
00000000
,
00000000
00000000
00000000
00000000
,
00000000
00000000
00000000
00000000
,
00000000
00000000
00000000
00000000
,
00000000
00000000
00000000
00000000
,
00000000
00000000
00000000
00000000
,
00000000
00000000
00000000
00000000
,
00001200
00000000
00000000
00000000
,
00000020
00000000
00000000
00000330
,
00021000
00000000
00000000
00000000
,
00200000
00000000
00000000
00330000
,
12000000
00000000
00000000
00000000
,
00020000
00000000
00000000
03030000
,
00001000
00001000
00010000
00010000
,
00001000
00000000
00000100
00000000
00000010
00000100
00000010
00000100
,
00000000
00000001
00000001
00000100
,
00001000
00000000
00010000
00000000
00001100
00000000
00010000
00001000
,
00010000
00100000
00100000
00010000
,
10000000
00000000
01000000
00000000
00110000
00000000
10000000
01000000
,
01000000
00010000
00010000
00001000
,
00000100
00000000
00000010
00000000
00001001
00000000
00000010
00000001
,
00000010
00000100
00000100
00001000
,
00010000
00000000
00001000
00000000
01100000
00000000
00010000
10000000
,
00010000
00000000
00100000
00000000
00100000
00000000
10000000
01000000
,
10000000
00100000
00010000
00001000
,
00011000
00000000
00000010
00000000
00000010
00000000
00000001
00000100
,
00000001
00000100
00001000
00010000
,
00011000
00002000
00000010
00010000
,
01000000
00023000
00100000
00001000
,
00030100
00010000
00011000
01000000
,
01100000
00000000
10000000
00010000
10000000
00000000
00010000
00000000
,
10010000
00020000
01000000
01000000
,
10030000
00100000
00010000
00001000
,
00010000
00002000
00100000
00100000
,
00003010
00000001
00000100
00000010
,
00001000
00002000
00000100
00000100
,
00003001
00000010
00001000
00010000
,
01000000
10000000
11000000
00010000
,
01010000
00000000
10000000
01000000
10000000
00000000
01000000
00010000
,
00001000
00000010
00000000
00000000
,
00000000
00000000
00000000
00000000
,
00000000
00000100
00000000
00000000
,
00000000
00000000
00000000
00000000
,
00010000
00001000
00000000
00000000
,
00000000
00100000
00000000
00000000
,
00000000
10000000
00000000
00000000
,
00000000
00010000
00000000
00000000
,
00000000
00001000
00000100
00000010
,
00000100
00001000
00000001
00000100
,
00001000
00010000
00001000
00100000
,
00010000
01000000
00010000
00100000
,
10000000
00100000
00100000
01000000
,
01000000
00010000
00010000
00001000
,
00001000
00000200
00000301
00000200
,
00001300
00000000
00010000
00000000
00011000
00000000
00001000
00010000
,
00001000
00010000
00000000
00000000
00000000
00000000
00000000
00000000
,
00000000
00110000
01000000
10000000
,
00010000
00000000
00200000
00000000
01300000
00000000
00100000
00010000
,
00100000
00110000
00001000
00000100
,
00000001
00000000
00002000
00000000
00003100
00000000
00000010
00000001
,
00000100
00000101
00000010
00000100
,
00001000
00000000
00020000
00000000
00031000
00000000
00100000
00010000
,
10000000
01010000
00100000
10000000
,
01000000
00000000
00100000
00000000
00010000
00000000
10000000
00010000
,
10000000
00010000
10000000
00000000
01000000
00100000
00000000
01000000
,
00100000
00001000
00010000
00001000
,
00000100
00000000
00000001
00000000
00001000
00000100
00000000
00001000
,
00000100
00000010
00000001
00000100
,
00001000
00000000
00010000
00000000
00000010
00010000
00000000
00000010
,
00010000
00001000
00010000
01000000
,
10000000
00000000
00100000
00000000
01000000
00010000
00000000
01000000
,
00010000
10010000
00000000
00000000
,
00000000
20100000
31000000
00010000
,
01000000
00000000
10000000
00000000
00010000
00000000
00100000
00010000
,
00100000
00210000
00301000
00010000
,
00000100
00000000
00001000
00000000
00000010
00000000
00000100
00000010
,
00000100
00000210
00000301
00000100
,
00001000
00000000
00000100
00000000
00000010
00000000
00001000
00000100
,
00001000
00001200
00010300
00001000
,
00010000
00000000
01000000
00000000
10000000
00000000
00010000
10000000
,
00010000
10000000
00010000
00000000
01100000
00000000
00010000
00000000
,
00001000
00000000
00000100
00000000
00000110
00000000
00000100
00000001
,
00000100
00000010
00000110
00001000
,
00010000
00000000
00100000
00000000
01100000
00000000
00100000
10000000
,
00100000
10000000
11000000
00010000
,
00001000
00000000
00000100
00000000
00000101
00000000
00000001
00001000
,
00000001
00000100
00000001
00000010
,
00001000
00010000
00100000
10000000
,
01000000
00000000
00100000
01000000
00100000
00000000
00001000
00010000
,
00001000
00000000
00000100
00000010
00000100
00000000
00000001
00001000
,
00000001
00002002
00000000
00000000
,
00000000
00000000
00000000
00000000
,
00000000
00003003
00000000
00000000
;

//---------------dance-double - ----------------
#NOTES:
     dance-double:
     :
     Hard:
     12:
     0.578,0.607,0.072,0.209,0.101,468.000,9.000,26.000,0.000,0.000,0.000,0.578,0.607,0.072,0.209,0.101,468.000,9.000,26.000,0.000,0.000,0.000:
00000000
00000000
00000000
00000000
,
00000000
00000000
00000000
00000000
,
00000000
00000000
00000000
00000000
,
00000000
00000000
00000000
00000000
,
00000000
00000000
00000000
00000000
,
00000000
00000000
00000000
00000000
,
00000000
00000000
00000000
00000000
,
00000000
00000000
00000000
00000000
,
00000000
00000000
00000000
00000000
,
00001000
00100000
00000000
00100000
00000000
00100000
00000000
00100000
,
00000000
00100000
00000000
00100000
00000000
00100000
00000000
00100000
,
00001000
00000010
00000000
00000010
00000000
00000010
00000000
00000010
,
00000000
00000010
00000000
00000010
00000000
00000010
00000000
00000010
,
00001000
00000000
00000000
00001000
00000000
00000000
00001000
00000000
00010000
00000000
00000000
00010000
00000000
00000000
00010000
00000000
,
00100000
00000000
00000000
00100000
00000000
00000000
00100000
00000000
00010000
00000000
00000000
00010000
00000000
00000000
00010000
00000000
,
00001000
00010000
00000100
00000000
00010000
00001000
01000000
00000000
,
00100000
01000000
00010000
00100000
00001000
00010000
00000100
00001000
,
00000010
00000000
00000100
00000000
00000100
00000000
00000010
00000100
,
00000010
00002000
00000000
00003001
00000010
00000100
00000001
00000100
,
00010000
00001000
00010000
00000000
00010000
00000000
00001000
00010000
,
00001000
02000000
00000000
03100000
10000000
01000000
00100000
00010000
,
01000000
00000000
10000000
00000000
10000000
00000000
00100000
01000000
,
00010000
20000000
00000000
30010000
01000000
00100000
00010000
00001000
,
00100000
00010000
01000000
00000000
01000000
00000000
00010000
00100000
,
00010000
00002000
00000000
00013000
00100000
00001000
00000010
00000001
,
00000100
00000010
00001000
00000000
00001001
00000000
00000001
00000100
,
00001000
00010000
00000000
00001000
00000100
00001000
00010000
00100000
,
01000000
01000000
00100000
00000000
10100000
00000000
10000000
01000000
,
00010000
01000000
00000000
10000000
00010000
01000000
00001000
00010000
,
00001000
00000000
00011000
00000000
00000100
00000000
00000001
00000100
,
00001000
00000000
00011000
00000000
01000000
00000000
10000000
01000000
,
00010000
00002000
00000100
00023000
,
01000000
00000000
00031000
00010000
00000100
00001000
00000010
00000100
,
00000001
00002000
00000010
00000001
,
00000100
00000000
00003001
00000000
00000010
00001000
00000000
00010000
,
00001000
00020000
00000100
00001000
,
00000010
00000000
00031000
00000000
00100000
00010000
00000000
00010000
,
01000000
00020000
00100000
10000000
,
01000000
00000000
10030000
00000000
00100000
00010000
00000000
00001000
,
00010000
00000000
00001000
00100000
00001000
00000000
00010000
00000100
,
00010000
00000000
00001000
00010000
00001000
00000100
00000010
00000001
,
00000010
00002000
00000000
00000000
,
00000000
00000000
00000000
00000000
,
00003010
00000100
00000000
00000000
00000000
00000000
00000000
00000000
,
00000000
00000000
00000000
00000000
,
00001000
00010000
00000000
00000000
,
00000000
00100000
00000000
00000000
,
10000000
01000000
00000000
00000000
00000000
00000000
00000000
00000000
,
00000000
00010000
00000000
00000000
,
00000000
00000000
00001000
00000010
00000000
00000010
00000000
00000010
,
00000000
00000010
00000000
00000010
00000000
00000010
00000000
00000010
,
00000000
00000010
00001000
00100000
00000000
00100000
00000000
00100000
,
00000000
00100000
00000000
00100000
00000000
00100000
00000000
00100000
,
00000000
00100000
00001000
00010000
00000100
00000000
00000010
00000001
,
00000100
00000000
00000010
00001000
00010000
00000000
00001000
00010000
,
01000000
00000000
00100000
10000000
00100000
10000000
01000000
00100000
,
01000000
00100000
00010000
00100000
00001000
00010000
00000100
00001000
,
00000010
00000100
00000000
00000000
00000000
00000000
00000002
00000000
,
00002003
00000000
00003010
00000000
00000100
00000010
00000001
00000010
,
00000100
00000100
00000001
00000100
00001000
00010000
00002000
00000000
,
00100000
00000000
01003000
00000000
00010000
00100000
01000000
10000000
,
01000000
01000000
00100000
00010000
10000000
00100000
00020000
00000000
,
00001000
00000000
00030100
00000000
00010000
00001000
00000100
00000010
,
00000100
00000100
00000001
00000010
00000100
00001000
00000020
00000000
,
00000100
00000000
00001030
00000000
00000001
00000100
00000010
00010000
,
00001000
00001000
00000100
00000010
00000100
00001000
00020000
00000000
,
00001000
00000000
00130000
00000000
01100000
00000000
01000000
00010000
,
00100000
01000000
10000000
00010000
01000000
00100000
10000000
20000000
,
00100000
00000000
31000000
00000000
00110000
00000000
00100000
00001000
,
00010000
00001000
00000100
00000001
00000010
00000100
00001000
00002000
,
00000010
00000000
00003100
00000000
00000011
00000000
00000001
00000100
,
00001000
00000000
00010000
00000100
00000010
00000100
00001000
00000200
,
00000010
00000000
00010300
00001000
00100000
00010000
10000000
00100000
,
01000000
00010000
01010000
00000000
00000000
00000000
00000000
00000000
,
00000000
00000000
00000000
00000000
00010000
00000000
00000000
00100000
00000000
00000000
01000000
00000000
00000000
00100000
00010000
00000000
,
10000000
00000000
01000000
00000000
00100000
00000000
00000000
00001000
00010000
00000000
00002000
00000000
00000000
00000000
00013000
00000000
,
00001000
00000000
00000100
00000000
00000010
00000000
00000000
00001000
00000000
00000000
00000100
00000000
00000000
00000010
00000001
00000000
,
00001000
00000000
00000001
00000000
00000100
00000000
00000000
00000001
00000010
00000000
00000200
00000000
00000000
00000000
00010300
00000000
,
00001000
00000000
00100000
00000000
00010000
00000000
00000000
00100000
00000000
00000000
01000000
00000000
00000000
00100000
00001000
00000000
,
00010000
00000000
00100000
00000000
10000000
00000000
00000000
00010000
01000000
00000000
00200000
00000000
00000000
00000000
10300000
00000000
,
00010000
00000000
01000000
00000000
00100000
00000000
00000000
10000000
00000000
00000000
01000000
00000000
00000000
00100000
00010000
00000000
,
00001000
00000000
00000100
00000000
00010000
00000000
00000000
00001000
00000000
00000000
00000010
00000000
00000001
00000000
00001000
00000000
,
00000001
00000000
00001000
00000000
00000010
00000000
00000000
00000100
00000000
00000000
00000001
00000000
00000000
00000010
00000100
00000000
,
00001000
00000000
00000010
00000000
00001000
00000000
00000000
00010000
01000000
00000000
00200000
00000000
00000000
00000000
10300000
00000000
,
00010000
00000000
00100000
00000000
00010000
00000000
00000000
10000000
00000000
00000000
01000000
00000000
00000000
00010000
00001000
00000000
,
00000100
00000000
00000001
00000000
00000010
00000000
00000000
00000001
00001000
00000000
00000020
00000000
00000000
00000000
00000130
00000000
,
00000010
00000000
00001000
00000000
00000100
00000000
00000000
00010000
00000000
00000000
00001000
00000000
00000000
00100000
01000000
00000000
,
00100000
00000000
00001000
00000000
00010000
00000000
00000000
00100000
00010000
00000000
00001000
00000000
00000100
00000000
00000001
00000000
,
00000001
00000000
00000100
00000001
00000100
00000001
00001000
00000010
,
00001000
00000100
00010000
00001000
00010000
00001000
00100000
00010000
,
01000000
00010000
00100000
01000000
10000000
01000000
00010000
01000000
,
10000000
01000000
00100000
00001000
00010000
00000100
00001000
00000010
,
00000100
00002002
00000000
00000000
,
00000000
00000000
00000000
00000000
,
00000000
00003003
00000000
00000000
;

//---------------dance-single - ----------------
#NOTES:
     dance-single:
     :
     Edit:
     16:
     0.797,0.834,0.169,0.161,0.463,652.000,21.000,20.000,0.000,0.000,0.000,0.797,0.834,0.169,0.161,0.463,652.000,21.000,20.000,0.000,0.000,0.000:
0000
0000
0000
0000
,
0000
0000
0000
0000
,
0000
0000
0000
0000
,
0000
0000
0000
0000
,
0000
0000
0000
0000
,
0000
0000
0000
0000
,
0000
0000
0000
0000
,
0000
0000
0000
0000
,
0000
0000
0000
0000
,
0001
0100
0010
1000
0000
0100
0010
0001
,
1000
0001
0010
0001
0000
0100
0010
0100
,
0001
0100
0010
1000
0000
0001
0010
1000
,
0001
0100
0010
0001
0000
1000
0010
0001
,
0100
0000
0000
0100
1000
0000
0100
0000
0001
0000
0000
0001
0100
0000
0001
0000
,
1000
0000
0000
1000
0001
0000
1000
0000
0100
0000
0000
0100
1000
0000
0100
0000
,
0010
0001
0010
0000
0100
0000
0001
0000
0010
1000
0010
0000
0100
0000
1000
0000
,
0001
0100
0001
0000
1000
0010
1000
0000
0100
0001
0100
0010
1000
0010
0001
1000
,
0002
0003
0000
0000
0000
0000
0000
0000
0000
0000
0000
0000
0000
0000
0000
0000
0011
0000
0000
0000
0000
0000
0000
0000
0000
0000
0000
0000
0000
0000
0000
0000
1010
0000
0000
0000
0000
0000
0000
0000
0000
0000
0000
0000
0000
0000
0000
0000
1000
0000
0000
0000
0000
0000
0000
0000
0100
0000
0000
0000
0000
0000
0000
0000
,
1000
0010
0001
0100
1000
0001
0100
0010
,
0001
0100
1100
0000
0101
0000
0010
0001
,
1000
0100
0010
0001
0010
0001
1000
0100
,
1000
0000
0101
0000
1100
0000
0001
0100
,
1000
0010
0001
1000
0001
0100
0010
0100
,
0010
1000
0110
0000
1001
0000
0001
0100
,
1000
0100
0001
0010
0100
1000
0010
0100
,
1000
0000
0001
0100
2000
0000
0000
0000
3020
0000
0000
0000
0130
0000
0010
0000
,
0100
1000
0010
0100
0001
1000
0100
0001
,
0010
0000
0001
1000
0200
0000
0000
0000
0320
0000
0000
0000
0130
0000
0001
0000
,
1000
0100
0001
1000
0010
0001
0100
0001
,
1000
0000
0100
0010
0001
0000
0000
0011
0000
0000
1000
0000
0000
1010
0000
0000
,
0100
0000
0010
0000
1000
0000
0000
1100
0000
0000
0001
0000
0000
0101
0000
0000
,
0010
0000
0100
0000
0010
0000
0001
0000
0100
1000
0100
1000
0010
0000
1000
0000
,
0100
0001
0100
0001
1000
0000
0100
0010
1000
0000
0010
0100
0001
1000
0000
1000
,
0100
0010
1000
0000
0110
0000
0001
1000
,
0100
0000
0001
1000
0010
0001
0100
0010
,
0100
1000
0100
0000
0110
0000
0001
1000
,
0100
0000
0010
0100
1000
0100
0001
0010
,
1000
0010
0100
0000
0110
0000
1000
0100
,
0001
0000
0010
1000
0100
0010
0001
0100
,
0010
0000
1000
0000
0001
0100
0001
1000
0100
0000
0001
0000
1000
0010
1000
0001
,
0010
0000
1000
0000
0010
0001
0010
0000
0100
1000
0100
0000
0001
1000
0010
0100
,
0010
0001
0010
0100
2000
0000
0000
0000
0000
0000
0000
0000
0000
0000
0000
0000
,
0000
0020
0000
3000
,
0100
0100
0200
0000
0000
0000
0000
0000
,
0030
0002
0000
0303
,
0100
0000
0002
2000
0000
0000
0000
0000
0000
0000
0000
0000
,
3003
0220
0000
0300
,
0001
0001
0002
0000
0000
0000
0000
0000
,
0033
2002
0000
0000
,
3003
0000
0101
0000
0001
0010
0000
0001
,
0100
0000
0110
0000
1000
0010
0000
0001
,
0010
0100
1010
0000
0100
1000
0000
0001
,
0100
0000
1001
0000
0100
0001
0000
1000
,
0010
0100
1000
0010
1000
0100
0010
0001
,
0010
0100
0001
0100
1000
0001
0010
1000
,
0010
0000
0001
0000
1000
0100
1000
0100
1000
0000
0100
0000
0001
0100
0001
0100
,
0001
0000
0100
0000
0010
1000
0010
0000
0100
0001
0100
0000
0010
1000
0100
0001
,
0100
1000
0010
0100
0000
0000
0000
0000
0000
0000
0000
0000
0002
0000
0000
0000
,
2003
0000
3010
0001
0010
1000
0001
0010
,
0100
0001
1000
0100
0001
0100
0010
0001
,
1000
0010
0001
0010
1000
0100
0010
0100
,
1000
0001
1000
0010
0001
0010
0100
0001
,
0010
1000
0010
0100
0001
1000
0100
1000
,
0001
0010
0001
1000
0010
1000
0001
0010
,
0001
1000
0001
1000
0010
0100
0010
0001
,
1000
0100
0001
0100
1000
0001
0010
1000
,
0001
1000
0010
0100
0001
1000
0100
1000
,
0010
0001
0010
1000
0001
0010
0100
1000
,
0001
0100
0010
1000
0100
0010
1000
0100
,
0010
0001
0100
0010
0001
0100
0010
1000
,
0100
0001
0010
0100
0001
0010
0100
1000
,
0001
0100
1000
0100
0010
0100
0010
0001
,
0010
1000
0001
0010
0100
1000
0001
0010
,
0100
1000
0001
0010
1000
0010
0001
0100
,
1000
0000
0100
0000
1000
0000
0001
0010
0000
0100
0010
0000
1000
0010
0000
0100
,
0001
0000
1000
0000
0001
0010
0000
0001
0010
0000
0001
1000
0100
0000
0010
0000
,
0100
0000
0010
0000
0001
0000
1000
0100
0000
0010
0001
0000
0100
1000
0000
0100
,
0001
0000
0100
0000
0010
1000
0000
0100
0010
0000
0001
0100
0010
0000
1000
0000
,
0100
0000
0001
0000
0100
0000
0010
0001
0000
0100
0001
0000
0100
1000
0000
0010
,
1000
0000
0001
0000
0100
0010
0000
0001
0010
0000
1000
0100
0010
0000
0001
0000
,
0100
0000
1000
0000
0001
0000
0010
0100
0000
0010
1000
0000
0100
0010
0000
0100
,
0001
0000
1000
0000
0100
0001
0000
1000
0100
0000
1000
0100
0010
0000
0100
0000
,
0010
0100
0001
0000
1000
0100
0000
0010
0001
0000
1000
0010
0000
0100
0001
0000
,
0010
1000
0010
0000
0001
0100
0000
0010
1000
0000
0100
0010
0000
0001
0010
0000
,
1000
0001
1000
0000
0010
0100
0000
0001
0100
0000
0010
1000
0000
0010
0100
0000
,
1000
0100
1000
0000
0001
0100
0000
0010
0100
0000
1000
0010
0000
1000
0100
0000
,
0001
0010
0001
0000
0100
0010
0000
0100
1000
0000
0100
0010
0000
0100
0001
0000
,
0010
0100
0010
0000
0001
0100
0000
0010
0100
0000
0010
1000
0000
0100
1000
0000
,
0010
0100
0010
0000
0001
0000
0010
0000
1000
0000
0100
0000
0010
0000
0100
0000
,
0001
0010
0100
0010
0001
1000
0100
0010
,
0001
1000
0001
0100
1000
0100
0001
0010
,
1000
0000
0010
0000
1000
0100
0001
0100
0010
0001
1000
0010
0100
0001
0010
1000
,
0010
0001
1000
0100
0020
0000
0000
0000
0000
0000
0000
0000
0000
0000
0000
0000
,
0000
0200
0000
0000
,
0000
0330
0000
0000
;

//---------------dance-double - ----------------
#NOTES:
     dance-double:
     :
     Edit:
     16:
     0.781,0.910,0.137,0.354,0.402,618.000,17.000,44.000,0.000,0.000,0.000,0.781,0.910,0.137,0.354,0.402,618.000,17.000,44.000,0.000,0.000,0.000:
00000000
00000000
00000000
00000000
,
00000000
00000000
00000000
00000000
,
00000000
00000000
00000000
00000000
,
00000000
00000000
00000000
00000000
,
00000000
00000000
00000000
00000000
,
00000000
00000000
00000000
00000000
,
00000000
00000000
00000000
00000000
,
00000000
00000000
00000000
00000000
,
00000000
00000000
00000000
00000000
,
00000012
00000000
00000103
00000010
00010000
00000000
01001000
00000000
,
10000000
00000000
00010000
00100000
00001000
00000000
00000100
00000000
,
00001001
00000000
00000001
00001000
00010000
00000000
00101000
00000000
,
01000000
00000000
10000000
00100000
00001000
00000000
01100000
00000000
,
20000000
00000000
00000000
32000000
00000000
00000000
03200000
00000000
00302000
00000000
00000000
00023000
00000000
00000000
00030020
00000000
,
00002030
00000000
00000000
00003200
00000000
00000000
00000320
00000000
00000032
00000000
00000000
00000203
00000000
00000000
00002300
00000000
,
00013000
00000100
00010000
00000000
00000100
00000000
00010000
00000000
00001000
00100000
00001000
00000000
00100000
00000000
00001000
00000000
,
10000000
01000000
10000000
00000000
00100000
01000000
00010000
00000000
10000000
00010000
01000000
00001000
00010000
00000010
00001000
00000001
,
00000200
00000300
00000000
00000000
00000000
00000000
00000000
00000000
00010010
00000000
00000000
00000000
00000000
00000000
00000000
00000000
00101000
00000000
00000000
00000000
00000000
00000000
00000000
00000000
00000010
00000000
00000000
00000000
00010000
00000000
00000000
00000000
,
00001000
01000000
00100000
00010000
00100000
00010000
10000000
01000000
,
10000000
01000000
01100000
00000000
00101000
00000000
00001000
00010000
,
00000000
00020010
00001000
00001000
00001000
00031000
00000001
00000100
,
00000010
00000000
00010100
00000000
01001000
00000000
10000000
01000000
,
00100000
01000000
00001000
00010000
00000010
00001000
00010000
01000000
,
00010000
10000000
01010000
00000000
11000000
00000000
00010000
01000000
,
00001000
00010000
00001000
00000010
00001000
00000100
00000001
00001000
,
00000010
00000000
00000100
00000001
00000200
00000000
00000000
00000000
00002300
00000000
00000000
00000000
00013000
00000000
00100000
00000000
,
00001000
00010000
00100000
01000000
10000000
00100000
00001000
00010000
,
00000010
00000001
00002000
00000000
00023000
00000000
01030000
00010000
,
10000000
01000000
00010000
10000000
00100000
00010000
01000000
00010000
,
10000000
00000000
01000000
00000000
00200000
00000000
00000000
10000000
00000000
00000000
02300000
00000000
00000000
00010000
00000000
00000000
,
03100000
00000000
00001000
00000000
00000200
00000000
00000000
00000010
00000000
00000000
00000302
00000000
00000000
00001000
00000000
00000000
,
00000013
00000000
00001000
00000000
00010000
00000000
00010000
00000000
00010000
00000010
00010000
00000010
00001000
00000000
00001000
00000000
,
00001000
00100000
00001000
00100000
10000000
00000000
00100000
00000000
01000000
00000000
00010000
00000000
00100000
00001000
00000000
00001000
,
00010000
00000100
00020000
00000000
01000000
00000000
00000100
00000000
,
01030000
00000000
00010000
00100000
00010000
01000000
00100000
10000000
,
01000000
00100000
00002000
00000000
00000010
00000000
00100000
00000000
,
00003010
00000000
00000001
00000100
00001000
00010000
01000000
10000000
,
01000000
00010000
00001000
00000000
01000000
00000000
00010000
00000000
,
00000010
00000000
00001000
00100000
00010000
00100000
00001000
01000000
,
00100000
00000000
10000000
00000000
00010000
01000000
00010000
01000000
00010000
00000000
00000000
00000000
10000000
00100000
10000000
00100000
,
10000000
00000000
00000000
00000000
00010000
00001000
00010000
00000000
00001000
00010000
00001000
00000000
00000010
00010000
00000100
00001000
,
00000010
00000100
00000001
00002000
00000002
00000000
00000000
00000000
00000000
00000000
00000000
00000000
00000000
00000000
00000000
00000000
,
00000003
00200000
00000000
00003000
,
10000000
10000000
20000000
00000000
00000000
00000000
00000000
00000000
,
00300000
02000000
00000000
33000000
,
00020000
00002000
00000000
00000000
,
00030000
00000200
00000000
00003000
,
00000010
00000010
00000020
00000000
00000000
00000000
00000000
00000000
,
00000330
00022000
00000000
00000000
,
00033000
00020000
00001000
00000100
,
00030010
00001000
00020000
00000000
00001000
00000000
00000100
00000000
,
00030010
00010000
00002000
00000000
00010000
00000000
00100000
00000000
,
01003000
00010000
00002000
00000000
00010000
00000000
00100000
00000000
,
01003000
00001000
00010000
10000000
00100000
01000000
00010000
00000010
,
00001000
00000100
00000010
00000001
00000100
00001000
00000001
00000010
,
00001000
00000000
00000100
00000000
00010000
01000000
00001000
01000000
00100000
00000000
00000000
00000000
00001000
00000010
00010000
00000010
,
00000100
00000000
00000000
00000000
00001000
00010000
00001000
00000000
00010000
00001000
00010000
00000000
00100000
10000000
00010000
00100000
,
00001000
00010000
00000010
00001000
00000000
00000000
00000000
00000000
00000000
00000000
00000000
00000000
00020010
00000000
00030000
00000000
,
01002000
00003000
10000000
01000000
00010000
00100000
00010000
01000000
,
00001000
00010000
00000100
00001000
01000000
00001000
00000010
00000001
,
00000010
00001000
00000100
00010000
00001000
01000000
10000000
00100000
,
00010000
10000000
01000000
10000000
00100000
00010000
00001000
00000100
,
00001000
00010000
00100000
00001000
00010000
00000010
00001000
00000100
,
00000010
00000001
00000010
00001000
00010000
01000000
10000000
00100000
,
00010000
00001000
00000100
00000001
00000010
00000001
00001000
00000010
,
00000100
00000001
00001000
00000100
00010000
00001000
00100000
00010000
,
01000000
00100000
10000000
01000000
00100000
00010000
00001000
01000000
,
00100000
10000000
00010000
01000000
00001000
00010000
00000010
00000100
,
00000001
00000100
00001000
00010000
00100000
01000000
00010000
10000000
,
00100000
00010000
00001000
00000010
00000001
00000100
00010000
00000100
,
00000001
00000010
00001000
00000100
00010000
00000010
00000100
00010000
,
00001000
00100000
01000000
00100000
00001000
01000000
00100000
10000000
,
00010000
01000000
00001000
00100000
00010000
00000010
00010000
00001000
,
00000010
00000001
00000100
00001000
00000010
00000100
00000001
00001000
,
00000100
00000000
00000001
00000000
00000010
00001000
00000000
00000010
00000100
00000000
00000001
00000010
00000000
00000001
00000100
00000000
,
00001000
00000000
00010000
00000000
00001000
00100000
00000000
00001000
00010000
00000000
00100000
00001000
00100000
00000000
00010000
00000000
,
10000000
00000000
01000000
00000000
00010000
00001000
00000000
00010000
00100000
00000000
01000000
00100000
00000000
01000000
10000000
00000000
,
00100000
00000000
01000000
00000000
00100000
10000000
00000000
00100000
01000000
00000000
00001000
00010000
00001000
00000000
00010000
00000000
,
00000010
00000000
00001000
00000000
00010000
00100000
00000000
00010000
10000000
00000000
00100000
01000000
00000000
00100000
00010000
00000000
,
00000100
00000000
00010000
00000000
00001000
00010000
00000000
00001000
00000100
00000000
00000001
00001000
00000001
00000000
00000010
00000000
,
00000100
00000000
00000001
00000000
00000010
00001000
00000000
00000010
00000001
00000000
00001000
00000100
00000000
00001000
00000010
00000000
,
00000001
00000000
00001000
00000000
00000100
00010000
00000000
00001000
00010000
00000000
01000000
00100000
00010000
00000000
00001000
00000000
,
00100000
00010000
10000000
00000000
10000000
01000000
00000000
00100000
00010000
00000000
10000000
00100000
00000000
01000000
00010000
00000000
,
00100000
00000000
00001000
00000000
00010000
00000100
00000000
00001000
00000010
00000000
00000100
00000000
00000001
00000000
00000010
00000000
,
00001000
00000000
00000100
00000000
00001000
00010000
00000000
00001000
00100000
00000000
00010000
01000000
00000000
00100000
01000000
00000000
,
10000000
00000000
00100000
00000000
10000000
01000000
00000000
00100000
01000000
00000000
00010000
00000000
00001000
00000000
00010000
00000000
,
00000100
00000000
00010000
00000000
00001000
00000010
00000000
00000100
00000010
00000000
00000100
00000001
00000000
00000100
00000010
00000000
,
00001000
00000000
00000100
00000000
00001000
00000100
00000000
00001000
00000001
00000000
00000010
00000000
00000100
00000000
00010000
00000000
,
00001000
00100000
01000000
00100000
00010000
01000000
10000000
00010000
,
00100000
00010000
01000000
00010000
00001000
00010000
00000010
00010000
,
00001000
00000000
00000100
00000000
00000001
00001000
00000010
00000000
00000100
00000000
00001000
00000000
00010000
00001000
00100000
00000000
,
01000000
00000000
10000000
00000000
00010000
01000000
00100000
01000000
00010000
10000000
01000000
00100000
00001000
00010000
00000010
00001000
,
00000100
00000010
00000001
00000100
00002000
00000000
00000000
00000000
00000000
00000000
00000000
00000000
00000000
00000000
00000000
00000000
,
00000000
00020000
00000000
00000000
,
00000000
00033000
00000000
00000000
;

//---------------dance-double - ----------------
#NOTES:
     dance-double:
     :
     Challenge:
     15:
     0.780,0.834,0.298,0.378,0.406,594.000,37.000,47.000,0.000,0.000,0.000,0.780,0.834,0.298,0.378,0.406,594.000,37.000,47.000,0.000,0.000,0.000: // measure 0
00000000
00000000
00000000
00000000
,  // measure 1
00000000
00000000
00000000
00000000
,  // measure 2
00000000
00000000
00000000
00000000
,  // measure 3
00000000
00000000
00000000
00000000
,  // measure 4
00000000
00000000
00000000
00000000
,  // measure 5
00000000
00000000
00000000
00000000
,  // measure 6
00000000
00000000
00000000
00000000
,  // measure 7
00000000
00000000
00000000
00000000
,  // measure 8
00000000
00000000
00000000
00000000
,  // measure 9
22000000
00000000
00000000
03000000
,  // measure 10
00200000
00000000
00000000
00000000
00000000
00000000
30300000
00010000
,  // measure 11
02020000
00000000
00000000
00030000
,  // measure 12
00002000
00000000
00000000
00000000
00000000
00000000
03003000
00010000
,  // measure 13
00020100
00000000
00000000
00000100
00000000
00000000
00000100
00000000
00000010
00000000
00000000
00000010
00030000
00000000
00000010
00000000
,  // measure 14
00001020
00000000
00000000
00001000
00000000
00000000
00001000
00000000
00000100
00000000
00000000
00000100
00000030
00000000
00000100
00000000
,  // measure 15
00000001
00000010
00000001
00000000
00000100
00000000
00000001
00000000
00001000
00000010
00001000
00000000
00000100
00000000
00001000
00000000
,  // measure 16
00000100
00010000
00000100
00000000
00010000
00001000
00010000
00000000
00001000
00100000
00001000
00100000
00010000
01000000
00010000
02000000
,  // measure 17
00000000
03000000
00000000
00000000
00000000
00000000
00000000
00000000
00000000
00000000
00000000
00000000
00000000
00000000
00000000
00000000
20100000
00000000
00000000
00000000
00000000
00000000
00000000
00000000
00000000
00000000
00000000
00000000
00000000
00000000
00000000
00000000
32000000
00000000
00000000
00000000
00000000
00000000
00000000
00000000
00000000
00000000
00000000
00000000
00000000
00000000
00000000
00000000
03100000
00000000
00000000
00000000
00000000
00000000
00000000
00000000
00010000
00000000
00000000
00000000
00000000
00000000
00000000
00000000
,  // measure 18
01000000
00100000
00010000
00001000
00100000
00010000
01000000
00100000
,  // measure 19
10000000
01000000
12000000
00000000
03020000
00000000
00031000
00100000
,  // measure 20
00001000
00000000
00010000
00000000
00000100
00000000
00000010
00000000
00000100
00000000
00001000
00000000
00000001
00000000
00000100
00000010
,  // measure 21
00000100
00000000
00000021
00000000
00002030
00000000
00013000
00000100
,  // measure 22
00001000
00000001
00000100
00001000
00010000
00000010
00000100
00001000
,  // measure 23
00010000
00001000
00021000
00000000
02030000
00000000
13000000
00100000
,  // measure 24
00010000
00000000
10000000
00000000
01000000
00000000
00100000
00000000
10000000
00000000
01000000
00000000
00100000
00000000
00010000
01000000
,  // measure 25
00010000
10000000
10010000
00000000
02100000
00000000
13000000
00010000
,  // measure 26
01000000
10000000
00010000
00001000
00000100
00000010
00000100
00000001
,  // measure 27
00000100
00000010
00000110
00000000
00002100
00000000
00003001
00000010
,  // measure 28
00000100
00010000
00001000
00000100
00001000
00010000
00001000
00100000
,  // measure 29
00101000
00000000
00000000
00000000
00100000
00000000
00000000
00010000
00100000
00000000
01000000
00000000
10000000
00100000
00000000
10000000
,  // measure 30
00100000
00000000
01000000
00000000
00010000
00000000
00000000
00100000
01000000
00000000
00100000
00000000
00001000
00010000
00000000
00001000
,  // measure 31
00010000
00001000
00000100
00000010
00000210
00000000
00000301
00001000
,  // measure 32
00001002
00000000
00000000
00000000
00000103
00000000
00000010
00000100
00000010
00000000
00000100
00000000
00001000
00010000
00000000
00001000
,  // measure 33
00010000
01000000
20000000
00000000
01000000
00000000
00010000
00000000
,  // measure 34
30100000
00000000
10000000
01000000
00010000
00100000
01000000
00100000
,  // measure 35
10000000
00100000
00020000
00000000
01000000
00000000
10000000
00000000
,  // measure 36
00130000
00000000
00001000
00010000
00001000
00100000
01000000
00010000
,  // measure 37
00001000
00000100
00000002
00000000
00000100
00000000
00001000
00000000
,  // measure 38
00000013
00000000
00000001
00000100
00001000
00000010
00000100
00000001
,  // measure 39
00000010
00000100
00000010
00000001
00001001
00000000
00000010
00010000
,  // measure 40
00010100
00000000
00000000
00000000
00010000
00000100
00010000
00000000
00001000
00010000
00001000
00000000
00100000
00010000
01000000
00100000
,  // measure 41
10000000
01000000
00100000
00010000
20000000
00000000
00000000
00000000
00000000
00000000
00000000
00000000
00000000
00000000
00000000
00000000
,  // measure 42
00000000
00100000
00000000
00000000
,  // measure 43
31000000
00010000
00002000
00000000
00000000
00000000
00000000
00000000
,  // measure 44
00000000
00100000
00000000
00000000
,  // measure 45
00010000
00003200
00000000
00000000
,  // measure 46
00000000
00000010
00000000
00000000
,  // measure 47
00000301
00001000
00000002
00000000
00000000
00000000
00000000
00000000
,  // measure 48
00000000
00000010
00000000
00001003
,  // measure 49
00000001
00000000
00000010
00000001
00000010
00000100
00000000
00001000
,  // measure 50
00000100
00000010
00000100
00001000
00000001
00001000
00000000
00000100
,  // measure 51
00001000
00000100
00010000
00000100
00010000
00001000
00000000
00100000
,  // measure 52
00010000
00100000
00010000
01000000
00010000
00100000
00000000
01000000
,  // measure 53
00100000
01000000
10000000
01000000
10000000
00100000
01000000
00100000
,  // measure 54
01000000
00010000
00100000
00010000
00100000
00001000
00010000
00001000
,  // measure 55
00010000
00000000
00000100
00000000
00001000
00000001
00000100
00000000
00000101
00000000
00000010
00000000
00001000
00000100
00001000
00000000
,  // measure 56
00001100
00000000
00010000
00000000
00000100
00010000
00000100
00000000
00010000
00001000
00010000
00000000
00001000
00100000
00010000
01000000
,  // measure 57
00100000
10000000
01000000
00100000
00000000
00000000
00000000
00000000
00000000
00000000
00000000
00000000
01010000
00000000
00000000
00000000
,  // measure 58
10100000
00000000
10010000
00000000
11000000
20000000
00000000
31000000
,  // measure 59
00100000
00000000
01000000
00100000
01000000
00000000
10000000
00000000
00010000
00000000
00100000
00000000
00001000
00000000
00000100
00000000
,  // measure 60
00000010
00001000
00001100
00000000
00000011
00000002
00000000
00000103
,  // measure 61
00001000
00000000
00000100
00000001
00000100
00000000
00000010
00000000
00000100
00000000
00000001
00000000
00001000
00000000
00000100
00000000
,  // measure 62
00000010
00000100
00010100
00000000
00101000
00002000
00000000
00013000
,  // measure 63
01000000
00000000
00100000
01000000
00100000
00000000
00010000
00000000
01000000
00000000
10000000
00000000
00010000
00000000
00100000
00000000
,  // measure 64
01000000
00100000
10100000
00000000
11000000
02000000
00000000
03010000
,  // measure 65
00001000
00000000
00100000
00010000
00100000
00000000
01000000
00000000
10000000
00000000
00010000
10000000
00100000
00000000
01000000
00000000
,  // measure 66
00001000
00010000
00001000
00010000
00001000
00000000
00000000
00000000
00011000
00000000
00020000
00000000
00000100
00000000
00030100
00000000
,  // measure 67
00000010
00000000
00001000
00010000
00001000
00000000
00010000
00000000
00000100
00000000
00000010
00000000
00000002
00000000
00000100
00000000
,  // measure 68
00000103
00000010
00001010
00000000
00010100
00000200
00001000
00001300
,  // measure 69
00000010
00000000
00000100
00000001
00000100
00000000
00001000
00000000
00010000
00000000
00100000
00000000
20000000
00000000
00010000
00000000
,  // measure 70
30010000
00000000
01000000
00100000
10000000
02000000
00000000
03100000
,  // measure 71
00101000
00000000
00001000
00010000
00000100
00000000
00000100
00000000
00000010
00000000
00000001
00000000
00000100
00000000
00000010
00000000
,  // measure 72
00000110
00000000
00000100
00000001
00000010
00001000
00010000
00100000
,  // measure 73
10000000
00100000
10000000
00100000
02000000
00000000
00000000
00000000
00000000
00000000
00000000
00000000
00000000
00000000
00000000
00000000
,  // measure 74
03000000
00000000
00000000
00000000
10010000
00000000
10000000
01000000
00000000
10000000
00010000
00000000
00100000
00010000
00000000
00100000
,  // measure 75
01000000
00000000
00010000
00000000
00001000
00000000
00000100
00000010
00000000
00000100
00000002
00000000
00000000
00000000
00000010
00000000
,  // measure 76
00000013
00000000
00000001
00000000
00001000
00000000
00000001
00000010
00000000
00000001
00000100
00000000
00000010
00001000
00000000
00000010
,  // measure 77
00000100
00000000
00001000
00000000
00010000
00000000
00001000
00100000
00000000
00010000
02000000
00000000
00000000
00000000
00100000
00000000
,  // measure 78
03100000
00000000
10000000
00000000
10000000
00000000
00010000
10000000
00000000
01000000
10000000
00000000
00100000
01000000
00000000
00010000
,  // measure 79
01000000
00000000
00100000
00000000
10000000
00000000
01000000
00100000
00000000
00001000
00020000
00000000
00000000
00000000
00001000
00000000
,  // measure 80
00031000
00000000
00010000
00000000
00000100
00000000
00010000
00000100
00000000
00001000
00000100
00000000
00000010
00000001
00000000
00001000
,  // measure 81
00000001
00000000
00000100
00000000
00000010
00000000
00010000
00000100
00000000
00001000
00000200
00000000
00010000
00000000
00020300
00000000
,  // measure 82
00001000
00000000
00031000
00000000
00011000
00000000
00100000
00010000
00000000
01000000
00100000
00000000
10000000
01000000
00000000
00100000
,  // measure 83
01000000
00000000
00010000
00000000
00001000
00000000
00010000
00000100
00000000
00001000
00000020
00000000
00000100
00000000
00000130
00000000
,  // measure 84
00000001
00000000
00000010
00000000
00000100
00000000
00000010
00000001
00000000
00001000
00000010
00000000
00000100
00000001
00000000
00000100
,  // measure 85
00001000
00000000
00010000
00000000
00001000
00000000
00100000
01000000
00000000
10000000
00200000
00000000
01000000
00000000
01300000
00000000
,  // measure 86
00010000
00000000
10000000
00000000
10010000
00000000
10000000
00100000
00000000
01000000
00010000
00000000
00100000
00001000
00000000
00010000
,  // measure 87
00000100
00000000
00001000
00000000
00000001
00000000
00000100
00000010
00000000
00001000
00000200
00000000
00010000
00000000
00010300
00000000
,  // measure 88
00001000
00100000
00010000
00100000
01000000
10000000
00100000
00010000
,  // measure 89
00001000
00000000
00000100
00000000
00000001
00000000
00000010
00001000
00000000
00001000
00010000
00000000
00001000
00000000
00000100
00000000
,  // measure 90
00000010
00000000
00000100
00000000
00000001
00001000
00000001
00000000
00000010
00000000
00000100
00000000
00010000
00001000
00010000
00000000
,  // measure 91
00001000
00000000
01000000
00000000
00010000
00100000
00010000
00000000
10000000
00100000
10000000
00000000
00010000
00100000
01000000
10000000
,  // measure 92
00100000
01000000
00010000
00100000
00002000
00000000
00000000
00000000
00000000
00000000
00000000
00000000
00000000
00000000
00000000
00000000
,  // measure 93
00000000
00000010
00000000
00000000
,  // measure 94
00000000
00003000
00000000
00000000
;
