#TITLE:Chinese Snowy Dance;
#SUBTITLE:;
#ARTIST:Mutsuhiko Izumi;
#TITLETRANSLIT:;
#SUBTITLETRANSLIT:;
#ARTISTTRANSLIT:;
#GENRE:;
#CREDIT:;
#BANNER:Chinese Snowy Dance.png;
#BACKGROUND:Chinese Snowy Dance-bg.png;
#LYRICSPATH:;
#CDTITLE:./CDTitles/GuitarFreaks & DrumMania XG2.png;
#MUSIC:Chinese Snowy Dance.ogg;
#OFFSET:0.000;
#SAMPLESTART:4.100;
#SAMPLELENGTH:15.000;
#SELECTABLE:YES;
#DISPLAYBPM:175.000;
#BPMS:0.000=175.610
,4=174.993;
#STOPS:
;
#BGCHANGES:;
#KEYSOUNDS:;
#ATTACKS:;

//---------------dance-single - ----------------
#NOTES:
     dance-single:
     :
     Beginner:
     4:
     0.210,0.312,0.038,0.106,0.000:
0000
0000
0000
0000
,
0000
0000
0000
0000
,
0000
0000
0000
0000
,
0010
0010
0010
0000
,
0100
0100
0100
0000
,
0010
0010
0010
0000
,
0100
0100
0100
0000
,
0001
0000
0000
0000
,
1000
0000
1000
0000
,
1000
0000
0000
0000
,
0001
0000
0001
0000
,
0100
0000
0000
0000
,
0010
0000
0010
0000
,
0100
0000
0000
0000
,
0010
0010
0010
0000
,
2000
0000
0000
0000
,
3000
0000
0000
0000
,
0002
0000
0000
0000
,
0003
0000
0000
0000
,
0020
0000
0000
0000
,
0030
0000
0000
0000
,
0200
0000
0000
0300
,
0020
0000
0000
0030
,
0010
0000
0000
0000
,
1000
1000
1000
0000
,
0001
0001
0001
0000
,
1000
0000
1000
0000
,
0001
0001
0001
0000
,
0010
0010
0010
0000
,
0010
0010
0010
0000
,
0100
0000
0100
0000
,
0010
0010
0010
0000
,
1000
0000
0001
0000
,
0001
0000
1000
0000
,
0100
0100
0100
0100
,
0010
0010
0010
0010
,
0000
0000
0000
0000
,
0000
0000
0000
0000
,
1000
0001
1000
0000
,
0001
1000
0001
0000
,
1000
0001
1000
0000
,
0001
0000
1000
0000
,
0100
0100
0010
0000
,
0100
0100
0010
0000
,
0100
0100
0010
0000
,
0100
0100
0100
0000
,
1001
0000
0000
0000
,
0000
0000
0000
0000
,
1001
0000
0000
0000
,
0010
0010
0010
0000
,
1000
0000
1000
0000
,
0010
0010
0010
0000
,
0001
0000
0001
0000
,
0010
0010
0010
0000
,
2000
0000
0000
0000
,
3000
0000
0000
0000
,
0002
0000
0000
0000
,
0003
0000
0000
0000
,
0200
0000
0000
0000
,
0300
0000
0000
0000
,
0020
0000
0000
0030
,
0200
0000
0000
0300
,
0020
0000
0030
0000
,
1000
1000
0001
0001
,
1000
1000
0001
0001
,
1000
1000
0001
0001
,
1000
1000
1000
0000
,
0001
0000
1000
0000
,
1000
0000
0001
0000
,
0100
0100
0100
0100
,
0010
0010
0010
0010
,
0000
0000
0000
0000
,
0110
0110
0000
0000
;

//---------------dance-single - ----------------
#NOTES:
     dance-single:
     :
     Easy:
     7:
     0.370,0.451,0.163,0.259,0.000:
0000
0000
0000
0000
,
0000
0000
0000
0000
,
0000
0000
0000
0000
,
0010
0100
0010
0000
0010
0000
1000
0000
,
0100
0010
0100
0000
0100
0000
1000
0000
,
0010
0100
0010
0000
0010
0000
1000
0000
,
0001
1000
0010
0100
,
0001
0000
0100
1000
,
0010
0010
0010
0100
,
0010
0000
0001
0010
,
0100
0100
0100
0000
,
1000
0000
0100
0001
,
0010
0010
0010
0100
,
0010
0000
1000
0001
,
0100
0100
0100
0000
,
0002
0000
0000
0100
,
2003
0000
0000
0000
,
3020
0000
0000
0100
,
2030
0000
3100
0010
,
0002
0000
0000
0100
,
2003
0000
0000
0000
,
3002
0000
0000
0100
,
2000
0000
0000
3003
,
0220
0000
0330
0000
,
1000
0000
0001
0000
1000
0001
1000
0000
,
0010
0100
0010
0100
,
0001
0000
1000
0000
0001
1000
0001
0000
,
0010
0100
0010
0100
,
1000
0100
0100
0110
,
0001
0100
0100
0110
,
0010
0100
0010
0100
,
1000
0001
1000
0000
,
1001
0010
0100
0100
,
1001
0100
0010
0010
,
0001
0000
0100
0000
0001
1000
0001
0000
,
1000
0000
0001
0000
1000
0010
1000
0000
,
0000
0000
0000
0000
,
0000
0000
0000
0000
,
0200
0001
1000
1000
,
1000
0010
0010
0301
,
0020
1000
0001
0001
,
0001
0100
0100
1030
,
0010
0001
0100
0010
,
0001
0100
0010
0001
,
0100
1000
0010
0100
,
0010
0100
0010
0000
1000
0000
0001
0000
,
0110
1000
0000
1000
,
0000
1000
0000
1000
,
0110
1000
0000
1000
,
0001
1000
1001
0000
,
1000
1000
1002
1003
,
1000
1000
1020
1030
,
0001
0001
0201
0301
,
0001
0001
1001
0000
,
0200
0000
0000
0302
,
2003
0000
0000
3000
,
0002
0000
0000
2003
,
3020
0000
0000
0030
,
2000
0000
0000
0100
,
3002
0000
0000
0000
,
2003
0000
0000
0100
,
0002
0000
0000
3003
,
0220
0000
0330
0000
,
0010
0100
0010
0000
0100
0000
0001
0000
,
0100
0010
0100
0000
0010
0000
1000
0000
,
0010
0100
0010
0000
0100
0000
0001
0000
,
1000
0001
1000
0000
0010
0000
0110
0000
,
1001
0010
0100
0100
,
1001
0100
0010
0010
,
1000
0001
1000
0000
0001
1000
0001
0000
,
0100
0010
0100
0000
0010
0100
0010
0000
,
0000
0000
0000
0000
,
0110
0000
1000
0001
0000
0000
0000
0000
;

//---------------dance-single - ----------------
#NOTES:
     dance-single:
     :
     Medium:
     12:
     0.546,0.625,0.067,0.249,0.154:
0000
0000
0000
0000
,
0000
0000
0000
0000
,
0000
0000
0000
0000
,
0100
0010
0100
0000
0010
0000
0000
0000
0100
0000
0000
0000
0001
0000
0000
0000
,
0010
0100
0010
0000
0100
0000
0000
0000
0010
0000
0000
0000
0001
0000
0000
0000
,
0100
0010
0100
0000
0010
0000
0000
0000
0100
0000
0000
0000
0001
0000
0000
0000
,
0100
0010
0100
0000
0001
0010
0100
0000
,
1000
0001
1000
0000
0000
0000
1000
0000
0001
0000
0000
0000
1000
0000
0000
0000
,
0100
0000
0100
1000
0010
0000
0100
0000
,
0001
1000
0001
0000
0000
0000
1000
0000
0001
0000
0000
0000
1000
0000
0000
0000
,
0010
0000
0010
0100
0010
0000
0000
0000
,
0001
1000
0001
0000
0000
0000
1000
0000
0001
0000
0000
0000
0001
0000
1000
0000
,
0100
0000
1000
0100
0010
0000
0001
0000
,
1000
0001
1000
0000
0000
0000
0001
0000
1000
0000
0000
0000
1000
0000
0001
0000
,
0100
0000
0001
0100
1000
0000
0000
0000
,
0002
0000
0000
0000
0000
0000
1003
0100
,
0020
0001
0100
1000
,
0032
0000
0000
0000
0000
0103
0010
0000
,
0020
0000
0000
0000
1030
0100
0010
0001
,
2000
0000
0000
0000
0000
0000
3001
0100
,
0020
1000
0100
0001
,
2030
0000
0000
0000
0000
0000
3010
0100
,
0002
0000
0000
0003
,
1000
0001
1000
0000
0010
0000
0010
0000
0100
0000
0000
0000
0000
0000
0000
0000
,
0001
0100
0001
1000
0001
1000
0010
1000
,
0001
0100
1000
0010
,
0001
0100
0001
0010
0200
0000
1300
0001
,
0010
1000
0100
0001
,
0010
0001
0100
0001
0010
0001
0100
0010
,
0001
0100
1000
0010
,
0001
0010
0100
0010
2000
0000
3001
0100
,
0010
0100
2002
3003
,
0010
0100
0000
0100
0010
0000
0100
0000
0001
0000
1000
0000
0001
0000
0000
0000
,
0001
1000
0000
1000
0001
1000
0000
1000
0001
0000
0100
0000
0010
0000
0000
0000
,
0100
0010
1000
0000
1000
0100
0010
0000
,
0010
0001
1000
0000
1000
0100
0010
0001
,
0000
0000
0000
0000
,
0010
0100
0010
0100
0010
0100
0010
0100
,
0002
1003
2010
3100
,
0001
0010
0100
1000
,
0020
0130
1002
0103
,
0020
1000
0001
1030
,
0100
0000
0001
0100
0001
1000
0001
1000
,
0010
1000
0010
1000
0001
1000
0001
1000
,
0100
0000
0100
0010
0001
0010
0001
0010
,
0001
1000
0001
0000
0100
0000
0000
0000
0010
0100
0010
0000
1000
0000
0000
0000
,
0001
1000
0002
0000
1000
0000
0000
0000
0000
0000
0000
0000
1000
0000
0000
0000
,
0000
1000
0000
1003
,
0100
0000
0100
0000
0000
0000
0100
0000
0000
0000
0010
0100
0010
0000
0000
0000
,
1000
1100
0101
0000
,
0001
1000
0001
0000
0000
0000
1000
0000
0001
0000
0000
0000
0001
0000
0100
0000
,
1000
0000
1000
0100
0001
0000
1000
0000
,
1000
0001
1000
0000
0000
0000
0001
0000
1000
0000
0000
0000
1000
0000
0100
0000
,
0001
0000
0001
0100
1000
0000
0000
0000
,
0002
0000
0000
0000
0000
0000
1003
0100
,
0020
0001
0100
1000
,
0032
0000
0000
0000
0000
0103
0010
0000
,
0020
0000
0000
0000
1030
0100
0010
0001
,
2000
0000
0000
0000
0000
0000
3001
0100
,
0020
1000
0100
0001
,
2030
0000
0000
0000
0000
0000
3010
0100
,
0002
0000
0000
0000
0000
0000
0000
0000
0000
0000
0000
0000
0000
0003
0000
0000
,
1000
0001
1000
0000
0100
0000
0100
0000
0010
0000
0000
0000
0000
0000
0000
0000
,
1000
0100
1000
0000
0001
0000
0000
0000
0010
0000
0001
0000
1000
0000
0000
0000
,
0010
1000
0010
0000
0100
0000
0000
0000
0001
0000
1000
0000
0010
0000
0000
0000
,
1000
0100
1000
0000
0010
0000
0000
0000
0100
0000
0001
0000
1000
0000
0000
0000
,
0001
0010
0001
0000
0100
0000
0000
0000
0001
1000
0001
0000
0100
0000
0000
0000
,
0100
0010
0000
0010
0100
0000
0010
0000
1000
0000
0001
0000
1000
0000
0000
0000
,
1000
0001
0000
0001
1000
0001
0000
0001
1000
0000
0010
0000
0100
0000
0000
0000
,
0010
0100
0001
0010
0100
1000
0010
0100
,
0010
1000
0100
0010
0001
0100
0010
1000
,
0000
0000
0000
0000
,
1100
0000
0100
0101
0000
0000
0000
0000
;

//---------------dance-single - ----------------
#NOTES:
     dance-single:
     :
     Hard:
     16:
     0.870,1.000,0.058,0.336,0.696,594.000,6.000,35.000,0.000,0.000,0.000,0.870,1.000,0.058,0.336,0.696,594.000,6.000,35.000,0.000,0.000,0.000:
0000
0000
0000
0000
,
0000
0000
0000
0000
,
0000
0000
0000
0000
,
1000
0100
1000
0000
0001
0000
0100
0010
1000
0000
0010
0000
0100
0001
0100
0000
,
0001
0010
0001
0000
1000
0000
0010
0100
0001
0000
0100
0000
0010
1000
0010
0000
,
1000
0001
1000
0000
0010
0000
0100
0001
1000
0000
0100
0000
0010
0100
0010
0000
,
0001
0100
0001
0000
0100
0000
0010
0000
1000
0010
1000
0000
0010
0000
0000
0000
,
1000
0001
1000
0000
0000
0000
0001
1000
0100
0000
1000
0000
0010
0000
1000
0000
,
0100
0000
0000
0000
0100
0000
0010
0000
0001
0000
0000
0000
0001
0100
0001
0100
,
0010
0000
0010
0000
0000
0000
1000
0001
0100
0000
0010
0000
0100
0000
0001
0000
,
1000
0001
1000
0000
0010
0000
0010
0000
0100
0000
0000
0000
1001
0000
0000
0000
,
0001
1000
0001
0000
0000
0000
1000
0001
0010
0000
0001
0000
0100
0000
0001
0000
,
0010
0000
0000
0000
0010
0000
0100
0000
1000
0000
0000
0000
1000
0010
1000
0010
,
0100
0000
0100
0000
0000
0000
0001
1000
0010
0000
0100
0000
0010
0000
1000
0000
,
0001
1000
0001
0000
0100
0000
0100
0000
0010
0000
0000
0000
0100
0000
0000
0000
,
0002
0000
1000
0000
1000
0000
1003
0100
,
0020
0000
0000
0000
0100
0000
0031
0010
0001
0000
0010
0100
0010
0000
0100
1000
,
0002
0000
1000
0000
1003
0010
0100
0001
,
2000
0000
0000
0000
0001
0000
0000
0000
3001
0100
0001
1000
0100
1000
0001
0100
,
0002
0000
1000
0000
1000
0000
1003
0010
,
0200
0000
0000
0000
0310
0000
0001
0010
0001
0000
0010
0100
0010
0000
0100
1000
,
0002
0000
1000
0000
1000
0000
1003
0010
,
2000
0001
0001
3001
,
0010
1000
0010
0000
0100
0000
0001
0010
0001
0000
0000
0000
0000
0000
0000
0000
,
1000
0100
0010
0000
0001
0000
0010
0000
0001
0000
0100
0000
0010
1000
0100
0000
,
1000
0001
0010
0100
2000
0000
0001
0000
,
3010
0000
0100
0001
0010
0001
0100
0000
0020
0000
0000
0000
1000
0000
0000
0000
,
0130
0001
1000
0010
0100
0001
0010
0100
0010
0000
0000
0000
0001
0000
0000
0000
,
0001
0100
0001
0000
1000
0000
0100
0000
0010
0000
0001
0000
0100
0000
0001
0000
,
0010
0000
0001
1000
0001
0000
0010
0000
0001
0000
1000
0000
0001
0000
0000
0000
,
0010
0100
1000
0001
0010
0001
1000
0100
,
0010
0000
0100
0000
1000
0001
1000
0000
0020
0000
0000
0000
0130
0000
0000
0000
,
0010
0100
0000
0001
1000
0000
0100
0000
0010
0100
0010
0000
0100
1000
0000
0000
,
0001
0010
0000
0010
0001
0100
0000
0100
0001
0000
0010
0100
1000
0000
0000
0000
,
1000
0100
1000
0000
0100
0000
0001
0000
1000
0010
1000
0000
0010
0000
0001
0000
,
0001
0100
0001
0000
0100
0000
1000
0000
0001
0010
0001
0000
0010
0000
1000
0000
,
0010
1000
0010
1000
0001
1000
0001
1000
0001
0100
0001
0100
0010
0100
0010
0100
,
0001
0010
0100
1000
0001
0010
0100
1000
0001
0100
0010
1000
0001
0100
0010
1000
,
0002
0000
0013
0100
2000
0100
0100
3100
,
0020
0001
0001
0031
0100
0010
0010
0100
,
0002
1000
1000
1003
0200
0010
0010
0310
,
0001
0000
1000
0000
1000
0000
0001
0000
0100
0010
1000
0000
0010
0000
0000
0000
,
1000
0000
0001
0000
1000
0100
1000
0000
0100
0010
0100
0000
0010
0001
0010
0000
,
0001
1000
0001
0000
1000
0010
1000
0000
0010
0100
0010
0000
0100
0001
0100
0000
,
0010
0000
1000
0000
0001
0010
0001
0000
0010
0100
0010
0000
0100
1000
0100
0000
,
1000
0001
1000
0000
0010
0000
0100
0000
0001
1000
0001
0000
0100
0000
0000
0000
,
0001
1000
0200
0000
0010
0000
0000
0000
0000
0000
0000
0000
0010
0000
0000
0000
,
0000
0010
0000
0310
,
0100
0110
0000
1001
0000
0000
0000
0000
,
0101
0000
0000
0000
0010
1000
0001
0000
0100
0000
0000
0000
0010
1000
0100
0000
,
1000
0001
1000
0000
0001
0000
0010
0001
1000
0000
0100
0000
0010
0000
0001
0000
,
0100
0000
0001
0000
1000
0000
0001
0000
0100
0000
0000
0000
0001
0010
0001
0010
,
0100
0000
0100
0000
0010
0000
0001
1000
0010
0000
0100
0000
0010
0000
1000
0000
,
0001
1000
0001
0000
0100
0000
0100
0000
0010
0000
0000
0000
0100
0000
0000
0000
,
2000
0000
0000
0000
0000
0000
3001
0100
,
0020
0000
0000
0000
0130
0000
0001
0010
0001
0000
0010
0100
0010
0000
0100
1000
,
0200
0000
0000
0000
0000
1300
0002
0000
,
0023
0000
0000
0000
0000
0000
0000
0000
0130
1000
0100
0010
0001
0010
0100
1000
,
0002
0000
0100
0000
0100
0000
0103
0010
,
0200
0000
0000
0000
0301
0000
0010
0001
0010
0000
0100
0010
0100
0000
1000
0100
,
2000
0000
0000
0000
0001
0000
0000
0000
0001
0000
0000
0000
3001
1000
0001
1000
,
0002
1000
1000
1003
,
0010
0001
0010
0000
0100
0000
1000
0010
1000
0000
0000
0000
0000
0000
0000
0000
,
0010
1000
0200
0000
0310
0000
0001
1000
0020
0000
0130
0000
0001
0010
0200
0000
,
0301
1000
0020
0000
0031
0000
1000
0001
0200
0000
0310
0000
0100
0010
0002
0000
,
0013
1000
0002
0000
0013
0000
0100
1000
0020
0000
0130
0000
0001
0010
2000
0000
,
3010
0001
0010
0001
1000
0000
0010
0000
0100
0001
0100
0001
0010
0000
0000
0000
,
0010
0100
0000
1000
0001
0000
0100
0000
0010
0100
0010
0000
0100
0001
0000
0000
,
1000
0010
0000
0010
1000
0100
0000
0100
1000
0000
0010
0100
0001
0000
0000
0000
,
0001
0100
0001
0000
0100
0000
1000
0000
0001
0010
0001
0000
0010
0000
1000
0000
,
1000
0100
1000
0000
0100
0000
0001
0000
1000
0010
1000
0000
0010
0000
0001
0000
,
1000
0100
1000
0100
0010
0100
0010
0100
0010
0001
0010
0001
1000
0001
1000
0001
,
0100
0000
0110
1001
0000
0000
0000
0000
;

//---------------dance-double - ----------------
#NOTES:
     dance-double:
     :
     Easy:
     7:
     0.333,0.416,0.173,0.211,0.000:
00000000
00000000
00000000
00000000
,
00000000
00000000
00000000
00000000
,
00000000
00000000
00000000
00000000
,
01000000
00010000
00000010
00000100
,
00001000
00010000
01000000
00100000
,
00010000
00001000
00000010
00000100
,
00001000
00010000
00100000
01000000
,
00100000
00000000
00100000
10000000
,
01000000
01000000
01000000
00010000
,
00001000
00000000
00000100
00000001
,
00000010
00000010
00000010
00000000
,
00001000
00000000
00010000
01000000
,
10000000
10000000
10000000
01000000
,
00010000
00000000
00001000
00000100
,
00000001
00000001
00000001
00000000
,
00000020
00000000
00000000
00000130
,
00002000
00000010
00010000
00103000
,
02000000
00000000
00000000
03100000
,
20000000
00000000
31000000
00010000
,
00002000
00000000
00000000
01003000
,
00020000
00100000
00001000
00030100
,
00000020
00000000
00000000
00001030
,
00000002
00000000
00000000
00000003
,
00000220
00000000
00000330
00000000
,
00000001
00001000
00010000
00001000
,
00000010
00001000
00010000
00001000
,
00000001
00000100
00001000
00010000
,
00100000
10000000
00010000
00000000
,
10000000
00010000
00001000
00010000
,
00100000
00010000
00001000
00010000
,
10000000
01000000
00010000
00001000
,
00000100
00000010
00000100
00000000
,
00001001
00000100
00000010
00001000
,
00011000
01000000
00100000
10000000
,
10010000
00000000
00011000
00000000
,
00001001
00000000
00011000
00000000
,
00000000
00000000
00000000
00000000
,
00000000
00000000
00000000
00000000
,
00010000
01000000
10000000
00100000
,
00001000
00000100
00000001
00000010
,
00010000
01000000
10000000
00100000
,
00001000
00000100
00000001
00000010
,
00010000
01000000
10000000
00100000
,
00010000
00001000
00000100
00000001
,
00000010
00001000
00010000
00100000
,
10000000
01000000
00010000
00001000
,
00011000
00000000
00000000
00000000
,
00000000
00000000
00000000
00000000
,
00000110
00000000
00000000
00000000
,
00001000
00000001
00001001
00000000
,
00000001
00000001
00000100
00000010
,
00001000
00001000
00010000
00001000
,
00010000
00010000
01000000
00100000
,
10000000
10000000
10000000
00000000
,
02000000
00000000
00000000
03020000
,
00032000
00000000
00000000
00003000
,
00000200
00000000
00000000
00002300
,
00203000
00000000
00000000
00300000
,
00020000
00000000
00000000
00030100
,
00002000
00000010
00010000
01003000
,
00200000
00000000
00000000
00310000
,
00002000
00000000
00000000
00003000
,
00022000
00000000
00033000
00000000
,
01000000
00010000
00001000
00000100
,
00000010
00001000
00010000
00100000
,
01000000
00010000
00001000
00000010
,
00000100
00001000
00010000
00100000
,
10010000
01000000
00100000
00010000
,
00011000
00000100
00000010
00000001
,
00001001
00000000
00011000
00000000
,
10010000
00000000
00011000
00000000
,
00000000
00000000
00000000
00000000
,
00000010
00001001
00000000
00000000
;

//---------------dance-double - ----------------
#NOTES:
     dance-double:
     :
     Medium:
     12:
     0.526,0.521,0.077,0.259,0.043,349.000,8.000,27.000,0.000,0.000,0.000,0.526,0.521,0.077,0.259,0.043,349.000,8.000,27.000,0.000,0.000,0.000:
00000000
00000000
00000000
00000000
,
00000000
00000000
00000000
00000000
,
00000000
00000000
00000000
00000000
,
00001000
00010000
00100000
01000000
00100000
00010000
00001000
00000000
,
00010000
00001000
00000100
00000010
00000100
00001000
00010000
00000000
,
00001000
00010000
01000000
00100000
01000000
00010000
00001000
00000000
,
00010000
00001000
00000010
00000100
00000010
00001000
00010000
00000000
,
01000000
00100000
00000000
00100000
00010000
00000000
10000000
00000000
,
00100000
00000000
00010000
00001000
00010000
00000000
00000010
00000000
,
00000100
00000010
00000000
00000010
00001000
00000000
00000001
00000000
,
00000100
00000000
00000001
00000100
00001000
00000000
00010000
00000000
,
01000000
10000000
00000000
00010000
00100000
01000000
00100000
00000000
,
00010000
00000000
10000000
01000000
00010000
00000000
00001000
00000000
,
00000100
00000001
00000000
00001000
00000010
00000100
00000010
00000000
,
00001000
00000000
00000001
00000100
00001000
00000000
00000000
00000000
,
00020000
00000000
00000000
00000000
00000000
00000000
00031000
01000000
,
00200000
00001000
00010000
01000000
,
20300000
00000000
00000000
00000000
00000000
31000000
00100000
00000000
,
02000000
00000000
00000000
00000000
13000000
00100000
00010000
00000000
,
00002000
00000000
00000000
00000000
00000000
00000000
00013000
00000100
,
00000020
00010000
00001000
00000100
,
00000032
00000000
00000000
00000000
00000000
00000000
00000103
00001000
,
00020000
00000000
00000000
00000000
,
10030000
01000000
00010000
00100000
10000000
00000000
00000000
00000000
,
10000000
00100000
01000000
10000000
01000000
00100000
00010000
00001000
,
00010000
00000100
00000010
00000001
,
00000100
00001000
00010000
01000000
00020000
00000000
00031000
00100000
,
00010000
00001000
00000010
00000100
,
00000001
00000100
00000010
00000001
00000010
00000100
00001000
00010000
,
00001000
00100000
01000000
10000000
,
00100000
00010000
00001000
00000010
00002000
00000000
00013000
00001000
,
00010000
01000000
20020000
30030000
,
10000000
01000000
00000000
01000000
00010000
00000000
00001000
00000000
00100000
00000000
01000000
00000000
00010000
00000000
00000000
00000000
,
00001000
00010000
00000000
00010000
00001000
00000000
00000000
00000000
00001000
00000000
00000100
00000000
00000001
00000000
00000000
00000000
,
00000001
00000010
00000100
00000000
00000100
00000010
00001000
00000000
,
00001000
00100000
00010000
00000000
00010000
00100000
01000000
10000000
,
00200000
00000000
00000000
00000000
,
10300000
00010000
10000000
00010000
10000000
00010000
10000000
00000000
,
00020000
01030000
01200000
00310000
,
00001000
00000100
00000001
00000010
,
00002000
00000000
00000000
00000000
00010000
00003000
00000000
00000000
00001200
00000000
00000000
00000000
00000310
00000000
00000000
00000000
,
00002000
00000010
00010000
01003000
,
00100000
00000000
01000000
00100000
10000000
01000000
10000000
01000000
,
00100000
01000000
00100000
01000000
00010000
00001000
00010000
00000000
,
00000010
00000000
00001000
00000100
00001000
00000100
00000010
00000100
,
00000010
00000001
00000100
00000000
00001000
00010000
00001000
00000000
,
00010000
00001000
00020000
00000000
01000000
00000000
00000000
00000000
00000000
00000000
00000000
00000000
01000000
00000000
00000000
00000000
,
00000000
01000000
00000000
01000000
,
00001000
00031000
00000000
00011000
00000000
00100000
01000000
00000000
,
10000000
11000000
01010000
00000000
,
10000000
00010000
00000000
00010000
00100000
10000000
00100000
00000000
,
00010000
00000000
00100000
00001000
00010000
00000000
00001000
00000100
,
00000001
00001000
00000000
00001000
00000010
00000001
00000010
00000000
,
00001000
00000000
00000010
00000100
00001000
00000000
00000000
00000000
,
00020000
00000000
00000000
00000000
00000000
00000000
00031000
01000000
,
00200000
00001000
00010000
01000000
,
20300000
00000000
00000000
00000000
00000000
31000000
00100000
00000000
,
02000000
00000000
00000000
00000000
13000000
00100000
00010000
00000000
,
00002000
00000000
00000000
00000000
00000000
00000000
00013000
00000100
,
00000020
00010000
00001000
00000100
,
00000032
00000000
00000000
00000000
00000000
00000000
00000103
00001000
,
00020000
00000000
00000000
00000000
,
00031000
00010000
00100000
00010000
00001000
00000000
00000000
00000000
,
00001000
00010000
01000000
10000000
00010000
00100000
01000000
00000000
,
00010000
00001000
00000010
00000001
00001000
00000100
00000010
00000000
,
00001000
00010000
00100000
10000000
00010000
01000000
00100000
00000000
,
00010000
00001000
00000100
00000001
00001000
00000010
00000100
00000000
,
00000001
00000100
00000000
00000100
00001000
00000000
00010000
00000000
00000010
00000000
00000100
00000000
00001000
00000000
00000000
00000000
,
00010000
00001000
00000000
00001000
00010000
00000000
00000000
00000000
00010000
00000000
01000000
00000000
10000000
00000000
00000000
00000000
,
10000000
00100000
01000000
00000000
01000000
00100000
00010000
00000000
,
00010000
00000010
00001000
00000000
00001000
00000100
00000010
00000001
,
00000000
00000000
00000000
00000000
,
00000110
00000000
00001000
00011000
00000000
00000000
00000000
00000000
;

//---------------dance-double - ----------------
#NOTES:
     dance-double:
     :
     Hard:
     16:
     0.847,1.000,0.067,0.211,0.657,589.000,7.000,22.000,0.000,0.000,0.000,0.847,1.000,0.067,0.211,0.657,589.000,7.000,22.000,0.000,0.000,0.000:
00000000
00000000
00000000
00000000
,
00000000
00000000
00000000
00000000
,
00000000
00000000
00000000
00000000
,
00000100
00000001
00000100
00000000
00000010
00000000
00000100
00001000
00000100
00000000
00001000
00000000
00010000
00001000
00010000
00000000
,
01000000
00010000
01000000
00000000
00100000
00000000
01000000
10000000
01000000
00000000
00100000
00000000
00010000
10000000
00010000
00000000
,
00100000
01000000
00100000
00000000
01000000
00000000
00010000
00001000
00010000
00000000
00001000
00000000
00000100
00000010
00000100
00000000
,
00000001
00000100
00000001
00000000
00000010
00000000
00001000
00000000
00010000
00001000
00010000
00000000
01000000
00000000
00000000
00000000
,
10000000
00010000
10000000
00000000
00000000
00000000
00100000
10000000
00010000
00000000
10000000
00000000
00100000
00000000
00010000
00000000
,
00001000
00000000
00100000
00000000
01000000
00000000
00010000
00000000
00001000
00000000
00000000
00000000
00010000
00000010
00010000
00000010
,
00001000
00000000
00000100
00000000
00000000
00000000
00000010
00000001
00000100
00000000
00000010
00000000
00000100
00000000
00001000
00000000
,
00010000
00001000
00010000
00000000
00001000
00000000
00000010
00000000
00000001
00000000
00000000
00000000
00001000
00000000
00000000
00000000
,
00000001
00001000
00000001
00000000
00000000
00000000
00000010
00000001
00001000
00000000
00000001
00000000
00000100
00000000
00001000
00000000
,
00010000
00000000
00000010
00000000
00000100
00000000
00001000
00000000
00010000
00000000
00000000
00000000
01000000
00100000
01000000
00100000
,
00010000
00000000
10000000
00000000
00000000
00000000
00100000
01000000
00010000
00000000
00100000
00000000
01000000
00000000
00010000
00000000
,
00001000
00010000
00001000
00000000
00010000
00000000
00001000
00000000
00000100
00000000
00000000
00000000
00000001
00000000
00000000
00000000
,
00002000
00000000
00000100
00000000
00000001
00000000
00003010
00000100
,
00000002
00000000
00000000
00000000
00000100
00000000
00000103
00000010
00001000
00000000
00001000
00000100
00010000
00000000
00010000
00001000
,
00200000
00000000
00010000
00000000
01300000
10000000
01000000
00010000
,
00002000
00000000
00000000
00000000
00000010
00000000
00000000
00000000
00013000
00001000
00010000
00000100
00001000
00000010
00000100
00000001
,
00002000
00000000
00000100
00000000
00000001
00000000
00003010
00000100
,
00000002
00000000
00000000
00000000
00000100
00000000
00000103
00000010
00001000
00000000
00001000
00000100
00010000
00000000
00010000
00001000
,
02000000
00000000
00001000
00000000
00010000
00000000
03100000
10000000
,
00020000
01000000
10000000
00100000
,
00031000
00000100
00000010
00000000
00000100
00000000
00000010
00000100
00001000
00000000
00000000
00000000
00000000
00000000
00000000
00000000
,
00000001
00000100
00000001
00000000
00000100
00000000
00001000
00000000
00010000
00000000
00001000
00000000
00100000
00000000
10000000
00000000
,
00100000
00001000
00010000
00000100
00002000
00000000
00000001
00000000
,
00003010
00000000
00001000
00000100
00010000
00000000
00001000
01000000
00020000
00000000
00000000
00000000
10000000
00000000
00000000
00000000
,
00130000
00000000
00010000
01000000
00100000
10000000
00010000
01000000
00010000
00000000
00000000
00000000
00100000
00000000
00000000
00000000
,
01000000
10000000
01000000
00000000
00010000
00000000
00001000
00000000
00000100
00000000
00000010
00000000
00001000
00000000
00000001
00000000
,
00000010
00000000
00000100
00001000
00000100
00000000
00000010
00000000
00001000
00000000
00010000
00000000
00001000
00000000
00000000
00000000
,
00010000
00001000
00000010
00000001
00000010
00001000
00010000
01000000
,
10000000
00000000
00010000
00000000
00100000
01000000
00100000
00000000
00020000
00000000
00000000
00000000
01030000
00000000
00000000
00000000
,
10000000
01000000
00000000
00100000
00010000
00000000
00001000
00000000
00010000
00001000
00010000
00000000
00010000
00000100
00000000
00000000
,
00001000
00000100
00000000
00000100
00000010
00000001
00000000
00000001
00000100
00000000
00000010
00000100
00001000
00000000
00010000
00000000
,
00001000
00010000
00001000
00000000
00010000
00000000
01000000
00000000
10000000
00100000
10000000
00000000
00100000
00000000
00010000
00000000
,
00001000
00010000
00001000
00000000
00000100
00000000
00000001
00000000
00000010
00000100
00000010
00000000
00001000
00000000
00000010
00000000
,
00000001
00000010
00000001
00000010
00000001
00000100
00000001
00000100
00000010
00001000
00000010
00001000
00000100
00010000
00000100
00010000
,
00001000
00010000
00001000
00010000
00001000
01000000
00001000
01000000
00010000
01000000
00010000
01000000
00100000
10000000
00100000
10000000
,
02000000
00000000
03010000
01000000
10000000
00100000
00010000
00001000
,
00000010
00001000
00010000
00100000
00010000
00001000
00000100
00000100
,
00000001
00000100
00001000
00000100
00000001
00000010
00001000
00010000
,
01000000
10000000
01000000
00010000
01000000
10000000
00010000
00000000
,
10000000
00000000
00010000
00000000
00100000
01000000
00100000
00000000
01000000
10000000
01000000
00000000
00100000
00010000
00100000
00000000
,
00001000
00010000
00001000
00000000
00000100
00000010
00000100
00000000
00000001
00001000
00000001
00000000
00000100
00000001
00000100
00000000
,
00001000
00000000
00010000
00000000
00001000
00100000
00001000
00000000
00010000
00001000
00010000
00000000
01000000
00100000
01000000
00000000
,
10000000
00010000
10000000
00000000
01000000
00000000
00010000
00000000
00001000
00010000
00001000
00000000
00010000
00000000
00000000
00000000
,
00010000
00001000
00020000
00000000
00100000
00000000
00000000
00000000
00000000
00000000
00000000
00000000
00100000
00000000
00000000
00000000
,
00000000
00000010
00000000
00030010
,
00000100
00000110
00000000
00001001
00000000
00000000
00000000
00000000
,
00011000
00000000
00000000
00000000
00100000
00010000
01000000
00000000
00100000
00000000
00000000
00000000
10010000
00000000
00000000
00000000
,
00010000
10000000
00010000
00000000
01000000
00000000
00100000
10000000
00010000
00000000
10000000
00000000
01000000
00000000
00010000
00000000
,
00001000
00000000
00100000
00000000
01000000
00000000
00010000
00000000
00001000
00000000
00000000
00000000
00000100
00000010
00000100
00000010
,
00001000
00000000
00000001
00000000
00001000
00000000
00000010
00000100
00000001
00000000
00000010
00000000
00000001
00000000
00000100
00000000
,
00001000
00010000
00001000
00000000
00000100
00000000
00000010
00000000
00000200
00000000
00000000
00000000
00000310
00000000
00000000
00000000
,
00002000
00000000
00000000
00000000
00000000
00000000
00003010
00000100
,
00000002
00000000
00000000
00000000
00000100
00000000
00000103
00000010
00001000
00000000
00001000
00000010
00010000
00000000
00010000
00001000
,
00200000
00000000
00000000
00000000
00000000
01300000
10000000
00000000
,
00020000
00000000
00000000
00000000
00000000
00000000
00000000
00000000
10030000
00100000
01000000
00010000
00100000
00001000
00010000
00000100
,
00002000
00000000
00000100
00000000
00000001
00000000
00003010
00000100
,
00000002
00000000
00000000
00000000
00000100
00000000
00000103
00000010
00001000
00000000
00001000
00000100
00010000
00000000
00010000
00001000
,
02000000
00000000
00001000
00000000
00010000
00000000
03100000
10000000
,
00020000
01000000
10000000
00100000
,
00031000
00000100
00000010
00000000
00000001
00000000
00000001
00000100
00000010
00000000
00000000
00000000
00000000
00000000
00000000
00000000
,
00000010
00000001
00000100
00000000
00000010
00000000
00001000
00000010
00000100
00000000
00001000
00000000
00010000
00001000
00100000
00000000
,
00010000
10000000
01000000
00000000
00100000
00000000
00001000
01000000
00010000
00000000
00100000
00000000
00001000
00010000
00000100
00000000
,
00000010
00000100
00001000
00000000
00000001
00000000
00000100
00000010
00001000
00000000
00000100
00000000
00010000
00001000
01000000
00000000
,
00100000
10000000
01000000
00000000
00010000
00000000
00001000
00000000
00000010
00000001
00001000
00000000
00001001
00000000
00000000
00000000
,
00000001
00000010
00000000
00000100
00001000
00000000
00010000
00000000
00001000
00010000
00001000
00000000
00001000
00100000
00000000
00000000
,
00010000
00100000
00000000
00100000
01000000
10000000
00000000
10000000
00100000
00000000
01000000
00100000
00010000
00000000
00001000
00000000
,
00010000
00001000
00010000
00000000
00001000
00000000
00000010
00000000
00000001
00000100
00000001
00000000
00000100
00000000
00001000
00000000
,
00010000
00001000
00010000
00000000
00100000
00000000
10000000
00000000
01000000
00100000
01000000
00000000
10000000
00000000
00010000
00000000
,
01000000
00010000
01000000
00010000
00100000
00001000
00100000
00001000
00010000
00000100
00010000
00000100
00001000
00000010
00001000
00000010
,
00000100
00000000
00000110
00001001
00000000
00000000
00000000
00000000
;

//---------------dance-single - ----------------
#NOTES:
     dance-single:
     :
     Challenge:
     18:
     1.000,1.000,0.509,0.403,1.000,721.000,53.000,42.000,0.000,0.000,0.000,1.000,1.000,0.509,0.403,1.000,721.000,53.000,42.000,0.000,0.000,0.000:
0000
0000
0000
0000
,
0000
0000
0000
0000
,
0000
0000
0000
0000
,
1000
0100
0010
0000
0110
0000
0100
0010
0001
0000
0101
0000
0001
1000
0100
0000
,
0100
0010
0001
0000
0011
0000
0010
0100
1000
0000
1100
0000
0100
0001
1000
0000
,
1000
0001
0010
0000
0011
0000
0001
1000
0010
0000
0110
0000
0100
0001
0010
0000
,
0010
0001
0100
0000
0010
0000
0100
0000
0001
0010
0100
0000
2200
0000
3300
0000
,
1000
0001
1000
0000
0100
0010
0001
1000
0100
0000
1000
0000
0001
0000
0010
0100
,
0001
0100
0010
0000
0100
0000
0010
0000
2010
0000
3000
0000
1000
0001
1000
0000
,
1000
0100
0010
0000
0100
0010
0001
0010
0100
0000
0010
0000
0100
0000
0001
0010
,
0001
1000
0010
0000
0100
0000
0010
0000
0200
0000
0000
0000
1300
0010
0100
0010
,
1000
0001
0100
0000
0010
0001
1000
0001
0010
0000
0001
0000
1001
0000
1000
0000
,
0100
0010
0001
0000
0010
0000
0100
0010
1000
0000
0000
0000
1000
0010
1000
0010
,
0100
0001
0100
0000
0010
0001
1000
0001
0010
0000
0001
0000
0100
0000
1000
0010
,
1000
0001
0010
0000
0100
0000
0100
0000
1001
0000
0000
0000
0100
0010
0100
0010
,
0001
0100
1000
0100
0001
0010
1000
0010
,
0110
0000
0100
0000
0010
0000
0010
0001
1000
0000
1000
0100
0010
0000
0010
0001
,
0100
0010
1000
0010
0100
0010
2002
3003
,
0100
0001
0010
0001
0010
0001
0100
0001
0010
0001
0010
0001
0100
0001
0010
0001
,
0020
0000
1000
0000
0100
0000
0031
0100
,
1020
0000
0000
0000
0130
0000
0100
0010
0001
0000
0001
1000
0100
0000
0100
0010
,
0001
0000
1000
0010
0001
0000
0100
0100
,
0001
0010
0100
0010
0001
1000
0100
0001
,
1000
0100
0010
0000
0110
0000
0001
0100
0020
0000
0000
0000
0000
0000
0000
0000
,
0031
0000
0000
0000
1000
0000
0000
0000
0010
0000
0000
0000
1000
0000
0000
0000
0010
0000
0000
0000
0100
0000
0000
0000
1000
0000
0000
0100
0000
0000
0010
0000
0000
0000
0000
0000
0001
0000
0000
0100
0000
0000
0001
0000
0000
0100
0000
0000
,
0010
0000
0000
0000
0000
0000
0001
0000
0000
1000
0000
0000
0010
0000
0000
1000
0000
0000
0100
0000
0000
0000
0000
0000
2000
0000
0000
0000
0000
0000
0000
0000
0000
0000
0000
0000
3001
0000
0000
0000
0100
0000
0000
0000
0010
0000
0000
0000
,
0100
0000
0000
0010
0000
0000
1000
0000
0000
0100
0000
0000
0010
0000
0000
0001
0000
0000
0100
0000
0000
0001
0000
0000
0020
0000
0000
0000
0000
0000
0000
0000
0000
0000
0000
0000
1030
0000
0000
0000
0001
0000
0000
0000
0100
0000
0000
0000
,
0010
1000
0001
0010
0100
1000
0010
0100
0010
0000
0100
0000
0001
1000
0010
0100
,
0001
0010
0001
0100
0010
0100
0000
0010
0100
0001
0100
0010
0100
0001
1000
0000
,
0100
0000
0000
1000
0000
0000
0100
0000
0000
0010
0000
0000
0001
0000
0000
0000
0000
0000
1000
0000
0000
0100
0000
0000
0000
0000
0000
0000
0000
0000
0000
0000
0000
0000
0000
0000
0010
0000
0000
0000
1000
0000
0000
0000
0100
0000
0000
0000
,
0010
0000
0000
0100
0000
0000
0001
0000
0000
0000
0000
0000
0010
0000
0000
0000
1000
0000
0000
0000
0100
0000
0000
0000
0010
0000
0000
0000
0001
0000
0000
0000
1000
0000
0000
0000
0100
0000
0000
0000
0010
0000
0000
0000
0100
0000
0000
0000
,
0010
0100
0001
0000
0010
0100
0001
0000
0010
0100
0001
0100
0020
0000
0000
0000
,
1030
0100
0000
0001
0100
0000
0010
0000
0100
1000
0100
0000
0100
0001
0100
0000
,
0001
1000
0000
0010
0001
0010
0000
0100
1000
0000
0010
0100
0002
0000
0000
0000
,
1003
0100
0010
0000
0100
0000
1000
0000
0001
0100
0010
0000
0100
0000
0010
0000
,
1000
0100
1000
0000
0100
0000
0010
0000
0001
0100
0001
0000
0100
0000
0010
0000
,
0100
1000
0010
1000
0001
0100
0001
0010
0001
1000
0010
0100
0010
1000
0001
0100
,
0010
0100
0001
1000
0100
0001
0100
0010
0001
1000
0010
0001
0010
0100
1000
0001
,
0100
0110
0110
0120
0031
0101
0101
0102
,
0103
0110
0110
0210
0310
1010
1010
1020
,
0130
0101
0101
0201
0310
1001
1001
2001
,
3010
0001
1000
0000
1100
0000
1200
0000
0310
1000
0001
0000
0101
0000
0102
0000
,
1003
0100
0010
0001
0010
0100
1000
0000
0001
0010
0100
1000
0100
0010
0001
0000
,
1000
0100
0010
0100
1000
0100
0010
0000
0001
0100
0010
0100
0001
0100
0010
0000
,
0100
0001
0100
0010
0001
1000
0010
0100
0001
0100
0010
1000
0010
0100
0010
1000
,
0001
0010
0100
0000
0001
0000
0100
0000
0010
1000
0001
0000
0201
0000
0000
0000
,
0301
1000
0100
0000
0010
0000
0100
1000
0001
0000
0010
0000
0100
0000
0010
0001
,
0100
0010
0100
0000
1010
0000
0100
0000
0001
1000
0001
1000
0010
0100
0001
0100
,
0010
0110
0000
2002
0000
0000
3003
0000
,
0201
0000
0000
0000
0320
1000
0032
0000
0200
0000
0303
0000
0010
1000
0200
0000
,
1300
0100
0010
0000
0100
0000
0001
0100
0010
0000
1000
0000
0010
0000
0100
0010
,
1000
0010
0100
0000
1000
0000
0100
0010
0001
0000
0000
0000
1000
0010
0100
0001
,
0100
0001
0010
0000
0010
0000
0100
1000
0001
0000
0001
0000
0100
0000
0010
0000
,
1000
0100
0010
0000
0101
0000
0110
0000
2100
0000
0000
0000
3010
0001
0100
0020
,
2000
0000
0000
0000
0030
0000
3010
0100
,
0002
0000
0000
0000
1003
0000
1000
0010
0001
0000
0001
0010
0100
0000
0100
0010
,
2000
0000
0000
0000
3100
0100
0002
0000
,
0103
0001
1000
0001
1000
0001
0100
0001
1000
0001
1000
0001
0100
0001
1000
0001
,
1000
0100
0110
0001
0100
0110
1000
0100
,
0110
0000
0010
0000
0001
0000
0001
0010
0100
0000
0100
0010
0001
0000
0001
1000
,
0100
0000
0010
0000
0001
0000
0010
0000
1000
0000
0100
0000
0001
1000
0100
0010
,
0001
1100
0101
1010
,
0020
1000
0031
0000
0021
0000
0031
1000
0020
0000
0000
0000
0000
0000
0000
0000
,
0031
0100
0010
0000
1000
0000
1000
0100
0010
0000
0010
0000
0100
0001
0100
0000
,
1000
0100
0010
0000
0001
0000
0001
0100
0010
0000
0010
0000
0100
1000
0100
0000
,
0010
1000
0001
0000
0010
0000
0100
1000
0010
0000
0100
0000
0010
0001
1000
0000
,
0010
0100
0001
0100
0001
0000
0010
0000
0010
0100
1000
0100
2000
0000
0000
0000
,
3001
0100
0000
1000
0100
0000
0010
0000
0001
0100
0010
0000
0010
0100
0001
0000
,
0100
0010
0000
0001
1000
0010
0000
0100
0001
0000
0010
0100
2000
0000
0000
0000
,
3001
0100
0010
0100
0001
0000
0100
0000
1000
0100
0010
0100
1000
0000
0100
0000
,
0001
0100
1000
0100
0001
0000
0010
0000
1000
0100
0001
0100
1000
0000
0010
0000
,
0001
0100
0010
1000
0001
0010
0100
0010
0001
1000
0100
0001
0100
1000
0010
0100
,
0001
0000
0110
2002
3003
0000
0000
0000
;

//---------------dance-double - ----------------
#NOTES:
     dance-double:
     :
     Challenge:
     18:
     1.000,1.000,0.336,0.307,1.000,685.000,35.000,32.000,0.000,0.000,0.000,1.000,1.000,0.336,0.307,1.000,685.000,35.000,32.000,0.000,0.000,0.000: // measure 0
00000000
00000000
00000000
00000000
,  // measure 1
00000000
00000000
00000000
00000000
,  // measure 2
00000000
00000000
00000000
00000000
,  // measure 3
10000000
01000000
10000000
00000000
00010000
00000000
01000000
00010000
01000000
00000000
00001000
00000000
00010000
00001000
00010000
00000000
,  // measure 4
00000100
00001000
00000100
00000000
00000001
00000000
00000100
00000010
00000100
00000000
00001000
00000000
00010000
00001000
00010000
00000000
,  // measure 5
00100000
01000000
00100000
00000000
00010000
00000000
01000000
10000000
01000000
00000000
00010000
00000000
00001000
00100000
00001000
00000000
,  // measure 6
00010000
00000010
00010000
00000000
00001000
00000000
00000010
00000000
00000100
00000001
00000100
00000000
00000011
00000000
00000000
00000000
,  // measure 7
00001000
00010000
00001000
00000000
00010000
00000000
00001000
00010000
00001000
00000000
01000000
00000000
00100000
00000000
10000000
01000000
,  // measure 8
00100000
01000000
10000000
00000000
01000000
00000000
00100000
00000000
00120000
00000000
00000000
00000000
00130000
00010000
00100000
00000000
,  // measure 9
00010000
00001000
00010000
00000000
00001000
00000000
00010000
00001000
00010000
00000000
00000010
00000000
00000100
00000000
00000001
00000010
,  // measure 10
00000100
00000010
00000001
00000000
00001000
00000000
00000010
00000000
00000200
00000000
00000000
00000000
00010300
00000100
00001000
00000100
,  // measure 11
00010000
00001000
00100000
00000000
00010000
00000000
01000000
00010000
00100000
00000000
10000000
00000000
00010000
00000000
01000000
00000000
,  // measure 12
00100000
01000000
00010000
00000000
00001000
00000000
00010000
00000010
00001000
00000000
00000000
00000000
00000001
00000010
00000001
00000010
,  // measure 13
00000100
00001000
00000001
00000000
00000100
00000000
00001000
00010000
00100000
00000000
01000000
00000000
00100000
00000000
10000000
00010000
,  // measure 14
00100000
00010000
10000000
00000000
01000000
00000000
00100000
00000000
01010000
00000000
00000000
00000000
10000000
00100000
01000000
00100000
,  // measure 15
10000000
00000000
00010000
00000000
00001200
00000000
00001000
00001000
,  // measure 16
00001300
00000000
00000000
00000000
00011000
00000000
00001000
00010000
00100000
00000000
00100000
01000000
10000000
00000000
10000000
00010000
,  // measure 17
01000000
00000000
00000000
00000000
00010000
00001000
00022000
00033000
,  // measure 18
10000000
00010000
00100000
00010000
01000000
00001000
00010000
00000100
00001000
00000100
00000010
00000001
00000100
00000010
00000100
00000001
,  // measure 19
00000010
00000000
00000010
00000000
00010000
00000000
00001000
00010000
,  // measure 20
00022000
00000000
00030000
00000000
00013000
00000000
00010000
00100000
00001000
00000000
00001000
00010000
00000010
00000000
00000010
00001000
,  // measure 21
00000001
00000000
00001000
00000000
00000010
00000000
00010000
00001000
,  // measure 22
01000000
00020000
20000000
00000000
00000000
00000000
30030000
00000000
,  // measure 23
00001000
00010000
00001000
00000000
00000010
00000000
00001000
00010000
00002000
00000000
00000000
00000000
00000000
00000000
00000000
00000000
,  // measure 24
00013000
00000000
00000000
00000000
00100000
00000000
00000000
00000000
01000000
00000000
00000000
00000000
10000000
00000000
00000000
00000000
00100000
00000000
00000000
00000000
01000000
00000000
00000000
00000000
00010000
00000000
00000000
00100000
00000000
00000000
00001000
00000000
00000000
00000000
00000000
00000000
00010000
00000000
00000000
00000010
00000000
00000000
00001000
00000000
00000000
00000000
00000000
00000000
,  // measure 25
00000100
00000000
00000000
00000000
00000000
00000000
00001000
00000000
00000000
00000010
00000000
00000000
00000100
00000000
00000000
00000000
00000000
00000000
00000001
00000000
00000000
00000000
00000000
00000000
00000101
00000000
00000000
00000000
00000000
00000000
00000000
00000000
00000000
00000000
00000000
00000000
00000010
00000000
00000000
00000000
00010000
00000000
00000000
00000000
00001000
00000000
00000000
00000000
,  // measure 26
01000000
00000000
00000000
00010000
00000000
00000000
01000000
00000000
00000000
00010000
00000000
00000000
10000000
00000000
00000000
00100000
00000000
00000000
10000000
00000000
00000000
01000000
00000000
00000000
00200000
00000000
00000000
00000000
00000000
00000000
00000000
00000000
00000000
00000000
00000000
00000000
10300000
00000000
00000000
00000000
00010000
00000000
00000000
00000000
00100000
00000000
00000000
00000000
,  // measure 27
01000000
00100000
01000000
00100000
00010000
00100000
00001000
00000000
00020000
00000000
00000000
00000000
00030200
00000000
00002300
00000000
,  // measure 28
00003001
00000010
00000001
00000000
00000100
00001000
00000000
00000001
00000010
00000100
00000010
00010000
00001000
00100000
00010000
00100000
,  // measure 29
01000000
00000000
00000000
10000000
00000000
00000000
00010000
00000000
00000000
00000000
00000000
00000000
00010000
00000000
00000000
01000000
00000000
00000000
00100000
00000000
00000000
10000000
00000000
00000000
00000000
00000000
00000000
00000000
00000000
00000000
00000000
00000000
00000000
00000000
00000000
00000000
00010000
00000000
00000000
00000000
00001000
00000000
00000000
00000000
00010000
00000000
00000000
00000000
,  // measure 30
00000100
00000000
00000000
00001000
00000000
00000000
00000100
00000000
00000000
00000000
00000000
00000000
00010000
00000000
00000000
00000000
00001000
00000000
00000000
00000000
00100000
00000000
00000000
00000000
01000000
00000000
00000000
00000000
00010000
00000000
00000000
00000000
00100000
00000000
00000000
00000000
00001000
00000000
00000000
00000000
01000000
00000000
00000000
00000000
00010000
00000000
00000000
00000000
,  // measure 31
00100000
00010000
00100000
00000000
01000000
10000000
01000000
00000000
00010000
00100000
01000000
10000000
00020000
00000000
00000000
00000000
,  // measure 32
00130000
01000000
00000000
01000000
00100000
00000000
00100000
00000000
00100000
01000000
00100000
00000000
00100000
01000000
00000000
00000000
,  // measure 33
01000000
00100000
00000000
00100000
00001000
00010000
00000000
00010000
00000100
00000000
00001000
00000001
00000020
00000000
00000000
00000000
,  // measure 34
00000031
00000100
00000010
00000000
00001000
00000000
00000100
00000000
00010000
00001000
00100000
00000000
00010000
00000000
01000000
00000000
,  // measure 35
00100000
10000000
01000000
00000000
00100000
00000000
00010000
00000000
00001000
00000100
00000010
00000000
00000001
00000000
00000100
00000000
,  // measure 36
00000010
00000001
00001000
00000010
00000100
00000001
00000100
00000001
00001000
00000100
00010000
00001000
00100000
00010000
10000000
01000000
,  // measure 37
10000000
00010000
00100000
00010000
10000000
00100000
10000000
00010000
01000000
00010000
00001000
00010000
00000100
00001000
00000001
00000100
,  // measure 38
00001000
00010000
00110000
00100000
01100000
01000000
11000000
10000000
,  // measure 39
10010000
00010000
00011000
00001000
00001001
00000001
00000011
00000010
,  // measure 40
00001010
00001000
00001001
00000001
00000101
00000100
00001100
00001000
,  // measure 41
00010000
00001000
01000000
00000000
02010000
00000000
00000000
00000000
03001000
00010000
00000100
00000000
00001200
00000000
00000000
00000000
,  // measure 42
00000301
00000010
00000001
00000000
00001000
00000010
00001000
00000000
00000100
00010000
00000100
00000000
00001000
00010000
00001000
00000000
,  // measure 43
01000000
00010000
01000000
00000000
00100000
10000000
00100000
00000000
10000000
01000000
10000000
00000000
00010000
01000000
00010000
00000000
,  // measure 44
10000000
00100000
01000000
00010000
01000000
00001000
00010000
00000100
00001000
00000100
00010000
00000100
00001000
00000100
00000010
00000001
,  // measure 45
00001000
00000100
00010000
00001000
00100000
10000000
00010000
00000000
,  // measure 46
00010000
10000000
01000000
00000000
11000000
00000000
10000000
01000000
00010000
00000000
00100000
00000000
01000000
00000000
00100000
00000000
,  // measure 47
00001000
00000000
00010000
00000000
00011000
00000000
00010000
00000000
01000000
00010000
00100000
00001000
00010000
00000010
00001000
00000000
,  // measure 48
00010000
00011000
00000000
00022000
00000000
00000000
00033000
00000000
,  // measure 49
00012000
00000000
00000000
00000000
00013000
00000100
00001000
00000000
00000010
00000000
00000000
00000000
00001000
00010000
02000000
00000000
,  // measure 50
13000000
01000000
10000000
00000000
00010000
00000000
01000000
00100000
01000000
00000000
00001000
00000000
00010000
00000000
00001000
00010000
,  // measure 51
00001000
00000000
00000010
00000000
00000001
00000000
00000100
00001000
00000100
00000000
00000000
00000000
00001000
00100000
00010000
01000000
,  // measure 52
00100000
10000000
01000000
00000000
00100000
00000000
01000000
10000000
00010000
00000000
01000000
00000000
00001000
00000000
00010000
00000000
,  // measure 53
01000000
00100000
01000000
00000000
00011000
00000000
00010100
00000000
00001100
00000000
00000000
00000000
00001000
00010000
00100000
01000000
,  // measure 54
20000000
00000000
00000000
00000000
00000000
00000000
31000000
00010000
,  // measure 55
00000200
00000000
00000000
00000000
00001300
00000000
00001000
00000010
00010000
00000000
00010000
00000010
00001000
00000000
00001000
00000010
,  // measure 56
00020000
00000000
00000000
00000000
00031000
01000000
00200000
00000000
,  // measure 57
10300000
01000000
00100000
00010000
00100000
00001000
00010000
00001000
00010000
00000100
00001000
00000001
00000010
00000100
00000001
00000100
,  // measure 58
00000010
00001000
00001000
01000000
00001000
00001000
00000010
00001000
,  // measure 59
00001000
00000000
01000000
00000000
00010000
00000000
00010000
01000000
00001000
00000000
00001000
01000000
00010000
00000000
00010000
01000000
,  // measure 60
00001000
00000000
00100000
00000000
10000000
00000000
00100000
00000000
00010000
00000000
00000100
00000000
00010000
00001000
00000100
00000010
,  // measure 61
00000001
00000110
00011000
01100000
,  // measure 62
00010000
10000000
01000000
00000000
02100000
00000000
03100000
00010000
20000000
00000000
00000000
00000000
00000000
00000000
00000000
00000000
,  // measure 63
30100000
01000000
00010000
00000000
00100000
00000000
00001000
00010000
00000010
00000000
00001000
00000000
00000001
00000100
00001000
00000000
,  // measure 64
00010000
01000000
10000000
00000000
01000000
00000000
10000000
00100000
00010000
00000000
00000100
00000000
00001000
00000001
00000010
00000000
,  // measure 65
00000100
00010000
00001000
00000000
01000000
00000000
00010000
00100000
00001000
00000000
00010000
00000000
00100000
10000000
00010000
00000000
,  // measure 66
10000000
01000000
10000000
01000000
00100000
00000000
01000000
00000000
00010000
01000000
00010000
01000000
00200000
00000000
00000000
00000000
,  // measure 67
10300000
01000000
00000000
00100000
00010000
00000000
00001000
00000000
00010000
00000100
00001000
00000100
00000010
00000001
00000000
00000000
,  // measure 68
00000010
00010000
00000000
00000100
00001000
00010000
00000000
00100000
01000000
00000000
00010000
10000000
02000000
00000000
00000000
00000000
,  // measure 69
03010000
00100000
00010000
00100000
00010000
00000000
10000000
00000000
01000000
00010000
01000000
00010000
01000000
00000000
00001000
00000000
,  // measure 70
00000001
00000010
00000001
00000010
00000001
00000000
00000100
00000000
00010000
00001000
00010000
00001000
00010000
00000000
01000000
00000000
,  // measure 71
10000000
00100000
01000000
00010000
00100000
00001000
00010000
00000010
00000100
00000001
00000100
00001000
00010000
01000000
00010000
00100000
,  // measure 72
00001000
00000000
01100000
02200000
03300000
00000000
00000000
00000000
;
