#VERSION:0.81;
#TITLE:COME BACK TO MY HEART;
#SUBTITLE:;
#ARTIST:Another Infinity feat. Mayumi Morinaga;
#TITLETRANSLIT:;
#SUBTITLETRANSLIT:;
#ARTISTTRANSLIT:;
#GENRE:;
#ORIGIN:;
#CREDIT:;
#BANNER:COME BACK TO MY HEART-jacket.png;
#BACKGROUND:COME BACK TO MY HEART-bg.png;
#PREVIEWVID:;
#JACKET:COME BACK TO MY HEART-jacket.png;
#CDIMAGE:;
#DISCIMAGE:COME BACK TO MY HEART.png;
#LYRICSPATH:;
#CDTITLE:./CDTitles/DanceDanceRevolution X3 vs 2ndMIX.png;
#MUSIC:COME BACK TO MY HEART.mp3;
#OFFSET:-0.121;
#SAMPLESTART:1.420;
#SAMPLELENGTH:15.000;
#SELECTABLE:YES;
#BPMS:0.000=142.000;
#STOPS:;
#DELAYS:;
#WARPS:;
#TIMESIGNATURES:0.000=4=4;
#TICKCOUNTS:0.000=4;
#COMBOS:0.000=1;
#SPEEDS:0.000=1.000=0.000=0;
#SCROLLS:0.000=1.000;
#FAKES:;
#LABELS:0.000=Song Start;
#BGCHANGES:;
#KEYSOUNDS:;
#ATTACKS:
;

//---------------dance-single - ----------------
#NOTEDATA:;
#CHARTNAME:;
#STEPSTYPE:dance-single;
#DESCRIPTION:;
#CHARTSTYLE:;
#DIFFICULTY:Beginner;
#METER:2;
#RADARVALUES:0.114,0.142,0.011,0.000,0.000,73.000,1.000,0.000,0.000,0.000,0.000,0.000,0.000,0.114,0.142,0.011,0.000,0.000,73.000,1.000,0.000,0.000,0.000,0.000,0.000,0.000;
#CREDIT:;
#OFFSET:-0.121;
#BPMS:0.000=142.000
;
#STOPS:;
#DELAYS:;
#WARPS:;
#TIMESIGNATURES:0.000=4=4
;
#TICKCOUNTS:0.000=4
;
#COMBOS:0.000=1
;
#SPEEDS:0.000=1.000=0.000=0
;
#SCROLLS:0.000=1.000
;
#FAKES:;
#LABELS:0.000=Song Start
;
#NOTES:
0000
0000
0000
0000
,
0000
0000
0000
0000
,
0000
0000
0000
0000
,
0000
0000
0000
0000
,
0000
0000
0000
0000
,
1000
0000
0000
0000
,
0100
0000
0000
0000
,
0010
0000
0000
0000
,
0001
0000
0000
0000
,
0001
0000
0001
0000
,
0001
0000
0000
0000
,
1000
0000
1000
0000
,
1000
0000
0000
0000
,
0001
0000
0000
0000
,
0001
0000
0000
0000
,
0001
0000
0001
0000
,
0001
0000
0000
0000
,
1000
0000
0000
0000
,
1000
0000
0000
0000
,
1000
0000
1000
0000
,
1000
0000
0000
0000
,
0100
0000
0000
0000
,
0100
0000
0100
0000
,
0100
0000
0000
0000
,
0001
0000
0000
0000
,
1000
0000
0000
0000
,
0100
0000
0100
0000
,
0100
0000
0000
0000
,
0010
0000
0000
0000
,
1000
0000
0001
0000
,
1001
0000
0000
0000
,
0100
0000
0000
0000
,
0010
0000
0000
0000
,
1000
0000
1000
0000
,
1000
1000
1000
0000
,
0100
0000
0000
0000
,
0010
0000
0000
0000
,
0001
0000
0001
0000
,
0001
0001
0001
0000
,
0001
0000
0000
0000
,
1000
0000
0000
0000
,
0100
0000
0100
0000
,
0100
0100
0100
0000
,
1000
0000
0000
0000
,
0001
0000
0000
0000
,
0010
0000
0010
0000
,
0010
0010
0010
0000
,
1000
0000
0001
0000
,
0100
0100
0100
0000
,
0100
0000
0000
0000
,
0100
0000
0000
0000
,
0100
0000
0000
0000
,
0010
0010
0010
0010
;

//---------------dance-single - ----------------
#NOTEDATA:;
#CHARTNAME:;
#STEPSTYPE:dance-single;
#DESCRIPTION:;
#CHARTSTYLE:;
#DIFFICULTY:Easy;
#METER:5;
#RADARVALUES:0.226,0.227,0.043,0.183,0.000,126.000,4.000,17.000,0.000,0.000,0.000,0.000,0.000,0.226,0.227,0.043,0.183,0.000,126.000,4.000,17.000,0.000,0.000,0.000,0.000,0.000;
#CREDIT:;
#OFFSET:-0.121;
#BPMS:0.000=142.000
;
#STOPS:;
#DELAYS:;
#WARPS:;
#TIMESIGNATURES:0.000=4=4
;
#TICKCOUNTS:0.000=4
;
#COMBOS:0.000=1
;
#SPEEDS:0.000=1.000=0.000=0
;
#SCROLLS:0.000=1.000
;
#FAKES:;
#LABELS:0.000=Song Start
;
#NOTES:
0000
0000
0000
0000
,
0000
0000
0000
0000
,
0000
0000
0000
0000
,
0000
0000
0000
0000
,
0000
0000
0000
0000
,
1000
0000
0100
0000
,
1000
0001
1000
0000
,
0001
0000
0100
0000
,
0001
1000
0001
0000
,
1000
0100
1000
0000
,
0100
0100
0010
0000
,
0001
0100
0001
0000
,
0010
0010
0100
0000
,
1000
0000
0001
0000
,
1000
0001
1000
0000
,
0100
0000
0001
0000
,
0100
0010
0100
0010
,
0100
0000
1000
0000
,
0001
1000
0001
0000
,
0100
0000
0010
0000
,
0001
0100
1000
0000
,
0200
0300
0001
0000
,
0020
0030
1000
0000
,
0100
0100
1000
0000
,
0010
0010
0001
0000
,
0200
0300
1000
0000
,
0020
0030
0001
0000
,
1000
0010
0010
0000
,
0001
0100
0100
0000
,
1000
0100
0010
0001
,
1000
0000
0001
0000
,
2002
0000
0000
3003
,
0200
0300
0020
0030
,
1000
0100
1000
0000
,
1000
0001
1000
0000
,
2002
0000
0000
3003
,
0200
0300
0020
0030
,
0001
0100
0001
0000
,
0010
0100
0010
0000
,
0001
1001
0100
0100
,
0010
1000
0100
0000
,
0010
0001
1000
0001
,
0100
0001
0010
0000
,
1000
0001
0100
0100
,
0010
0001
0100
0000
,
0100
1000
0100
0001
,
0100
0010
0100
0000
,
0010
1000
0010
0001
,
0010
0010
0100
0000
,
0020
0000
0000
0030
,
2000
0000
0000
3000
,
0002
0000
0000
0003
,
2002
0000
0000
3003
;

//---------------dance-single - ----------------
#NOTEDATA:;
#CHARTNAME:;
#STEPSTYPE:dance-single;
#DESCRIPTION:;
#CHARTSTYLE:;
#DIFFICULTY:Medium;
#METER:8;
#RADARVALUES:0.352,0.370,0.215,0.172,0.000,193.000,20.000,16.000,0.000,0.000,0.000,0.000,0.000,0.352,0.370,0.215,0.172,0.000,193.000,20.000,16.000,0.000,0.000,0.000,0.000,0.000;
#CREDIT:;
#OFFSET:-0.121;
#BPMS:0.000=142.000
;
#STOPS:;
#DELAYS:;
#WARPS:;
#TIMESIGNATURES:0.000=4=4
;
#TICKCOUNTS:0.000=4
;
#COMBOS:0.000=1
;
#SPEEDS:0.000=1.000=0.000=0
;
#SCROLLS:0.000=1.000
;
#FAKES:;
#LABELS:0.000=Song Start
;
#NOTES:
0000
0000
0000
0000
,
0000
0000
0000
0000
,
0000
0000
0000
0000
,
0000
0000
0000
0000
,
0000
0000
0000
0000
,
0020
0000
1030
0000
,
0200
0000
0301
0000
,
0100
0001
0010
1000
,
0100
0010
1001
0000
,
0100
0000
1001
0000
0001
0010
0100
0000
,
1000
0000
0101
0000
0010
1000
0100
0000
,
0010
0001
1000
0010
,
0001
1000
0001
0000
,
1000
0100
1000
0000
,
1000
0100
1000
0010
,
0001
0100
0001
0000
,
0001
0000
0100
0000
1000
0100
0010
0000
,
0001
0100
0010
0000
,
0001
0100
0010
0001
,
0100
1000
0010
0001
,
1000
0010
0101
0000
,
1000
0000
0010
0100
0010
0000
0000
0000
,
1000
0000
0010
0100
0001
0000
1000
0000
,
1010
0100
0010
0001
,
0100
0000
0001
0000
1000
0100
0010
0000
,
0001
0000
0100
0010
0100
0000
0000
0000
,
0001
0000
0100
0010
1000
0000
0100
0000
,
0011
0010
1000
0001
,
0010
0100
0001
1000
,
1000
0100
0010
0000
0001
0010
0100
0000
,
1000
0001
1000
0001
1000
0001
1000
0000
,
2002
0000
0000
3003
,
0200
0000
0320
0000
,
0130
0100
0001
1000
,
0001
0010
0100
0010
0001
0000
0011
0000
,
2002
0000
0000
3003
,
0020
0000
0230
0000
,
0310
0010
0000
0001
1000
1000
0000
0010
,
0100
0010
0220
0000
,
0330
1001
1000
0010
,
0001
1000
0100
1000
0001
0000
1001
0000
,
0100
0001
1000
0100
,
0010
0001
0100
0001
0010
0000
0011
0000
,
1000
0020
1000
0130
,
0010
0100
0001
0100
0010
0000
0110
0000
,
1000
0010
0001
0010
,
1000
0010
0100
0010
1000
0000
1010
0000
,
0001
0101
1000
1100
,
0101
1100
0101
0000
,
0020
0100
0000
0100
,
2030
0100
0000
0100
,
3002
0100
0000
0100
,
1003
0100
1000
0100
1000
0100
1000
0010
;

//---------------dance-single - ----------------
#NOTEDATA:;
#CHARTNAME:;
#STEPSTYPE:dance-single;
#DESCRIPTION:;
#CHARTSTYLE:;
#DIFFICULTY:Hard;
#METER:12;
#RADARVALUES:0.446,0.455,0.215,0.194,0.140,252.000,20.000,18.000,0.000,0.000,0.000,0.000,0.000,0.446,0.455,0.215,0.194,0.140,252.000,20.000,18.000,0.000,0.000,0.000,0.000,0.000;
#CREDIT:;
#OFFSET:-0.121;
#BPMS:0.000=142.000
;
#STOPS:;
#DELAYS:;
#WARPS:;
#TIMESIGNATURES:0.000=4=4
;
#TICKCOUNTS:0.000=4
;
#COMBOS:0.000=1
;
#SPEEDS:0.000=1.000=0.000=0
;
#SCROLLS:0.000=1.000
;
#FAKES:;
#LABELS:0.000=Song Start
;
#NOTES:
0000
0000
0000
0000
,
0000
0000
0000
0000
,
0000
0000
0000
0000
,
0000
0000
0000
0000
,
0000
0000
0000
0000
,
0002
0000
0000
1000
2000
0000
3003
0000
,
0200
0000
0000
0010
0020
0000
0330
0000
,
0001
0000
0000
0001
0000
0000
0010
0000
1000
0000
0000
1000
0000
0000
0010
0000
,
0100
0001
1000
0010
0200
0000
0000
0000
,
0310
0000
1001
0000
0001
0100
0010
0000
,
1000
0100
0001
0100
0010
0001
1000
0000
,
0010
0000
0101
0000
0010
1000
0100
0000
,
0010
0000
0001
1000
0000
0001
1000
0000
0100
0000
0010
0000
0001
0000
1000
0000
,
0002
0000
0000
0000
0013
0001
1000
0000
,
0010
0100
0001
0010
,
2000
0000
0000
0000
3010
1000
0001
0000
,
0100
0010
0100
0001
1000
0010
0100
0000
,
0020
0000
0000
0000
0130
0010
1000
0000
,
0001
0010
1000
0100
,
1000
0000
0100
0000
0010
0000
0001
1000
0001
0000
0000
0000
0010
0000
0001
0000
,
1000
0001
0101
0000
,
0010
0000
0000
1000
0000
0000
0010
0000
0100
0000
0000
0000
0001
0000
1000
0000
,
0001
0000
0000
0010
0000
0000
0001
0000
0100
0000
0000
0000
0010
0000
0100
0000
,
0010
0000
1000
0000
0100
0010
0001
0100
,
0010
0000
0100
0000
0100
0010
1000
0100
,
0010
0000
0000
0001
0000
0000
0001
0000
0100
0000
0000
0000
0010
0000
1000
0000
,
0100
0000
0000
1000
0000
0000
1000
0000
0010
0000
0000
0000
0100
0000
0001
0000
,
0010
0000
0110
0000
0001
0100
1000
0010
,
0001
0000
0001
0010
1000
0100
0001
0100
,
1000
0000
0100
0000
0010
0000
0001
1000
0001
0000
0010
0000
0100
0000
1000
0000
,
0000
0001
1000
0000
0001
0000
1000
0001
0000
0100
0010
0000
0010
0100
0010
0000
,
2000
0000
0000
0000
,
3020
0000
0230
0000
,
0310
0110
1000
1001
,
1100
0000
0000
0000
0011
0000
0000
0000
1001
0000
0000
0100
0000
0000
0010
0000
,
0002
0000
0000
0000
,
0203
0000
0320
0000
,
1030
0000
0000
1100
0000
0000
0010
0000
0001
0000
0000
0101
0000
0000
0010
0000
,
1000
0000
0000
1001
0000
0000
0100
0000
0010
0000
0001
0000
1000
0100
1000
0100
,
1000
0000
1001
0000
1000
0100
0010
0000
,
0001
0100
0010
0100
1000
0000
0100
0000
,
0001
0010
1000
0000
0001
0010
1000
0000
,
0001
0100
1000
0100
0010
1000
0001
0000
,
1000
0000
1001
0000
1000
0010
0100
0000
,
0001
0010
0100
0010
1000
0000
0010
0000
,
0001
0100
1000
0000
0001
0100
1000
0000
,
0001
0010
1000
0010
0100
1000
0001
0000
,
1000
0000
0000
1010
0000
0000
0100
0000
0010
0000
0000
0011
0000
0000
0001
0000
,
1000
0000
0000
1100
0000
0000
0100
0000
0010
0000
0000
0011
0000
0000
1001
0000
,
0202
0000
0000
0300
,
2000
0000
0000
0003
,
0200
0000
0000
3300
,
1000
0000
0100
0000
0010
0000
0001
0000
0010
0000
0100
0000
1000
0100
1000
0100
;

//---------------dance-single - ----------------
#NOTEDATA:;
#CHARTNAME:;
#STEPSTYPE:dance-single;
#DESCRIPTION:;
#CHARTSTYLE:;
#DIFFICULTY:Challenge;
#METER:6;
#RADARVALUES:0.254,0.257,0.118,0.215,0.000,134.000,11.000,20.000,112.000,0.000,0.000,0.000,0.000,0.254,0.257,0.118,0.215,0.000,134.000,11.000,20.000,112.000,0.000,0.000,0.000,0.000;
#CREDIT:;
#OFFSET:-0.121;
#BPMS:0.000=142.000
;
#STOPS:;
#DELAYS:;
#WARPS:;
#TIMESIGNATURES:0.000=4=4
;
#TICKCOUNTS:0.000=4
;
#COMBOS:0.000=1
;
#SPEEDS:0.000=1.000=0.000=0
;
#SCROLLS:0.000=1.000
;
#FAKES:;
#LABELS:0.000=Song Start
;
#NOTES:
0000
0000
0000
0000
,
0000
0000
0000
0000
,
0000
0000
0000
0000
,
0000
0000
0000
0000
,
0000
0000
0000
0000
,
MMMM
0010
0010
0000
,
MMMM
0100
0100
0000
,
1001
0000
0110
0000
,
1000
0001
1000
MMMM
,
0001
0010
0001
0100
,
0010
0010
0100
0000
,
1000
0010
1000
0001
,
0100
0100
0010
MMMM
,
0002
1000
1003
0000
,
2000
0001
3001
0000
,
0020
0100
0130
0100
,
0010
1000
0001
MMMM
,
0020
0001
0031
0000
,
0200
1000
1300
0000
,
0010
MMMM
0010
MMMM
,
0010
0010
0010
0000
,
MMMM
0001
1000
0000
,
MMMM
1000
0001
0100
,
0010
0010
0001
0010
,
0100
0100
1000
0100
,
0020
0001
0031
MMMM
,
0200
1000
1300
MMMM
,
0001
0100
0100
1000
,
0010
0010
0001
MMMM
,
0001
0010
0100
1000
,
MMMM
MMMM
0010
0010
,
2002
0000
0000
3003
,
0020
0030
0200
0300
,
MMMM
0010
MMMM
0100
,
MMMM
0110
1001
MMMM
,
2002
0000
0000
3003
,
0020
0030
0200
0300
,
MMMM
0100
MMMM
0010
,
MMMM
0110
1001
0000
,
MMMM
1001
0010
0010
,
0100
0001
0010
0001
,
0100
1000
0001
1000
,
0010
1000
0100
MMMM
,
0001
1000
0010
0010
,
0100
1000
0010
0001
,
0010
0001
0010
1000
,
0010
0100
0010
MMMM
,
0100
MMMM
0010
MMMM
,
0100
0100
1001
MMMM
,
0200
0000
0010
0000
,
0302
0000
0010
0000
,
2003
0000
0010
3000
,
2002
0000
0000
3003
,
MMMM
0000
0000
0000
;

//---------------dance-double - ----------------
#NOTEDATA:;
#CHARTNAME:;
#STEPSTYPE:dance-double;
#DESCRIPTION:;
#CHARTSTYLE:;
#DIFFICULTY:Easy;
#METER:5;
#RADARVALUES:0.200,0.200,0.086,0.140,0.000,109.000,8.000,13.000,0.000,0.000,0.000,0.000,0.000,0.200,0.200,0.086,0.140,0.000,109.000,8.000,13.000,0.000,0.000,0.000,0.000,0.000;
#CREDIT:;
#OFFSET:-0.121;
#BPMS:0.000=142.000
;
#STOPS:;
#DELAYS:;
#WARPS:;
#TIMESIGNATURES:0.000=4=4
;
#TICKCOUNTS:0.000=4
;
#COMBOS:0.000=1
;
#SPEEDS:0.000=1.000=0.000=0
;
#SCROLLS:0.000=1.000
;
#FAKES:;
#LABELS:0.000=Song Start
;
#NOTES:
00000000
00000000
00000000
00000000
,
00000000
00000000
00000000
00000000
,
00000000
00000000
00000000
00000000
,
00000000
00000000
00000000
00000000
,
00000000
00000000
00000000
00000000
,
00000001
00000000
00000100
00000000
,
00001000
00000000
00000000
00000000
,
00010000
00000000
00100000
00000000
,
01000000
00000000
00000000
00000000
,
10000000
01000000
00010000
00000000
,
00001000
00010000
00001000
00000000
,
00000100
00000000
00000010
00000000
,
00000001
00000100
00001000
00000000
,
00011000
00000000
00000000
00000000
,
10010000
00000000
00000000
00000000
,
00010000
00000000
00001000
00000000
,
00000100
00000010
00000100
00000000
,
00001001
00000000
00000000
00000000
,
00011000
00000000
00000000
00000000
,
00100000
00000000
01000000
00000000
,
10000000
00010000
10000000
00000000
,
10000000
01000000
01000000
00000000
,
00010000
00000000
00001000
00000000
,
00010000
00000000
00000100
00000010
,
00000100
00000000
00001000
00000000
,
00000001
00000100
00000100
00000000
,
00001000
00000000
00010000
00000000
,
00001000
00000000
00100000
00100000
,
01000000
00000000
10000000
00000000
,
00010000
01000000
10000000
01000000
,
00010000
00000000
00001000
00000000
,
00022000
00000000
00000000
00033000
,
00000200
00000300
00000020
00000030
,
00000001
00000000
00000001
00000000
,
00000001
00000100
00001000
00000000
,
00022000
00000000
00000000
00033000
,
02000000
03000000
00200000
00300000
,
10000000
00000000
10000000
00000000
,
10000000
01000000
00010000
00000000
,
00000000
00011000
00001000
00010000
,
00000100
00001000
00000100
00000000
,
00000010
00000001
00000100
00000000
,
00000100
00001000
00010000
00000000
,
00001000
00010000
00001000
00001000
,
00100000
00010000
01000000
00000000
,
00010000
10000000
01000000
00000000
,
00100000
00010000
00001000
00000000
,
00000010
00000001
00000010
00001000
,
00000010
00000001
00001000
00000000
,
00000020
00000000
00000000
00000030
,
00000200
00000000
00000000
00000300
,
00002000
00000000
00000000
00003000
,
00022000
00000000
00000000
00000000
,
00033000
00000000
00000000
00000000
;

//---------------dance-double - ----------------
#NOTEDATA:;
#CHARTNAME:;
#STEPSTYPE:dance-double;
#DESCRIPTION:;
#CHARTSTYLE:;
#DIFFICULTY:Medium;
#METER:8;
#RADARVALUES:0.329,0.313,0.161,0.204,0.016,180.000,15.000,19.000,0.000,0.000,0.000,0.000,0.000,0.329,0.313,0.161,0.204,0.016,180.000,15.000,19.000,0.000,0.000,0.000,0.000,0.000;
#CREDIT:;
#OFFSET:-0.121;
#BPMS:0.000=142.000
;
#STOPS:;
#DELAYS:;
#WARPS:;
#TIMESIGNATURES:0.000=4=4
;
#TICKCOUNTS:0.000=4
;
#COMBOS:0.000=1
;
#SPEEDS:0.000=1.000=0.000=0
;
#SCROLLS:0.000=1.000
;
#FAKES:;
#LABELS:0.000=Song Start
;
#NOTES:
00000000
00000000
00000000
00000000
,
00000000
00000000
00000000
00000000
,
00000000
00000000
00000000
00000000
,
00000000
00000000
00000000
00000000
,
00000000
00000000
00000000
00000000
,
00000020
00000000
00000130
00000000
,
00000001
00000010
00000100
00000000
,
00020000
00000000
00031000
00000000
,
00100000
01000000
10010000
00000000
,
10000000
00000000
01000000
00000000
00100000
00010000
00100000
00000000
,
01000000
10000000
00010000
01000000
,
00001000
00000000
00010000
00000000
00000100
00001000
00000100
00000000
,
00000010
00000001
00001001
00000000
,
00000200
00000001
00000320
00000000
,
00010030
00001000
00010000
01000000
,
00200000
10000000
02300000
00000000
,
13000000
00010000
01000000
00001000
,
00020000
00000010
00032000
00000000
,
00003010
00000001
00000100
00001000
,
00020000
00100000
00032000
00000000
,
00103000
01000000
10010000
00000000
,
00100000
00000000
00000000
10000000
00010000
00000000
00000000
00000000
,
00100000
00000000
00000000
01000000
00010000
00000000
00001000
00000000
,
01001000
00010000
00001000
00000100
,
00000001
00000000
00001000
00000000
00000100
00000010
00000001
00000000
,
00000100
00000000
00000000
00000001
00001000
00000000
00000000
00000000
,
00000100
00000000
00000000
00000010
00001000
00000000
00010000
00000000
,
00010010
00001000
01000000
00100000
,
10000000
00000000
01000000
00000000
00010000
10000000
00010000
00000000
,
10000000
01000000
00010000
00000000
00001000
00000010
00000001
00000000
,
00000001
00000100
00000001
00001000
00000001
00000010
00000001
00000000
,
00002002
00000000
00000000
00000003
,
00000010
00000000
00000100
00000000
,
00003001
00000101
00000010
00000100
,
00001000
00010000
00011000
00000000
,
20020000
00000000
00000000
30000000
,
01000000
00000000
00100000
00000000
,
10030000
10000000
00000000
00000000
00010000
00010000
00000000
00000000
,
10000000
01000000
00100000
00010000
00002000
00000000
00000000
00000000
,
00003000
00000000
00011000
00000000
00010000
00001000
00000010
00000000
,
00000001
00000100
00000010
00001000
,
00000001
00001010
00001000
00000011
,
00000001
00000000
00000100
00001000
00010000
00000000
00000000
00000000
,
00010000
00000000
00011000
00000000
00001000
00010000
00100000
00000000
,
10000000
00010000
01000000
00100000
,
10000000
10010000
00100000
00011000
,
00010000
00001000
00010000
00001000
00010000
00000000
00000100
00000000
,
00000010
00000000
00000000
00000010
00000000
00000000
00000000
00000000
00000001
00000000
00000000
00000001
00000000
00000000
00000000
00000000
,
00001000
00000000
00000000
00001000
00000000
00000000
00000100
00000000
00020000
00000000
00000000
00000000
00000000
00000000
00000000
00000000
,
00032000
00100000
00000000
00103000
,
02000000
00100000
00000000
03100000
,
00020000
00001000
00000000
00031000
,
00010000
00001000
00010000
00000000
00010000
00001000
00000100
00000001
;

//---------------dance-double - ----------------
#NOTEDATA:;
#CHARTNAME:;
#STEPSTYPE:dance-double;
#DESCRIPTION:;
#CHARTSTYLE:;
#DIFFICULTY:Hard;
#METER:13;
#RADARVALUES:0.438,0.484,0.054,0.097,0.199,271.000,5.000,9.000,0.000,0.000,0.000,0.000,0.000,0.438,0.484,0.054,0.097,0.199,271.000,5.000,9.000,0.000,0.000,0.000,0.000,0.000;
#CREDIT:;
#OFFSET:-0.121;
#BPMS:0.000=142.000
;
#STOPS:;
#DELAYS:;
#WARPS:;
#TIMESIGNATURES:0.000=4=4
;
#TICKCOUNTS:0.000=4
;
#COMBOS:0.000=1
;
#SPEEDS:0.000=1.000=0.000=0
;
#SCROLLS:0.000=1.000
;
#FAKES:;
#LABELS:0.000=Song Start
;
#NOTES:
00000000
00000000
00000000
00000000
,
00000000
00000000
00000000
00000000
,
00000000
00000000
00000000
00000000
,
00000000
00000000
00000000
00000000
,
00000000
00000000
00000000
00000000
,
00010000
00000000
00000000
00010000
00000000
00000000
00100000
00000000
01000000
00000000
00000000
00000000
00000000
00000000
00000000
00000000
,
01000000
00000000
00000000
00100000
00000000
00000000
10000000
00000000
00010000
00000000
00000000
00000000
00000000
00000000
00000000
00000000
,
00100000
00000000
00000000
00100000
00000000
00000000
00001000
00000000
00010000
00000000
00000000
00010000
00000000
00000000
00000100
00000000
,
00000010
00000001
00001000
00000100
00000010
00000001
00001000
00000000
,
00000101
00000000
00000010
00000000
00000001
00000010
00001000
00000000
,
00010000
00000000
00001000
00010000
00000000
00001000
00100000
00000000
00010000
00000000
00100000
00000000
01000000
00000000
00000000
00000000
,
10000000
00000000
11000000
00000000
10000000
00100000
00010000
00000000
,
00001000
00000000
00010000
00001000
00000000
00010000
00000100
00000000
00001000
00000000
00000100
00000000
00000010
00000000
00000000
00000000
,
00000001
00000100
00001000
00000010
,
00000001
00000000
00000100
00000000
00001000
00010000
01000000
00000000
,
10000000
00100000
00010000
01000000
,
10000000
00000000
00100000
00000000
00010000
00001000
00000100
00000000
,
00000001
00000010
00001000
00000100
,
00000001
00000000
00000010
00000000
00001000
00010000
00100000
00000000
,
10000000
01000000
00010000
00100000
,
10000000
00000000
00010000
10000000
20020000
00000000
30030000
00000000
,
10000000
00000000
00000000
10000000
01000000
00000000
00100000
00000000
00010000
00000000
00000000
00000000
00010000
00000000
01000000
00000000
,
00001000
00000000
00000000
00001000
00010000
00000000
00001000
00000000
00000100
00000000
00000010
00000000
00001000
00000000
00000100
00000000
,
00000010
00000001
00000100
00001000
,
00000010
00000000
00000001
00000000
00001000
00000001
00000100
00000010
,
00001000
00000000
00000000
00001000
00000001
00000000
00000100
00000000
00000010
00000000
00000000
00000000
00000010
00000000
00000100
00000000
,
00001000
00000000
00000000
00001000
00010000
00000000
01000000
00000000
10000000
00000000
00100000
00000000
01000000
00000000
00010000
00000000
,
00100000
10000000
01000000
00010000
,
00100000
00000000
00010000
00000000
01000000
00100000
01000000
00000000
,
10000000
00000000
01000000
00000000
00100000
00000000
00001000
00010000
00001000
00000000
00010000
00000000
00000100
00000000
00000010
00000001
,
00000000
00000001
00001000
00000000
00000010
00000000
00001000
00000001
00000000
00000001
00000100
00000010
00000100
00000001
00001000
00000000
,
00000020
00000000
00000000
00000000
,
00002030
00000000
00023000
00000000
,
00130000
00000000
00000000
01000000
00100000
00000000
00000000
10000000
,
01000000
00000000
00100000
00000000
00010000
00000000
01000000
00000000
00100000
00000000
00000000
00010000
00000000
00000000
00001000
00010000
,
00002000
00000000
00000000
00000000
,
00000010
00000000
00100000
00003000
,
00000010
00000000
00000000
00001000
00000000
00000000
00010000
00000000
00100000
00000000
00000000
00010000
00000000
00000000
00001000
00000000
,
00000010
00000000
00000001
00000000
00001000
00000000
00000100
00000000
00000010
00000001
00000010
00000001
00000010
00000001
00000010
00000001
,
00000000
00000000
00001001
00000000
00000001
00000010
00000100
00000000
,
00010000
00001000
01000000
00010000
10000000
00000000
00010000
00000000
,
00100000
00000000
01000000
10000000
00000000
00000000
01000000
00000000
00100000
00000000
01000000
00010000
00000000
00000000
01000000
00000000
,
00100000
00010000
10000000
01000000
00010000
00000000
00001000
00000000
,
00010000
00000000
00011000
00000000
00100000
00001000
00010000
00000000
,
00000100
00001000
00000010
00000100
00000001
00000000
00001000
00000000
,
00000100
00000000
00000010
00000001
00000000
00000000
00000010
00000000
00000100
00000000
00000010
00001000
00000000
00000000
00000010
00000000
,
00000100
00001000
00000001
00000100
00001000
00000000
00010000
00000000
,
00001000
00000000
00100000
01000000
00000000
00000000
00100000
00000000
00001000
00000000
00010000
00001000
00000000
00000000
00010000
00000000
,
00000100
00000000
00000010
00000100
00000000
00000000
00001000
00000000
00000100
00000000
00000000
00010000
00000000
00000000
00001000
00000000
,
02000000
00010000
00000000
00010000
,
03200000
00010000
00000000
00010000
,
20300000
00010000
00000000
00010000
,
31000000
00000000
01000000
00000000
00100000
00000000
00100000
00000000
00001000
00000000
00010000
00000000
00000100
00001000
00000100
00001000
;

//---------------dance-double - ----------------
#NOTEDATA:;
#CHARTNAME:;
#STEPSTYPE:dance-double;
#DESCRIPTION:;
#CHARTSTYLE:;
#DIFFICULTY:Challenge;
#METER:6;
#RADARVALUES:0.261,0.257,0.140,0.226,0.000,136.000,13.000,21.000,216.000,0.000,0.000,0.000,0.000,0.261,0.257,0.140,0.226,0.000,136.000,13.000,21.000,216.000,0.000,0.000,0.000,0.000;
#CREDIT:;
#OFFSET:-0.121;
#BPMS:0.000=142.000
;
#STOPS:;
#DELAYS:;
#WARPS:;
#TIMESIGNATURES:0.000=4=4
;
#TICKCOUNTS:0.000=4
;
#COMBOS:0.000=1
;
#SPEEDS:0.000=1.000=0.000=0
;
#SCROLLS:0.000=1.000
;
#FAKES:;
#LABELS:0.000=Song Start
;
#NOTES:
00000000
00000000
00000000
00000000
,
00000000
00000000
00000000
00000000
,
00000000
00000000
00000000
00000000
,
00000000
00000000
00000000
00000000
,
00000000
00000000
00000000
00000000
,
MMMMMMMM
00000100
00001000
00000000
,
MMMMMMMM
00010000
01000000
00000000
,
00011000
00000000
00011000
00000000
,
00010000
00001000
00010000
MMMMMMMM
,
00001000
00000100
00001000
00000010
,
00000100
00000001
00000100
00001000
,
00010000
01000000
00100000
01000000
,
10000000
00010000
01000000
MMMMMMMM
,
20000000
01000000
31000000
00000000
,
00020000
00001000
00031000
00000000
,
00000200
00000001
00000301
00000010
,
00001000
00000010
00000001
MMMMMMMM
,
00000002
00000010
00000013
00000000
,
00002000
00010000
00013000
00000000
,
00200000
10000000
10300000
MMMMMMMM
,
01000000
01000000
01100000
00000000
,
MMMMMMMM
00100000
00001000
00000000
,
MMMMMMMM
00000010
00010000
00001000
,
00000100
00000100
00000010
00001000
,
00000001
00000010
00001000
00010000
,
00002000
00010000
00013000
MMMMMMMM
,
00200000
01000000
01300000
MMMMMMMM
,
10000000
00100000
00010000
01000000
,
00010000
00001000
00000100
MMMMMMMM
,
00000001
00000010
00000100
00001000
,
MMMMMMMM
MMMMMMMM
00010000
00001000
,
00022000
00000000
00000000
00033000
,
02000000
03000000
00200000
00300000
,
MMMMMMMM
10000000
MMMMMMMM
00010000
,
MMMMMMMM
10010000
01100000
MMMMMMMM
,
00022000
00000000
00000000
00033000
,
00000200
00000300
00000020
00000030
,
MMMMMMMM
00000001
MMMMMMMM
00001000
,
MMMMMMMM
00000110
00001001
00000000
,
MMMMMMMM
00001001
00000100
00000001
,
00000010
00000100
00010000
00001000
,
00100000
00010000
10000000
01000000
,
00010000
01000000
10000000
MMMMMMMM
,
10010000
01000000
10000000
00100000
,
01000000
00001000
00010000
00000010
,
00001000
00000001
00000100
00001000
,
00000100
00000001
00000100
MMMMMMMM
,
00001000
MMMMMMMM
00010000
MMMMMMMM
,
00001000
00010000
00011000
MMMMMMMM
,
00200000
00000000
00001000
00000000
,
00320000
00000000
00001000
00000000
,
02030000
00000000
00001000
03000000
,
20020000
00000000
00000000
00000000
00000000
00000000
00000000
30030000
,
MMMMMMMM
00000000
00000000
00000000
;

//---------------dance-single - AGEHA4----------------
#NOTEDATA:;
#CHARTNAME:;
#STEPSTYPE:dance-single;
#DESCRIPTION:AGEHA4;
#CHARTSTYLE:;
#DIFFICULTY:Edit;
#METER:15;
#RADARVALUES:0.612,0.683,0.097,0.237,0.527,367.000,9.000,22.000,0.000,0.000,0.000,0.000,0.000,0.612,0.683,0.097,0.237,0.527,367.000,9.000,22.000,0.000,0.000,0.000,0.000,0.000;
#CREDIT:;
#OFFSET:-0.121;
#BPMS:0.000=142.000
;
#STOPS:;
#DELAYS:;
#WARPS:;
#TIMESIGNATURES:0.000=4=4
;
#TICKCOUNTS:0.000=4
;
#COMBOS:0.000=1
;
#SPEEDS:0.000=1.000=0.000=0
;
#SCROLLS:0.000=1.000
;
#FAKES:;
#LABELS:0.000=Song Start
;
#NOTES:
// measure 0
0000
0000
0000
0000
,  // measure 1
0000
0000
0000
0000
,  // measure 2
0000
0000
0000
0000
,  // measure 3
0000
0000
0000
0000
,  // measure 4
0000
0000
0000
0000
0000
0000
0000
0200
,  // measure 5
1000
0000
0000
1000
0000
0000
1000
0000
1300
0000
0000
0000
0000
0000
0100
0020
,  // measure 6
0001
0000
0000
0001
0000
0000
0001
0000
0031
0000
0000
0000
0000
0000
1000
0000
,  // measure 7
0001
0000
0100
0001
0000
0000
0010
0000
1000
0000
0001
1000
0000
0000
0010
0000
,  // measure 8
0100
0000
0001
1000
0000
1000
0100
0000
0020
0000
0000
0000
0000
0000
0000
0000
,  // measure 9
1030
0000
0001
0000
0100
0001
0000
0100
0010
0000
0100
1000
0000
0100
0010
0000
,  // measure 10
0001
0000
0100
0000
0010
0001
0000
0010
0100
0000
0001
1000
0000
0100
1000
0000
,  // measure 11
0010
0000
0001
0000
1000
0010
0000
0100
0010
0000
0100
0001
0000
1000
0100
0000
,  // measure 12
0010
0000
0001
1000
0000
0001
1000
0000
0100
0000
0010
0000
0100
0000
1000
0000
,  // measure 13
0001
0000
0100
0000
1000
0000
0000
0000
0010
0000
0001
1000
0000
1000
0100
0000
,  // measure 14
0010
0000
0001
0000
0100
0000
0000
0000
0001
0000
1000
0100
0000
0100
0010
0000
,  // measure 15
0001
0000
1000
0000
0100
0000
0000
0000
1000
0000
0100
0001
0000
0001
0010
0000
,  // measure 16
0100
0010
0100
0001
0100
1000
1001
0001
,  // measure 17
0100
0000
1000
0000
0100
0000
0000
0000
0001
0000
0010
1000
0000
0100
1000
0000
,  // measure 18
0001
0000
0100
0000
0010
0000
0000
0000
1000
0000
0001
0010
0000
0001
1000
0000
,  // measure 19
0010
0000
0100
0000
0010
0000
0001
1000
0001
0000
0000
0000
1000
0000
1000
0000
,  // measure 20
0100
0000
0000
0000
0001
0000
1000
0000
0001
0000
1000
0000
0100
0000
0010
0001
,  // measure 21
0100
0000
0000
0010
0100
0000
0010
0000
0100
0000
0000
0000
0001
0000
1000
0000
,  // measure 22
0001
0000
0000
0010
0001
0000
0010
0000
0001
0000
0000
0000
0010
0000
0100
1000
,  // measure 23
0100
0000
0000
0000
1000
0000
0100
0000
0000
0000
0010
0000
0001
0000
0100
0010
,  // measure 24
0100
0000
0000
0000
0100
0000
0001
0000
0100
1000
0000
0100
0000
1000
0100
0000
,  // measure 25
0010
0000
0000
1000
0010
0000
1000
0000
0100
0000
0000
0000
0010
0000
0001
0000
,  // measure 26
0100
0000
0000
0001
0100
0000
0001
0000
0010
0000
1000
0000
0100
0000
0001
0000
,  // measure 27
0010
0000
0000
0000
0001
0000
0100
0000
1000
0000
0010
0000
0001
0000
0100
1000
,  // measure 28
0100
0000
0000
0000
0001
0000
0010
0100
0010
0000
1000
0000
0100
0000
0001
0000
,  // measure 29
0010
0001
0010
0001
1000
0100
1000
0100
0010
1000
0010
1000
0001
0100
0001
0100
,  // measure 30
0000
1000
0100
0000
0001
0000
0010
0100
0000
0001
1000
0100
0010
0100
0010
0100
,  // measure 31
2000
0000
0000
3000
,  // measure 32
2002
3003
0220
0330
,  // measure 33
0010
0000
0100
0010
0000
0000
0100
0000
1000
0000
0001
1000
0000
0000
0100
0000
,  // measure 34
1000
0100
0000
1000
0010
0000
0001
0000
1000
0000
0000
0100
0000
0000
0010
0000
,  // measure 35
0002
0023
0230
2300
,  // measure 36
3002
0203
0320
2030
,  // measure 37
3001
0000
0100
0001
0000
0000
0010
0000
1000
0000
0100
1000
0000
0000
0010
0000
,  // measure 38
0001
0000
1000
0001
0000
0000
0100
0000
0001
0100
0001
0100
0001
0100
0001
0100
,  // measure 39
0001
0000
0000
0000
1001
0000
0000
0000
1000
0100
1000
0000
0001
0000
0000
0000
,  // measure 40
0001
0100
0010
0100
0001
1000
0100
1000
,  // measure 41
0001
0000
0010
0100
0010
0000
0000
0000
1000
0000
0010
0100
0010
0000
0000
0000
,  // measure 42
1000
0000
0100
0001
0000
0001
0100
0000
0010
0000
0001
0000
1000
0000
0100
0000
,  // measure 43
0010
0000
0000
1001
0000
0000
0100
0000
1000
0000
0010
0000
0100
0000
0001
1000
,  // measure 44
0100
0000
0000
0110
0000
0000
0010
0000
1000
0000
0010
0000
0001
0000
0100
0010
,  // measure 45
1000
0000
0100
1000
0000
0000
0010
0000
0001
0000
0100
0010
0000
0000
1000
0000
,  // measure 46
0001
0000
0010
0100
0010
0000
1000
0000
0100
0000
0010
0000
0001
0000
0000
0000
,  // measure 47
1000
0000
0010
1000
0000
1000
0100
0000
0010
0000
0010
0001
0000
0001
0010
0000
,  // measure 48
1000
0000
0100
1000
0000
1000
0100
0000
0010
0000
0010
0001
0000
0001
1000
0000
,  // measure 49
0202
0000
0000
0303
,  // measure 50
2020
0000
0000
3030
,  // measure 51
2002
0000
0000
3003
,  // measure 52
0001
0100
1000
0100
0010
0001
0010
1000
0100
1000
0010
0100
0001
0010
0100
0010
;
