#VERSION:0.81;
#TITLE:Boys;
#SUBTITLE:;
#ARTIST:SMILE.dk;
#TITLETRANSLIT:;
#SUBTITLETRANSLIT:;
#ARTISTTRANSLIT:;
#GENRE:;
#ORIGIN:;
#CREDIT:;
#BANNER:Boys.png;
#BACKGROUND:Boys-bg.png;
#PREVIEWVID:;
#JACKET:;
#CDIMAGE:;
#DISCIMAGE:;
#LYRICSPATH:;
#CDTITLE:./CDTITLES/DANCEMANIA 11.PNG;
#MUSIC:Boys.mp3;
#OFFSET:-7.050;
#SAMPLESTART:13.980;
#SAMPLELENGTH:12.000;
#SELECTABLE:YES;
#DISPLAYBPM:138.000;
#BPMS:0.000=138.020;
#STOPS:;
#DELAYS:;
#WARPS:;
#TIMESIGNATURES:0.000=4=4;
#TICKCOUNTS:0.000=4;
#COMBOS:0.000=1;
#SPEEDS:0.000=1.000=0.000=0;
#SCROLLS:0.000=1.000;
#FAKES:;
#LABELS:0.000=Song Start;
#BGCHANGES:;
#KEYSOUNDS:;
#ATTACKS:
;

//---------------dance-single - ----------------
#NOTEDATA:;
#CHARTNAME:;
#STEPSTYPE:dance-single;
#DESCRIPTION:;
#CHARTSTYLE:;
#DIFFICULTY:Easy;
#METER:5;
#RADARVALUES:0.257,0.257,0.175,0.000,0.000,139.000,15.000,0.000,0.000,0.000,0.000,0.000,0.000,0.257,0.257,0.175,0.000,0.000,139.000,15.000,0.000,0.000,0.000,0.000,0.000,0.000;
#CREDIT:;
#OFFSET:-7.050;
#BPMS:0.000=138.020
;
#STOPS:;
#DELAYS:;
#WARPS:;
#TIMESIGNATURES:0.000=4=4
;
#TICKCOUNTS:0.000=4
;
#COMBOS:0.000=1
;
#SPEEDS:0.000=1.000=0.000=0
;
#SCROLLS:0.000=1.000
;
#FAKES:;
#LABELS:0.000=Song Start
;
#DISPLAYBPM:138.000;
#NOTES:
0000
0000
0000
0000
,
0000
0000
0000
0000
,
0010
0000
0010
0000
,
0001
1000
0100
0000
,
0010
0001
0010
1000
,
1001
0000
0010
0100
,
0010
0001
0010
1000
,
1001
0000
0100
0010
,
0100
1000
0100
0001
,
1001
0000
0100
0010
,
0100
1000
0100
0000
,
1001
0000
0110
0000
,
0010
0100
0010
0000
,
0010
1000
0100
0000
,
1000
0100
1000
0010
,
0100
0001
0000
0000
,
1000
0000
0001
0000
,
0010
0100
1000
0000
,
0100
0001
0100
1000
,
0010
0001
0000
0000
,
0010
0001
1000
0100
,
0010
0100
1000
0000
,
0010
0100
0010
0110
,
0001
0010
0100
1001
,
0010
0001
0010
1000
,
1001
0000
0010
0100
,
0010
0001
1000
0100
,
1001
0000
0010
0100
,
0100
0001
0100
1000
,
1001
0000
0100
0010
,
1000
0100
0001
0000
,
0010
0001
1000
1001
,
0000
0000
0010
0000
,
0010
0100
1000
0000
,
0010
0001
0100
1000
,
0001
0010
0100
1000
,
0010
0001
0010
1000
,
1001
0000
0010
0100
,
0010
0001
0010
1000
,
1001
0000
0100
0010
,
0100
1000
0100
0001
,
1001
0000
0100
0010
,
0100
1000
0100
0100
,
0010
0001
0100
1000
,
1001
0000
0000
0000
;

//---------------dance-single - ----------------
#NOTEDATA:;
#CHARTNAME:;
#STEPSTYPE:dance-single;
#DESCRIPTION:;
#CHARTSTYLE:;
#DIFFICULTY:Medium;
#METER:6;
#RADARVALUES:0.300,0.257,0.257,0.000,0.006,158.000,22.000,0.000,0.000,0.000,0.000,0.000,0.000,0.300,0.257,0.257,0.000,0.006,158.000,22.000,0.000,0.000,0.000,0.000,0.000,0.000;
#CREDIT:;
#OFFSET:-7.050;
#BPMS:0.000=138.020
;
#STOPS:;
#DELAYS:;
#WARPS:;
#TIMESIGNATURES:0.000=4=4
;
#TICKCOUNTS:0.000=4
;
#COMBOS:0.000=1
;
#SPEEDS:0.000=1.000=0.000=0
;
#SCROLLS:0.000=1.000
;
#FAKES:;
#LABELS:0.000=Song Start
;
#DISPLAYBPM:138.000;
#NOTES:
0000
0000
0000
0000
,
0000
0000
0000
0000
,
0010
0100
0010
0100
,
0001
0100
1000
0000
,
0010
0001
0011
1000
,
1100
0000
0000
0000
0010
0010
0100
0000
,
0010
0001
0011
1000
,
1100
0000
0000
0000
0100
0100
0010
0000
,
0100
1000
1100
0001
,
0101
0000
0000
0000
0100
0100
0010
0000
,
0100
1000
0100
0000
,
0010
0100
0110
0000
,
0010
0100
0010
0100
,
0010
1000
0100
0000
,
1000
0100
1000
0010
,
0001
0100
1000
0000
,
1000
0100
0001
0010
,
0001
0001
1000
0000
,
0100
0001
0100
1000
,
0010
0100
0001
0000
,
0010
0001
1000
0100
,
0010
0000
0000
1000
0000
0000
0100
0000
0000
0000
0000
0000
0000
0000
0000
0000
,
0010
0100
0010
0110
,
0001
0010
0100
1001
,
0010
0001
0011
1000
,
1100
0000
0000
0000
0010
0010
0100
0000
,
0010
0001
1000
0100
,
1001
0000
0000
0000
0010
0010
0100
0000
,
0100
0001
0101
1000
,
1100
0000
0000
0000
0100
0100
0010
0000
,
1000
0100
0001
0000
,
0010
0100
0110
0000
,
0010
0100
0010
0001
,
0010
0100
1000
0000
,
0010
0001
0100
1000
,
0001
0010
0100
1000
,
0010
1000
1010
0001
,
0101
0000
0000
0000
0010
0010
0100
0000
,
0010
0001
0011
1000
,
1100
0000
0000
0000
0100
0100
0010
0000
,
0100
1000
1100
0001
,
0101
0000
0000
0000
0100
0100
0010
0000
,
0100
1000
0100
0100
,
0010
1000
0001
0100
,
1001
0000
0000
0000
;

//---------------dance-single - ----------------
#NOTEDATA:;
#CHARTNAME:;
#STEPSTYPE:dance-single;
#DESCRIPTION:;
#CHARTSTYLE:;
#DIFFICULTY:Hard;
#METER:10;
#RADARVALUES:0.411,0.333,0.455,0.000,0.006,208.000,39.000,0.000,0.000,0.000,0.000,0.000,0.000,0.411,0.333,0.455,0.000,0.006,208.000,39.000,0.000,0.000,0.000,0.000,0.000,0.000;
#CREDIT:;
#OFFSET:-7.050;
#BPMS:0.000=138.020
;
#STOPS:;
#DELAYS:;
#WARPS:;
#TIMESIGNATURES:0.000=4=4
;
#TICKCOUNTS:0.000=4
;
#COMBOS:0.000=1
;
#SPEEDS:0.000=1.000=0.000=0
;
#SCROLLS:0.000=1.000
;
#FAKES:;
#LABELS:0.000=Song Start
;
#DISPLAYBPM:138.000;
#NOTES:
0000
0000
0000
0000
,
0000
0000
0000
0000
,
0010
0100
0010
0100
,
0001
0001
1000
1000
0110
0000
1001
0000
,
0010
0000
1001
0000
0001
0010
1000
0000
,
1001
0000
0010
0000
1000
0010
0001
0000
,
0010
0000
0001
0000
0011
0100
1000
0000
,
1100
0000
0000
0000
0100
0100
0010
1001
,
0100
1000
1100
0001
,
0101
0000
0000
0000
0100
0100
0010
1001
,
0100
1001
0110
0000
,
0010
0000
0100
0000
0010
1001
0100
1000
,
0010
0000
0100
0000
1000
0001
0100
0000
,
0010
0000
1000
0001
0100
0000
0000
0000
,
1000
0000
0100
0000
1000
0001
0010
0000
,
0001
1000
0100
1000
0100
0001
0100
0001
,
1000
0000
0100
0000
0001
1000
0010
0000
,
0001
0000
0001
0000
1000
0001
1000
0000
,
0100
0000
0001
0000
0100
0001
1000
0000
,
0010
0000
0100
0000
0001
1000
0100
0000
,
0010
0001
1000
0100
,
0010
0000
0000
1000
0000
0000
0100
0000
0000
0000
0000
0000
0000
0000
0000
0000
,
0010
0100
1001
0110
,
0001
0010
0100
1001
,
0010
0000
1001
0000
0001
0100
1000
0000
,
1001
0000
0010
0000
1000
0100
0001
0000
,
0010
0000
0001
0000
0011
0100
1000
0000
,
1100
0000
0000
0000
0010
0010
0100
1001
,
0100
1000
1100
0001
,
0101
0000
0000
0000
0100
0100
0010
1001
,
0100
1001
0110
0000
,
0010
0000
0100
0000
0010
1001
0100
1000
,
0010
0000
0100
0000
1000
0001
0100
0001
,
0100
0000
1000
0001
1000
0001
1000
0000
,
0100
0000
0010
0000
0100
0001
1000
0100
,
0010
0000
1001
0000
1000
0100
0001
0100
,
0010
0000
1000
0000
1100
1000
1001
0000
,
0100
0000
0000
0000
0010
0010
0100
1001
,
0010
0000
0001
0000
0011
0001
1001
0000
,
0100
0000
0000
0000
0100
0100
0010
1001
,
0100
1000
1100
0001
,
0101
0000
0000
0000
0100
0100
0010
1001
,
0100
0000
1000
0000
0001
0100
1000
0100
,
0010
0000
1001
0000
1000
0010
0001
0000
,
1001
0000
0000
0000
;

//---------------dance-double - ----------------
#NOTEDATA:;
#CHARTNAME:;
#STEPSTYPE:dance-double;
#DESCRIPTION:;
#CHARTSTYLE:;
#DIFFICULTY:Easy;
#METER:5;
#RADARVALUES:0.275,0.231,0.198,0.000,0.000,148.000,17.000,0.000,0.000,0.000,0.000,0.000,0.000,0.275,0.231,0.198,0.000,0.000,148.000,17.000,0.000,0.000,0.000,0.000,0.000,0.000;
#CREDIT:;
#OFFSET:-7.050;
#BPMS:0.000=138.020
;
#STOPS:;
#DELAYS:;
#WARPS:;
#TIMESIGNATURES:0.000=4=4
;
#TICKCOUNTS:0.000=4
;
#COMBOS:0.000=1
;
#SPEEDS:0.000=1.000=0.000=0
;
#SCROLLS:0.000=1.000
;
#FAKES:;
#LABELS:0.000=Song Start
;
#DISPLAYBPM:138.000;
#NOTES:
00000000
00000000
00000000
00000000
,
00000000
00000000
00000000
00000000
,
00100000
00100000
00100000
00100000
,
00100000
01000000
10010000
00000000
,
00100000
10000000
00100000
00010000
,
10010000
00000000
00010000
00001000
,
00000010
00000001
00000010
00001000
,
00001001
00000000
00001000
00010000
,
01000000
10000000
01000000
00010000
,
10010000
00000000
00010000
00001000
,
00000100
00000001
00000100
00001000
,
00001001
00000010
00000110
00000000
,
00000010
00000010
00000100
00000100
,
00000001
00000100
00001000
00000000
,
00010000
00000000
00100000
00000000
,
10000000
00000000
00010000
00000000
,
00100000
00100000
01000000
01000000
,
00100000
01000000
00010000
00000000
,
00001000
00001000
00000010
00000010
,
00000001
00000001
00000001
00000000
,
00000010
00000001
00000100
00001000
,
00010000
10000000
10010000
00000000
,
00100000
00100000
10000000
01000000
,
00010000
00010000
00001000
00000100
,
00000010
00000001
00000010
00001000
,
00001001
00000000
00001000
00010000
,
00100000
10000000
00100000
00010000
,
10010000
00000000
00010000
00001000
,
00000100
00000001
00000100
00001000
,
00001001
00000000
00001000
00010000
,
01000000
10000000
01000000
00010000
,
10010000
00100000
01100000
00000000
,
00100000
00100000
10000000
10000000
,
01000000
01000000
00010000
00010000
,
00001000
00001000
00000100
00000100
,
00000001
00000001
00000100
00001000
,
00000010
00000001
00000010
00001000
,
00001001
00000000
00010000
00001000
,
00000010
00000001
00000010
00001000
,
00001001
00000000
00001000
00010000
,
01000000
10000000
01000000
00010000
,
10010000
00000000
00010000
00001000
,
00000100
00000001
00000100
00001000
,
00001001
00000100
00000010
00000000
,
00000110
00000000
00000000
00000000
;

//---------------dance-double - ----------------
#NOTEDATA:;
#CHARTNAME:;
#STEPSTYPE:dance-double;
#DESCRIPTION:;
#CHARTSTYLE:;
#DIFFICULTY:Medium;
#METER:6;
#RADARVALUES:0.320,0.257,0.350,0.000,0.000,162.000,30.000,0.000,0.000,0.000,0.000,0.000,0.000,0.320,0.257,0.350,0.000,0.000,162.000,30.000,0.000,0.000,0.000,0.000,0.000,0.000;
#CREDIT:;
#OFFSET:-7.050;
#BPMS:0.000=138.020
;
#STOPS:;
#DELAYS:;
#WARPS:;
#TIMESIGNATURES:0.000=4=4
;
#TICKCOUNTS:0.000=4
;
#COMBOS:0.000=1
;
#SPEEDS:0.000=1.000=0.000=0
;
#SCROLLS:0.000=1.000
;
#FAKES:;
#LABELS:0.000=Song Start
;
#DISPLAYBPM:138.000;
#NOTES:
00000000
00000000
00000000
00000000
,
00000000
00000000
00000000
00000000
,
00100000
00100000
10000000
01000000
,
00000000
00100000
01000000
00100000
,
10000000
01000000
00010000
00100000
,
10100000
01010000
00010000
00001000
,
00000001
00000100
00001000
00000010
,
00000011
00001100
00001000
00010000
,
10000000
01000000
00010000
00100000
,
10100000
01010000
00010000
00001000
,
00000001
00000100
00001000
00000010
,
00000011
00001100
00001000
00010000
,
00100000
01000000
00010000
00001000
,
00000100
00000001
00000010
00000000
,
00001000
00010000
00100000
01000000
,
00100000
01000000
00100000
00000000
,
00100000
01000000
00010000
00001000
,
00000100
00000001
00000010
00000000
,
00001000
00010000
00100000
10000000
,
01000000
00100000
00010000
00000000
,
00100000
01000000
00010000
10010000
,
10000000
01000000
00010000
00001000
,
00000010
00000100
00001000
00010000
,
00100000
01100000
10000000
10010000
,
10000000
01000000
00010000
00100000
,
10100000
01010000
00010000
00001000
,
00000001
00000100
00001000
00000010
,
00000011
00001100
00001000
00010000
,
10000000
01000000
00010000
00100000
,
10100000
01010000
00010000
00001000
,
00000001
00000100
00001000
00000010
,
00000011
00001100
00001000
00010000
,
00100000
10000000
00100000
00010000
,
10010000
00000000
00010000
00001000
,
00000010
00001000
00000010
00000001
,
00001001
00000000
00001000
00010000
,
10000000
01000000
00010000
00100000
,
10100000
01010000
00010000
00001000
,
00000001
00000100
00001000
00000010
,
00000011
00001100
00001000
00010000
,
10000000
01000000
00010000
00100000
,
10100000
01010000
00010000
00001000
,
00000001
00000100
00001000
00000010
,
00000011
00001100
00001000
00000100
,
00000110
00000000
00000000
00000000
;

//---------------dance-single - ----------------
#NOTEDATA:;
#CHARTNAME:;
#STEPSTYPE:dance-single;
#DESCRIPTION:;
#CHARTSTYLE:;
#DIFFICULTY:Challenge;
#METER:13;
#RADARVALUES:0.555,0.513,0.175,0.000,0.315,318.000,15.000,0.000,0.000,0.000,0.000,0.000,0.000,0.555,0.513,0.175,0.000,0.315,318.000,15.000,0.000,0.000,0.000,0.000,0.000,0.000;
#CREDIT:;
#OFFSET:-7.050;
#BPMS:0.000=138.020
;
#STOPS:;
#DELAYS:;
#WARPS:;
#TIMESIGNATURES:0.000=4=4
;
#TICKCOUNTS:0.000=4
;
#COMBOS:0.000=1
;
#SPEEDS:0.000=1.000=0.000=0
;
#SCROLLS:0.000=1.000
;
#FAKES:;
#LABELS:0.000=Song Start
;
#DISPLAYBPM:138.000;
#NOTES:
0000
0000
0000
0000
,
0000
0000
0000
0000
,
0010
0001
0100
0000
1000
0100
0001
0000
0010
0100
1000
0000
0100
0001
0100
0000
,
1000
1000
0010
0001
1001
0000
0110
0000
,
0001
0000
0001
0000
0010
0000
0010
0000
0100
1000
0010
0000
0100
0000
0100
0000
,
0001
0000
0001
0000
0010
0000
0010
0000
0100
0000
0100
0000
1000
0010
0001
0000
,
0010
0000
0010
0000
1000
0000
1000
0000
0100
0010
1000
0000
0010
0000
0010
0000
,
0001
0001
0100
0100
0010
0010
1000
0000
,
0001
0000
0010
0000
0001
0000
0100
0000
0010
1000
0100
0000
0010
0000
0010
0000
,
0001
0000
0100
0000
0001
0000
1000
0000
0001
0000
0010
0000
0100
1000
0001
0000
,
0100
0000
0010
0000
1000
0000
0100
0000
0010
0001
0100
0000
0010
0000
1000
0000
,
0001
0010
1000
0010
0001
0000
0110
0000
,
0001
0000
0001
0000
1000
0100
0000
0000
0001
0000
0001
0000
1000
0100
0000
0000
,
0001
0000
0001
0000
1000
0100
0000
0000
0001
0100
0000
0000
0000
0000
0000
0000
,
1000
0010
0001
0100
1000
0001
0100
0000
,
0010
0000
0000
1000
0000
0000
0100
0000
0010
0000
0000
0001
0000
0000
0100
0000
,
0010
0000
0010
0000
1000
0001
0000
0000
0010
0000
0010
0000
1000
0001
0000
0000
,
0010
0000
0010
0000
1000
0001
0000
0000
0010
0100
0000
0000
0000
0000
0000
0000
,
1000
0010
0100
0001
0010
0100
1000
0000
,
0001
0000
0000
0100
0000
0000
1000
0000
0100
0000
0000
0001
0000
0000
0010
0000
,
0100
1000
0000
0100
1000
0000
0000
0000
0001
0100
0000
0001
0100
0000
0000
0000
,
1000
0010
0000
1000
0010
0000
0100
0000
0000
0000
1001
0000
0000
0000
0000
0000
,
0100
0000
0100
0000
0010
0100
0000
0000
0001
0000
1000
0000
0100
0000
0000
0000
,
0010
0000
0010
0000
0001
0100
0000
0000
0010
0000
1000
0000
0001
0000
0100
0000
,
0010
0010
1000
1000
0100
0100
0010
0010
,
0001
0000
0001
0000
1000
0100
0000
0010
0001
0000
0001
0000
1000
0100
0000
0010
,
0001
0001
0100
0100
0010
0010
1000
1000
,
0001
0000
0001
0000
0010
0100
0000
1000
0001
0000
0001
0000
0010
0100
0000
1000
,
0010
0010
0100
0100
0001
0001
1000
1000
,
0100
0000
0100
0000
0010
0001
0000
1000
0100
0000
0100
0000
0010
0001
0000
1000
,
0100
0100
0000
1001
0000
0110
0000
0001
,
0010
0100
1000
0001
0100
0000
1001
0000
,
0010
0000
0100
0000
1000
0001
0100
0000
,
0010
1000
0001
0010
0000
1001
0000
0000
,
0100
0000
0010
0000
0001
0100
0010
0000
,
1000
0001
0010
0100
0000
1001
0000
0000
,
0010
0010
0100
0100
1000
1000
0001
0001
,
0100
0010
0000
0100
0010
0000
1000
0000
0001
0010
0000
0001
0010
0000
0100
0000
,
1000
1000
0001
0001
0100
0100
0010
0010
,
1000
0001
0000
1000
0001
0000
0100
0000
0010
1000
0000
0010
1000
0000
0100
0000
,
0010
0010
0001
0001
0100
0100
0010
0010
,
1000
0100
0000
1000
0100
0000
0010
0000
0001
0100
0000
0001
0100
0000
0010
0000
,
1000
1000
0000
0101
0000
1100
0000
1001
,
0000
0010
0100
1000
1010
0000
0101
0000
,
1001
0000
0000
0000
;

//---------------dance-double - ----------------
#NOTEDATA:;
#CHARTNAME:;
#STEPSTYPE:dance-double;
#DESCRIPTION:;
#CHARTSTYLE:;
#DIFFICULTY:Hard;
#METER:8;
#RADARVALUES:0.351,0.308,0.233,0.000,0.000,191.000,20.000,0.000,0.000,0.000,0.000,0.000,0.000,0.351,0.308,0.233,0.000,0.000,191.000,20.000,0.000,0.000,0.000,0.000,0.000,0.000;
#CREDIT:;
#OFFSET:-7.050;
#BPMS:0.000=138.020
;
#STOPS:;
#DELAYS:;
#WARPS:;
#TIMESIGNATURES:0.000=4=4
;
#TICKCOUNTS:0.000=4
;
#COMBOS:0.000=1
;
#SPEEDS:0.000=1.000=0.000=0
;
#SCROLLS:0.000=1.000
;
#FAKES:;
#LABELS:0.000=Song Start
;
#DISPLAYBPM:138.000;
#NOTES:
00000000
00000000
00000000
00000000
,
00000000
00000000
00000000
00000000
,
00000001
00000000
00000100
00000000
00000010
00001000
00000100
00000000
,
00010000
00001000
01000000
00010000
10000000
00000000
01100000
00000000
,
00001000
00010000
00000100
00000010
,
00001001
00000000
00000000
00000000
00000100
00010000
00010000
00000000
,
00001000
01000000
00010000
10000000
,
01100000
00000000
00000000
00000000
00001000
00010000
00000100
00000000
,
00000010
00000001
00000100
00000010
,
00001001
00000000
00000000
00000000
00000100
00010000
00001000
00000000
,
00100000
01000000
10010000
00000000
,
00100000
01000000
00001000
00010000
00000100
00000000
00000000
00000000
,
00000010
00000001
00000100
00000010
,
00001000
00000100
00000010
00000000
00001001
00000000
00000000
00000000
,
00000100
00000000
00010000
00000000
00001000
01000000
00100000
10000000
,
00000000
01010000
00000000
00000000
00000000
00000000
00000000
00000000
,
10000000
00000000
01000000
00000000
00100000
00001000
00010000
00000000
,
00000100
00001000
00000001
00000000
00000110
00000000
00000000
00000000
,
00001000
00000000
00000100
00000000
00010000
00001000
01000000
00010000
,
00000000
11000000
00000000
00000000
00000000
00000000
00000000
00000000
,
00100000
00010000
01000000
00000000
00001000
00010000
00000100
00000000
,
00000010
00000001
00000100
00000000
00001100
00000000
00000000
00000000
,
00000010
00010000
00000100
00000000
00001000
00000010
00000100
00000000
,
00000001
00001000
00000100
00000000
00010000
00001000
01000000
00000000
,
00100000
00000000
10000000
00000000
01000000
00100000
00010000
00000000
,
11000000
00000000
00000000
00000000
00100000
00001000
00010000
00000000
,
00000100
00000000
00000010
00000000
00000001
00001000
00000100
00000000
,
00000011
00000000
00000000
00000000
00001000
00000100
00010000
00000000
,
00001000
00000000
01000000
00000000
00100000
10000000
01000000
00000000
,
00110000
00000000
00000000
00000000
01000000
00001000
00010000
00000000
,
00001010
00000100
00000001
00000000
,
00000010
00000100
00001000
00000010
00010000
00000000
00000000
00000000
,
00001000
00000000
01000000
00000000
00100000
10000000
01000000
00100000
,
00010000
00000000
01000000
00000000
00001000
00010000
00001000
00000000
,
00010000
00000000
00000100
00000000
00000010
00000001
00000100
00000010
,
00001000
00000000
00000100
00000000
00010000
00001000
00010000
00000000
,
00000100
00000000
00000010
00000000
00000001
00000100
00000010
00000000
,
00001001
00000000
00000000
00000000
00000010
00010000
00001000
00000000
,
01000000
00000000
00100000
00000000
10000000
01000000
00100000
00000000
,
10010000
00000000
00100000
01000000
00001000
00000000
00010000
00000000
,
00000100
00000000
00000010
00000000
00000001
00000100
00000010
00000000
,
00001001
00000000
00000000
00000000
00000100
00000010
00010000
00000000
,
00011000
01000000
00100000
00000000
,
10000000
01000000
00010000
00001000
00000100
00000000
00001001
00000000
,
00000110
00000000
00000000
00000000
;

//---------------dance-double - ----------------
#NOTEDATA:;
#CHARTNAME:;
#STEPSTYPE:dance-double;
#DESCRIPTION:;
#CHARTSTYLE:;
#DIFFICULTY:Challenge;
#METER:11;
#RADARVALUES:0.453,0.462,0.035,0.000,0.157,269.000,3.000,0.000,0.000,0.000,0.000,0.000,0.000,0.453,0.462,0.035,0.000,0.157,269.000,3.000,0.000,0.000,0.000,0.000,0.000,0.000;
#CREDIT:;
#OFFSET:-7.050;
#BPMS:0.000=138.020
;
#STOPS:;
#DELAYS:;
#WARPS:;
#TIMESIGNATURES:0.000=4=4
;
#TICKCOUNTS:0.000=4
;
#COMBOS:0.000=1
;
#SPEEDS:0.000=1.000=0.000=0
;
#SCROLLS:0.000=1.000
;
#FAKES:;
#LABELS:0.000=Song Start
;
#DISPLAYBPM:138.000;
#NOTES:
00000000
00000000
00000000
00000000
,
00000000
00000000
00000000
00000000
,
00100000
10000000
01000000
00000000
00100000
00010000
01000000
00000000
,
00001000
00010000
00000100
00001000
00000001
00000000
00000110
00000000
,
00000001
00000000
00000100
00000000
00001000
00010000
00001000
00000000
,
00010000
00000000
01000000
00000000
10000000
00000000
01000000
00100000
00000000
01000000
00100000
00000000
00010000
00000000
01000000
00000000
,
00010000
00000000
10000000
00000000
00100000
01000000
00010000
00000000
,
00100000
00000000
00001000
00000000
00010000
00000000
00000010
00001000
00000000
00000010
00000100
00000000
00000001
00000000
00001000
00000000
,
00000100
00000000
00000010
00000000
00000001
00001000
00000100
00000000
,
00000010
00000000
00001000
00000000
00010000
00000000
00001000
00100000
00000000
00001000
00010000
00000000
01000000
00000000
00100000
00000000
,
00010000
00000000
10000000
00000000
,
00100000
10000000
00100000
01000000
00100000
00000000
00000000
00000000
,
00100000
10000000
01000000
00000000
00100000
00010000
01000000
00000000
,
00001000
00010000
00000010
00001000
00000100
00000000
00000010
00000000
,
00000001
00001000
00000010
00000000
00000100
00000001
00001000
00000100
,
00000000
00010000
00001000
00000000
01000000
00000000
00010000
00000000
,
00100000
00010000
01000000
00000000
00100000
10000000
01000000
00000000
,
00100000
00001000
00010000
00000100
00001000
00000000
00000001
00000000
,
00000100
00000010
00001000
00000000
00000001
00000100
00001000
00000100
,
00000000
00000101
00000000
00000000
00001000
00000000
00000010
00000000
,
00000100
00000010
00000100
00000010
00010000
00001000
00100000
01000000
,
00100000
00000000
00000000
00010000
00000000
00000000
01000000
00000000
00000000
00000000
00000000
00000000
00100000
00000000
00000000
00000000
,
10000000
00010000
10000000
00010000
01000000
00100000
10000000
01000000
,
00100000
01000000
00010000
00001000
00000010
00000001
00001000
00000000
,
00000001
00000000
00000100
00000000
00001000
00010000
00001000
00000000
,
00010000
00000000
01000000
00000000
10000000
00000000
01000000
00100000
00000000
01000000
00100000
00000000
00010000
00000000
01000000
00000000
,
00010000
00000000
10000000
00000000
00100000
01000000
00010000
00000000
,
00100000
00000000
00001000
00000000
00010000
00000000
00000010
00001000
00000000
00000010
00000100
00000000
00000001
00000000
00001000
00000000
,
00000100
00000000
00000010
00000000
00000001
00001000
00000100
00000000
,
00000010
00000000
00001000
00000000
00010000
00000000
00001000
00100000
00000000
00001000
00010000
00000000
01000000
00000000
00100000
00000000
,
00010000
00000000
10000000
00000000
,
00100000
10000000
00100000
01000000
00100000
00000000
00000000
00000000
,
10000000
00000000
01000000
00000000
00100000
00000000
00010000
00100000
00000000
00010000
00100000
00000000
00001000
00000000
00010000
00000000
,
00000010
00000000
00001000
00000000
00000001
00000000
00000010
00000100
00000000
00000010
00000100
00000000
00001000
00000000
00000001
00000000
,
00000100
00000000
00000010
00000000
00010000
00000000
00000100
00001000
00000000
00000100
00001000
00000000
00000100
00000000
00000010
00000000
,
00000001
00000000
00001000
00000000
00000100
00000000
00010000
00001000
00000000
00100000
00010000
00000000
01000000
00000000
00100000
00000000
,
10000000
00000000
01000000
00000000
00010000
00001000
00010000
00000000
,
00001000
00000000
00000100
00000000
00000001
00000000
00000100
00000010
00000000
00000100
00000010
00000000
00001000
00000000
00000100
00000000
,
00001000
00000000
00000001
00000000
00000010
00000100
00001000
00000000
,
00000010
00000000
00010000
00000000
00001000
00000000
00100000
00010000
00000000
00100000
01000000
00000000
10000000
00000000
00010000
00000000
,
01000000
00000000
00100000
00000000
10000000
00010000
01000000
00000000
,
00100000
00000000
00010000
00000000
00001000
00000000
00010000
00000010
00000000
00010000
00001000
00000000
00000100
00000000
00000010
00000000
,
00001000
00000000
00000001
00000000
,
00000010
00000001
00000010
00001000
00010000
00000000
00001000
00000000
,
00011000
00000000
00000000
00000000
;

//---------------dance-couple - ----------------
#NOTEDATA:;
#CHARTNAME:;
#STEPSTYPE:dance-couple;
#DESCRIPTION:;
#CHARTSTYLE:;
#DIFFICULTY:Easy;
#METER:3;
#RADARVALUES:0.245,0.257,0.198,0.000,0.000,130.000,17.000,0.000,0.000,0.000,0.000,0.000,0.000,0.248,0.257,0.222,0.000,0.000,130.000,19.000,0.000,0.000,0.000,0.000,0.000,0.000;
#CREDIT:;
#OFFSET:-7.050;
#BPMS:0.000=138.020
;
#STOPS:;
#DELAYS:;
#WARPS:;
#TIMESIGNATURES:0.000=4=4
;
#TICKCOUNTS:0.000=4
;
#COMBOS:0.000=1
;
#SPEEDS:0.000=1.000=0.000=0
;
#SCROLLS:0.000=1.000
;
#FAKES:;
#LABELS:0.000=Song Start
;
#DISPLAYBPM:138.000;
#NOTES:
00000000
00000000
00000000
00000000
,
00000000
00000000
00000000
00000000
,
00100010
01000100
00100010
00011000
,
00011000
10000001
01000100
00000000
,
00100001
00010100
00101000
10000010
,
10010110
00000000
00100000
01000000
,
00101000
00010010
00100001
10000010
,
10010110
00000000
00000100
00000010
,
01000000
10000000
01001000
00010010
,
10010110
00000000
01001000
00100000
,
01000001
10000000
01001000
00010010
,
10010110
00100000
01101001
00000000
,
00100010
00000100
00100010
00000001
,
00100010
00011000
01000100
00000000
,
10000010
01000000
10001000
00100000
,
01000100
00000010
00000001
00000000
,
01000100
10000000
00010000
00100000
,
10001000
00000010
00000001
00000010
,
00100000
00011000
01000000
10011001
,
00000010
00000001
01000100
00001000
,
00100010
00010001
01000100
10000000
,
10000010
01000100
00001001
01000000
,
00011000
01000001
00100100
01101001
,
00010001
00100010
01000100
10011001
,
00010010
00000001
00010010
00101000
,
01101001
00000010
00010001
00000000
,
10000001
00000010
10000110
00100000
,
01100001
00000100
01001000
00100000
,
00001000
10000010
00000110
00100000
,
01100100
00000010
10000001
00100000
,
00011000
00001000
00010110
00100000
,
01101000
00000100
10010001
10000000
,
10011000
01000010
00100110
10000000
,
00011001
01001000
10000000
10000000
,
00100010
00010001
01000100
00011000
,
00001000
00000110
10000001
01000100
,
00100010
00011000
00100010
10000000
,
10010000
00000100
00100010
01001000
,
00100001
00010010
00100001
10000010
,
10010110
00000000
01000100
00100010
,
00000100
00001000
10000000
00000001
,
10001001
00000000
01000010
00101000
,
01000100
00000001
01000100
01000100
,
00100000
00010001
01000100
10001000
,
10011001
00000000
00000000
00000000
;

//---------------dance-couple - ----------------
#NOTEDATA:;
#CHARTNAME:;
#STEPSTYPE:dance-couple;
#DESCRIPTION:;
#CHARTSTYLE:;
#DIFFICULTY:Medium;
#METER:4;
#RADARVALUES:0.265,0.257,0.117,0.000,0.006,149.000,10.000,0.000,0.000,0.000,0.000,0.000,0.000,0.275,0.257,0.187,0.000,0.006,149.000,16.000,0.000,0.000,0.000,0.000,0.000,0.000;
#CREDIT:;
#OFFSET:-7.050;
#BPMS:0.000=138.020
;
#STOPS:;
#DELAYS:;
#WARPS:;
#TIMESIGNATURES:0.000=4=4
;
#TICKCOUNTS:0.000=4
;
#COMBOS:0.000=1
;
#SPEEDS:0.000=1.000=0.000=0
;
#SCROLLS:0.000=1.000
;
#FAKES:;
#LABELS:0.000=Song Start
;
#DISPLAYBPM:138.000;
#NOTES:
00000000
00000000
00000000
00000000
,
00000000
00000000
00000000
00000000
,
00100010
01000100
00100010
01000100
,
00011000
01000100
10000001
00000000
,
00100010
00011000
00101010
10000001
,
01000101
00000000
00000000
00000000
00100010
00100000
01000100
00000000
,
00100010
00011000
00101010
10000001
,
01000101
00000000
00000000
00000000
01000100
01000000
00100010
00000000
,
01000100
10000001
01000101
00011000
,
01001100
00000000
00000000
00000000
01000100
01000000
00100010
00000000
,
01000100
10000001
01000100
00000000
,
00100010
01000010
01100100
00000000
,
00100000
00000100
00100000
00000100
,
00100000
10000001
01000100
00000010
,
10000001
01000100
10000001
00100010
,
00011000
01000100
10000001
00000000
,
00000001
01000100
00001000
01000010
,
00001000
00011000
01000001
00000000
,
00010100
01001000
00010100
00100001
,
10000010
01000100
00011000
00000000
,
00100010
00011000
10000001
01000100
,
00100010
00000000
00000000
10000100
00000000
00000000
01000100
00000000
00000000
00000000
00000000
00000000
00000000
00000000
00000000
00000000
,
00100010
01000100
00100010
01100110
,
00011000
00100010
01000100
10011001
,
00100010
10000001
10100010
00011000
,
01010100
00000000
00000000
00000000
00100010
00000010
01000100
00000000
,
00100010
10000001
10100010
00011000
,
01010100
00000000
00000000
00000000
01000100
00000100
00100010
00000000
,
01000100
00011000
01010100
10000001
,
11000100
00000000
00000000
00000000
01000100
00000100
00100010
00000000
,
01000100
00011000
01000100
00000000
,
00100010
00100100
01000110
00000000
,
00100010
01000100
00100010
00011000
,
00100010
01000100
10000001
00000000
,
00100010
00011000
01000100
10000001
,
00011000
00100010
01000100
10000001
,
00100010
00011000
00101010
10000001
,
01000101
00000000
00000000
00000000
00100010
00100000
01000100
00000000
,
00100010
00011000
00101010
10000001
,
01000101
00000000
00000000
00000000
01000100
01000000
00100010
00000000
,
01000100
10000001
01000101
00011000
,
01001100
00000000
00000000
00000000
01000100
01000000
00100010
00000000
,
01000100
10000001
01000100
00000000
,
00100010
00010001
10001000
00100100
,
10011001
00000000
00000000
00000000
;

//---------------dance-couple - ----------------
#NOTEDATA:;
#CHARTNAME:;
#STEPSTYPE:dance-couple;
#DESCRIPTION:;
#CHARTSTYLE:;
#DIFFICULTY:Hard;
#METER:7;
#RADARVALUES:0.408,0.333,0.455,0.000,0.006,206.000,39.000,0.000,0.000,0.000,0.000,0.000,0.000,0.405,0.333,0.443,0.000,0.006,205.000,38.000,0.000,0.000,0.000,0.000,0.000,0.000;
#CREDIT:;
#OFFSET:-7.050;
#BPMS:0.000=138.020
;
#STOPS:;
#DELAYS:;
#WARPS:;
#TIMESIGNATURES:0.000=4=4
;
#TICKCOUNTS:0.000=4
;
#COMBOS:0.000=1
;
#SPEEDS:0.000=1.000=0.000=0
;
#SCROLLS:0.000=1.000
;
#FAKES:;
#LABELS:0.000=Song Start
;
#DISPLAYBPM:138.000;
#NOTES:
00000000
00000000
00000000
00000000
,
00000000
00000000
00000000
00000000
,
00100010
01000100
00100010
01000100
,
00011000
00011000
10000001
10000001
01100110
00000000
10011001
00000000
,
00100010
00000000
10011001
00000000
00011000
00100000
10000001
00000000
,
10011000
00000000
00100010
00000000
10000001
00000010
00011000
00000000
,
00100010
00011000
00111010
10000001
,
11000101
00000000
00000000
00000000
01000100
01000100
00100010
10011001
,
01000100
10000001
11000101
00011000
,
01011100
00000000
00000000
00000000
01000100
01000100
00100010
10011001
,
01000100
10011001
01100110
00000000
,
00100010
00000000
01000100
00000000
00100010
10011001
01000100
10000001
,
00100010
00000000
01000100
00000000
10000001
00011000
01000100
00000000
,
00100010
00000000
10000001
00011000
01000100
00000000
00000000
00000000
,
10000001
00000000
01000100
00000000
10000001
00011000
00100010
00000000
,
00011000
10000001
01000100
10000001
01000100
00011000
01000100
00011000
,
10000001
00000000
01000100
00000000
00011000
10000001
00100010
00000000
,
00011000
00000000
00011000
00000000
10000001
00011000
10000001
00000000
,
01000100
00000000
00011000
00000000
01000100
00011000
10000001
00000000
,
00100010
00000000
01000100
00000000
00011000
10000001
01000100
00000000
,
00100010
00011000
10000001
01000100
,
01000100
00000000
00000000
00000000
00100010
00000000
00000000
10001000
00000000
00000000
01000100
00000000
00000000
00000000
00000000
00000000
,
00100010
01000100
10011001
01100110
,
00011000
00100010
01000100
10011001
,
00100010
00000000
10011001
00000000
00011000
01000000
10000001
00000000
,
10011001
00000000
00100010
00000000
10000001
01000100
00011000
00000000
,
00100010
00011000
00111010
10000001
,
11000101
00000000
00000000
00000000
00100010
00100010
01000100
10011001
,
01000100
10000001
11000101
00011000
,
01011100
00000000
00000000
00000000
01000100
01000100
00100010
10011001
,
01000100
10011001
01100110
00000000
,
00100010
00000000
01000100
00000000
00100010
10011001
01000100
10000001
,
00100010
00000000
01000100
00000000
10000001
00011000
01000100
00011000
,
01000100
00000000
10000001
00011000
10000001
00011000
10000001
00000000
,
01000100
00000000
00100010
00000000
01000100
00011000
10000001
01000100
,
00100010
00000000
10011001
00000000
10000001
01000100
00011000
01000100
,
00100010
00000000
10000001
00000000
11000101
10000001
10011001
00000000
,
01000100
00000000
00000000
00000000
00100010
00100010
01000100
10011001
,
00100010
00000000
00011000
00000000
00111010
00011000
10011001
00000000
,
01000100
00000000
00000000
00000000
01000100
01000100
00100010
10011001
,
01000100
10000001
11000101
00011000
,
01011100
00000000
00000000
00000000
01000100
01000100
00100010
10011001
,
01000100
00000000
10000001
00000000
00011000
01000100
10000001
01000100
,
00100010
00000000
10011001
00000000
10000001
00100010
00011000
00000000
,
10011001
00000000
00000000
00000000
;

//---------------dance-couple - ----------------
#NOTEDATA:;
#CHARTNAME:;
#STEPSTYPE:dance-couple;
#DESCRIPTION:;
#CHARTSTYLE:;
#DIFFICULTY:Challenge;
#METER:5;
#RADARVALUES:0.292,0.410,0.198,0.000,0.000,158.000,17.000,0.000,0.000,0.000,0.000,0.000,0.000,0.290,0.410,0.187,0.000,0.000,158.000,16.000,0.000,0.000,0.000,0.000,0.000,0.000;
#CREDIT:;
#OFFSET:-7.050;
#BPMS:0.000=138.020
;
#STOPS:;
#DELAYS:;
#WARPS:;
#TIMESIGNATURES:0.000=4=4
;
#TICKCOUNTS:0.000=4
;
#COMBOS:0.000=1
;
#SPEEDS:0.000=1.000=0.000=0
;
#SCROLLS:0.000=1.000
;
#FAKES:;
#LABELS:0.000=Song Start
;
#DISPLAYBPM:138.000;
#NOTES:
00000000
00000000
00000000
00000000
,
00000000
00000000
00000000
00000000
,
00100010
01000100
00100010
01000100
,
00010001
10001000
11001100
10011001
,
00100000
00000000
10010000
00000000
00010000
00100000
10000000
00000000
,
10010000
00000000
00100000
00000000
10000000
00100000
00010000
00000000
,
00000010
00000000
00001001
00000000
00000001
00000010
00001000
00000000
,
00001001
00000000
00000010
00000000
00001000
00000010
00000001
00000000
,
10011001
00000000
00100010
00000000
00100010
00000000
00100010
10001000
,
01000100
00000000
01000100
00000000
00010001
01000100
10001000
00000000
,
00010001
01000100
10001000
01000100
,
00001001
00000000
10010000
00000000
,
00000010
00000000
10000100
00000000
00001000
00000001
10000100
00000000
,
00000010
00000000
10001000
00000001
00000100
00000000
10000000
00000000
,
00001000
00000000
10000100
00000000
00001000
00000001
10000010
00000000
,
00000001
00001000
10000100
00001000
00000100
00000001
10000100
00000000
,
00100000
00000000
01000001
00000000
10000000
00010000
01000001
00000000
,
00100000
00000000
10000001
00010000
01000000
00000000
00000001
00000000
,
10000000
00000000
01000001
00000000
10000000
00010000
00100001
00000000
,
00010000
10000000
01000001
10000000
01000000
00010000
01000001
00000000
,
00100010
00011000
10000001
01000100
,
00011000
10000001
01000100
01000100
,
00011000
01000100
10000001
10000001
,
00011000
00100010
01000100
10011001
,
10010000
00000000
00100000
00000000
10000000
01000000
00010000
00000000
,
00100000
00000000
00010000
00000000
00110000
01000000
10000000
00000000
,
00001001
00000000
00000010
00000000
00001000
00000100
00000001
00000000
,
00000010
00000000
00000001
00000000
00000011
00000100
00001000
00000000
,
10011001
00000000
00100010
00000000
00100010
00000000
00100010
10001000
,
01000100
00000000
01000100
00000000
00010001
01000100
10001000
00000000
,
00010001
01000100
10001000
01000100
,
00010001
00000000
00010001
00000000
10001000
01000100
01000100
00000000
,
00000010
00001000
10000010
00001000
00000100
00001000
10000100
00001000
,
00000001
00001000
10000010
00001000
00000001
00001000
10000010
00001000
,
00100000
10000000
00100001
10000000
01000000
10000000
01000001
10000000
,
00010000
10000000
00100001
10000000
00010000
10000000
00100001
10000000
,
00000010
00000000
00000001
00000000
00001100
00000001
00000100
00000000
,
00001000
00000000
00001000
00000000
00000001
00000001
00000100
00000000
,
00100000
00000000
00010000
00000000
11000000
00010000
01000000
00000000
,
10000000
00000000
10000000
00000000
00010000
00010000
01000000
00000000
,
01000100
10001000
11001100
01010001
,
01010101
00000000
00000000
00000000
01000100
01000100
00100010
10011001
,
01000100
00000000
10001000
00000000
00010001
01000100
10001000
01000100
,
00100010
00000000
10011001
00000000
10001000
00100010
00010001
00000000
,
10011001
00000000
00000000
00000000
;

//---------------dance-solo - ----------------
#NOTEDATA:;
#CHARTNAME:;
#STEPSTYPE:dance-solo;
#DESCRIPTION:;
#CHARTSTYLE:;
#DIFFICULTY:Easy;
#METER:3;
#RADARVALUES:0.250,0.257,0.175,0.000,0.000,135.000,15.000,0.000,0.000,0.000,0.000,0.000,0.000,0.250,0.257,0.175,0.000,0.000,135.000,15.000,0.000,0.000,0.000,0.000,0.000,0.000;
#CREDIT:;
#OFFSET:-7.050;
#BPMS:0.000=138.020
;
#STOPS:;
#DELAYS:;
#WARPS:;
#TIMESIGNATURES:0.000=4=4
;
#TICKCOUNTS:0.000=4
;
#COMBOS:0.000=1
;
#SPEEDS:0.000=1.000=0.000=0
;
#SCROLLS:0.000=1.000
;
#FAKES:;
#LABELS:0.000=Song Start
;
#DISPLAYBPM:138.000;
#NOTES:
000000
000000
000000
000000
,
000000
000000
000000
000000
,
000010
000000
010000
000000
,
000001
100000
001000
000000
,
000100
000001
010000
001000
,
100001
000000
001000
000010
,
001000
000010
001000
000010
,
100001
000000
010000
001000
,
000100
000001
001000
000100
,
100001
000000
001000
010000
,
000001
000100
000010
000000
,
100001
000000
001100
000000
,
000010
100000
000001
000000
,
000100
001000
010000
000000
,
000001
001000
000010
000000
,
100000
000000
001000
000000
,
000100
000001
010000
000000
,
000100
001000
000001
000000
,
100000
000100
010000
000000
,
001000
000000
000100
000000
,
000001
010000
000010
001000
,
000100
100000
001000
000000
,
000100
000001
001000
001100
,
100000
001000
010000
100001
,
001000
000010
100000
000100
,
010001
000000
000100
001000
,
000010
100000
001000
000100
,
100001
000000
000100
001000
,
001000
000001
001000
100000
,
100001
000000
000100
001000
,
000010
100000
001000
000000
,
000100
000001
010000
100010
,
000000
000001
000000
000100
,
001000
010000
000001
000000
,
000000
001000
000000
000010
,
100000
001000
000100
000000
,
000001
100000
000001
001000
,
001100
000000
100000
000010
,
000100
001000
010000
000001
,
100010
000000
001000
000100
,
100000
001000
010000
000001
,
100010
000000
001000
000100
,
100000
010000
001000
000000
,
000001
000100
001000
100000
,
100001
000000
000000
000000
;

//---------------dance-solo - ----------------
#NOTEDATA:;
#CHARTNAME:;
#STEPSTYPE:dance-solo;
#DESCRIPTION:;
#CHARTSTYLE:;
#DIFFICULTY:Medium;
#METER:5;
#RADARVALUES:0.300,0.257,0.257,0.000,0.006,158.000,22.000,0.000,0.000,0.000,0.000,0.000,0.000,0.300,0.257,0.257,0.000,0.006,158.000,22.000,0.000,0.000,0.000,0.000,0.000,0.000;
#CREDIT:;
#OFFSET:-7.050;
#BPMS:0.000=138.020
;
#STOPS:;
#DELAYS:;
#WARPS:;
#TIMESIGNATURES:0.000=4=4
;
#TICKCOUNTS:0.000=4
;
#COMBOS:0.000=1
;
#SPEEDS:0.000=1.000=0.000=0
;
#SCROLLS:0.000=1.000
;
#FAKES:;
#LABELS:0.000=Song Start
;
#DISPLAYBPM:138.000;
#NOTES:
000000
000000
000000
000000
,
000000
000000
000000
000000
,
000100
001000
000010
001000
,
000001
001000
100000
000000
,
000100
000001
000101
100000
,
011000
000000
000000
000000
000100
000100
001000
000000
,
000010
000001
001100
010000
,
100001
000000
000000
000000
001000
001000
000100
000000
,
100000
000010
010001
000100
,
001010
000000
000000
000000
100000
100000
000001
000000
,
000100
001000
000100
000000
,
000001
100000
001100
000000
,
010000
000001
100000
000010
,
001000
000010
010000
000000
,
001000
000100
001000
000010
,
000001
100000
001000
000000
,
000100
000001
010000
000100
,
100000
100000
000001
000000
,
001000
000010
001000
100000
,
000100
001000
000001
000000
,
010000
001000
100000
001000
,
000010
000000
000000
000001
000000
000000
001000
000000
000000
000000
000000
000000
000000
000000
000000
000000
,
000100
100000
000010
001100
,
000001
000100
001000
100001
,
000100
000001
011000
000001
,
100010
000000
000000
000000
000100
000100
001000
000000
,
000100
000001
010000
001000
,
100001
000000
000000
000000
000100
000100
001000
000000
,
001000
010000
100001
001000
,
100010
000000
000000
000000
001000
001000
000100
000000
,
000001
001000
000010
000000
,
000100
001000
010001
000000
,
000100
001000
000100
000001
,
010000
001000
100000
000000
,
000001
000100
001000
100000
,
000010
000100
001000
100000
,
000100
010000
000110
100000
,
011000
000000
000000
000000
000100
000100
001000
000000
,
000010
000001
001100
010000
,
100001
000000
000000
000000
001000
001000
000100
000000
,
001000
010000
100100
001000
,
010001
000000
000000
000000
001000
001000
000100
000000
,
001000
010000
000001
000001
,
000100
000010
010000
001000
,
100001
000000
000000
000000
;

//---------------dance-solo - ----------------
#NOTEDATA:;
#CHARTNAME:;
#STEPSTYPE:dance-solo;
#DESCRIPTION:;
#CHARTSTYLE:;
#DIFFICULTY:Hard;
#METER:6;
#RADARVALUES:0.381,0.333,0.280,0.000,0.006,205.000,24.000,0.000,0.000,0.000,0.000,0.000,0.000,0.381,0.333,0.280,0.000,0.006,205.000,24.000,0.000,0.000,0.000,0.000,0.000,0.000;
#CREDIT:;
#OFFSET:-7.050;
#BPMS:0.000=138.020
;
#STOPS:;
#DELAYS:;
#WARPS:;
#TIMESIGNATURES:0.000=4=4
;
#TICKCOUNTS:0.000=4
;
#COMBOS:0.000=1
;
#SPEEDS:0.000=1.000=0.000=0
;
#SCROLLS:0.000=1.000
;
#FAKES:;
#LABELS:0.000=Song Start
;
#DISPLAYBPM:138.000;
#NOTES:
000000
000000
000000
000000
,
000000
000000
000000
000000
,
000100
001000
000100
001000
,
000010
010000
001100
100001
,
000100
000000
100001
000000
000010
000100
100000
000000
,
100001
000000
000100
000000
010000
000100
000001
000000
,
000100
000000
100000
000000
001000
010000
000001
000000
,
101000
000000
000000
000000
001000
001000
000100
000010
,
001000
100000
101000
000001
,
001001
000000
000000
000000
001000
001000
000100
010000
,
001000
100001
001100
000000
,
000010
000000
100000
000000
000100
010000
001000
100000
,
000100
000000
001000
000000
000010
000100
001000
000000
,
010000
000000
000001
001000
000100
000000
000000
000000
,
100000
000000
001000
000000
010000
000001
000100
000000
,
000001
100000
001000
100000
001000
000010
001000
000010
,
100000
000000
001000
000000
000100
000001
001000
000000
,
000010
000000
000010
000000
100000
001000
100000
000000
,
000100
000000
001000
000000
000010
100000
000001
000000
,
000100
000000
001000
000000
010000
000001
001000
000000
,
000100
000001
100000
001000
,
000100
000000
000000
000001
000000
000000
001000
000000
000000
000000
000000
000000
000000
000000
000000
000000
,
000100
100000
010001
100010
,
001000
000100
001000
100001
,
000010
000000
010001
000000
000010
001000
100000
000000
,
100001
000000
000100
000000
000010
100000
001000
000000
,
000100
000000
000001
000000
010000
001000
000100
000000
,
001001
000000
000000
000000
000100
000100
100000
000001
,
001000
000010
101000
000100
,
001001
000000
000000
000000
000010
000000
000100
001000
,
100000
010001
000110
000000
,
010000
000000
001000
000000
000010
000001
100000
000100
,
001000
000000
000010
000000
100000
000001
001000
000001
,
001000
000000
000100
100000
000100
100000
000100
000000
,
001000
000000
000010
000000
001000
000010
100000
001000
,
010000
000000
100001
000000
001000
000010
000100
000001
,
001000
000000
000100
000000
100000
001000
010000
000000
,
000001
000000
000000
000000
000100
000100
000010
100000
,
001000
000000
000100
000000
000001
010000
000010
000000
,
001000
000000
000000
000000
001000
001000
000010
010000
,
001000
100000
001001
000100
,
101000
000000
000000
000000
001000
001000
010000
000010
,
001000
000000
000100
000000
100000
001000
010000
000010
,
000100
000000
100001
000000
010000
000100
001000
000000
,
100001
000000
000000
000000
;

//---------------dance-single - ----------------
#NOTEDATA:;
#CHARTNAME:;
#STEPSTYPE:dance-single;
#DESCRIPTION:;
#CHARTSTYLE:;
#DIFFICULTY:Beginner;
#METER:2;
#RADARVALUES:0.125,0.128,0.140,0.000,0.000,63.000,12.000,0.000,0.000,0.000,0.000,0.000,0.000,0.125,0.128,0.140,0.000,0.000,63.000,12.000,0.000,0.000,0.000,0.000,0.000,0.000;
#CREDIT:;
#OFFSET:-7.050;
#BPMS:0.000=138.020
;
#STOPS:;
#DELAYS:;
#WARPS:;
#TIMESIGNATURES:0.000=4=4
;
#TICKCOUNTS:0.000=4
;
#COMBOS:0.000=1
;
#SPEEDS:0.000=1.000=0.000=0
;
#SCROLLS:0.000=1.000
;
#FAKES:;
#LABELS:0.000=Song Start
;
#DISPLAYBPM:138.000;
#NOTES:
0000
0000
0000
0000
,
0000
0000
0000
0000
,
1000
0000
0000
0000
,
0001
0000
0000
0000
,
0010
0000
0010
0000
,
1001
0000
0000
0000
,
0010
0000
0010
0000
,
1001
0000
0000
0000
,
0100
0000
0100
0000
,
1001
0000
0000
0000
,
0100
0000
0100
0000
,
1001
0000
0000
0000
,
0010
0000
0000
0000
,
0010
0000
0000
0000
,
1000
0000
0000
0000
,
0100
0000
0000
0000
,
1000
0000
0000
0000
,
0010
0000
0000
0000
,
0100
0000
0000
0000
,
0010
0000
0000
0000
,
0010
0000
1000
0000
,
0100
0100
0100
0000
,
0010
0000
0010
0000
,
0001
0000
0001
0000
,
0010
0000
0010
0000
,
1001
0000
0000
0000
,
0010
0000
0010
0000
,
1001
0000
0000
0000
,
0100
0000
0100
0000
,
1001
0000
0000
0000
,
0100
0000
0100
0000
,
1001
0000
0000
0000
,
0000
0000
0010
0010
,
0000
0000
1000
1000
,
0000
0000
0100
0100
,
0000
0000
0000
0000
,
0010
0000
0010
0000
,
1001
0000
0000
0000
,
0010
0000
0010
0000
,
1001
0000
0000
0000
,
0100
0000
0100
0000
,
1001
0000
0000
0000
,
0100
0000
0100
0000
,
0001
0000
1000
0000
,
1001
0000
0000
0000
;

//---------------dance-single - Boys----------------
#NOTEDATA:;
#CHARTNAME:;
#STEPSTYPE:dance-single;
#DESCRIPTION:Boys;
#CHARTSTYLE:;
#DIFFICULTY:Edit;
#METER:13;
#RADARVALUES:0.575,0.667,0.152,0.070,0.321,326.000,13.000,6.000,0.000,0.000,0.000,0.000,0.000,0.575,0.667,0.152,0.070,0.321,326.000,13.000,6.000,0.000,0.000,0.000,0.000,0.000;
#CREDIT:;
#OFFSET:-7.050;
#BPMS:0.000=138.020
;
#STOPS:;
#DELAYS:;
#WARPS:;
#TIMESIGNATURES:0.000=4=4
;
#TICKCOUNTS:0.000=4
;
#COMBOS:0.000=1
;
#SPEEDS:0.000=1.000=0.000=0
;
#SCROLLS:0.000=1.000
;
#FAKES:;
#LABELS:0.000=Song Start
;
#DISPLAYBPM:138.000;
#NOTES:
// measure 0
0000
0000
0000
0000
,  // measure 1
0000
0000
0000
0000
,  // measure 2
0010
0100
0010
0100
0001
1000
0001
1000
0100
0010
0100
1000
0001
0010
0001
0100
,  // measure 3
0010
1000
0100
0010
0001
0100
0010
1000
0200
0000
0000
0000
0300
0000
0000
0000
,  // measure 4
1000
0000
1000
0000
0100
0000
0001
0000
0100
0000
0010
1000
0001
0000
0010
0000
,  // measure 5
0100
0000
0100
0000
0001
0000
1000
0001
0000
1000
0001
0000
0100
0000
0010
0000
,  // measure 6
0100
0000
0100
0000
0010
0000
0001
0000
0100
0000
1000
0001
0010
0000
0100
0000
,  // measure 7
0010
0000
0010
0000
0010
0000
1000
0001
0000
1000
0001
0000
1000
0000
0100
0000
,  // measure 8
0010
0000
0010
0000
0001
0000
0100
0000
0010
0000
1000
0001
0100
0000
0010
0000
,  // measure 9
0001
0000
0100
0000
0010
0000
0100
0001
0000
1000
0100
0000
0001
0000
1000
0000
,  // measure 10
0001
0000
0001
0000
1000
0000
0100
0000
0010
0000
1000
0001
0100
0000
1000
0000
,  // measure 11
0001
0000
0010
0000
1000
0000
0010
0000
0001
0000
0000
0000
0001
0010
0100
1000
,  // measure 12
0000
0000
0001
0000
1000
0000
0100
0001
0000
0000
0000
0000
1000
0000
0010
0000
,  // measure 13
0001
0000
0001
0000
1000
0000
0100
0002
0000
0000
0000
0000
0000
0000
0000
0000
,  // measure 14
0003
0000
0100
0000
0001
0000
0100
2000
0000
0000
0001
0000
0100
0000
3100
0000
,  // measure 15
0000
1000
0000
0100
0010
0001
0000
0100
,  // measure 16
0000
0000
0010
0000
1000
0000
0001
0010
0000
0000
0000
0000
1000
0000
0100
0000
,  // measure 17
0010
0000
0010
0000
1000
0000
0010
0200
0000
0000
0000
0000
0000
0000
0000
0000
,  // measure 18
0300
0000
0010
0000
0100
0000
0001
2000
0000
0000
0010
0000
0010
0000
3100
0000
,  // measure 19
0001
0000
0100
1000
0100
0000
0001
0010
,  // measure 20
0000
0000
0010
0000
1000
0000
0100
0001
0000
0000
0010
0000
0100
0000
0010
0000
,  // measure 21
0101
0000
0000
1100
0000
0000
1001
0000
0000
0000
0000
0000
0000
0000
0000
0000
,  // measure 22
0001
0000
0100
0000
0010
0000
0100
0001
0000
0000
1000
0000
0100
0000
1000
0000
,  // measure 23
0010
0001
1000
0000
0100
1000
0001
0000
0010
0001
1000
0000
0100
1000
0001
0000
,  // measure 24
0010
0100
0001
0010
1000
0001
0100
1000
,  // measure 25
0000
0000
0001
0000
0010
0000
0100
0010
0000
0100
0010
0000
1000
0000
0100
0000
,  // measure 26
0001
0010
0100
0010
1000
0001
0100
1000
,  // measure 27
0000
0000
0001
0000
0010
0000
0100
1000
0000
0001
0010
0000
0001
0000
1000
0000
,  // measure 28
0010
1000
0010
0100
1000
0001
0010
0001
,  // measure 29
0000
0000
0100
0000
0010
0000
0001
1000
0000
0100
0010
0000
0001
0000
1000
0000
,  // measure 30
0100
0100
0010
0001
1000
0110
1001
0000
,  // measure 31
0010
0000
0100
0000
0010
0001
1000
0100
0010
0000
0000
0000
2000
0000
0000
0000
,  // measure 32
3000
0000
0001
0000
0100
0000
0001
0100
0000
0000
0100
0000
0100
0000
0100
0000
,  // measure 33
0000
0000
1000
0000
0001
0000
0010
0100
0000
0000
0100
0000
0100
0000
0100
0000
,  // measure 34
0000
0000
0001
0000
1000
0000
0100
0001
0000
0000
0001
0000
0001
0000
0001
0000
,  // measure 35
0000
0000
1000
0000
0010
0000
0100
1000
0000
0000
1000
0000
1000
0000
1000
0000
,  // measure 36
0001
0010
0001
1000
0001
0010
1000
0010
,  // measure 37
0000
0000
0001
0000
0100
0000
1000
0001
0000
0100
0010
0000
1000
0000
0100
0000
,  // measure 38
0001
1000
0010
0001
0010
0100
0001
0010
,  // measure 39
0000
0000
0001
0000
0010
0000
0001
0100
0000
1000
0100
0000
0010
0000
0001
0000
,  // measure 40
1000
0010
0001
0100
0001
0010
1000
0100
,  // measure 41
0000
0000
0100
0000
1000
0000
0010
0001
0000
0100
0001
0000
0100
0000
0010
0000
,  // measure 42
1000
1000
0001
0010
0100
0101
1010
0000
,  // measure 43
1100
1010
0110
0101
0011
0000
0000
0000
,  // measure 44
1001
0000
0000
0000
;
