#TITLE:ビューティフル レシート;
#SUBTITLE:;
#ARTIST:Lucky Vacuum;
#TITLETRANSLIT:BEAUTIFUL RECEIPT;
#SUBTITLETRANSLIT:;
#ARTISTTRANSLIT:;
#GENRE:;
#CREDIT:;
#MENUCOLOR:white;
#METERTYPE:DDR X;
#BANNER:Beautiful Receipt.png;
#BACKGROUND:Beautiful Receipt-bg.png;
#LYRICSPATH:;
#CDTITLE:./CDTITLES/DanceDanceRevolution X3.png;
#MUSIC:Beautiful Receipt.mp3;
#OFFSET:0.000;
#SAMPLESTART:22.000;
#SAMPLELENGTH:15.000;
#SELECTABLE:YES;
#LISTSORT:;
#BPMS:0.000=196.000;
#STOPS:;
#BGCHANGES:;
#ATTACKS:;

//---------------dance-single - ----------------
#NOTES:
     dance-single:
     :
     Beginner:
     4:
     0.183,0.281,0.028,0.132,0.000:
0000
0000
0000
0000
,
0000
0000
0000
0000
,
0000
0000
0000
0000
,
0000
0000
0000
0000
,
0000
0000
0000
0000
,
0000
0000
0000
0000
,
0000
0000
0000
0000
,
0000
0000
0000
0000
,
0000
0000
0000
0000
,
0001
0000
0000
0000
,
0010
0000
0000
0000
,
1000
0000
0000
0000
,
0100
0000
0000
0000
,
0001
0000
0001
0000
,
0010
0000
0010
0000
,
1000
0000
1000
0000
,
0100
0000
0100
0000
,
1001
0000
0000
0000
,
0001
0000
0010
0000
,
1000
0000
0100
0000
,
1000
0000
0010
0000
,
1000
0000
0000
0000
,
1000
0000
0010
0000
,
0001
0000
0100
0000
,
0001
0000
1000
0000
,
0020
0000
0030
0000
,
1000
0000
0001
0000
,
0100
0000
0100
0000
,
0010
0000
0001
0000
,
0100
0000
0000
0000
,
0001
0000
1000
0000
,
0010
0000
0010
0000
,
1000
0000
0001
0000
,
0200
0000
0300
0000
,
1000
1000
1000
0000
,
0001
0000
0010
0000
,
0100
0100
0100
0000
,
1000
0000
0010
0000
,
1000
1000
1000
0000
,
0100
0000
0010
0000
,
0001
0000
1000
0000
,
0001
0001
0001
0000
,
0000
0000
0000
0000
,
0000
0000
0000
0000
,
0000
0000
0000
0000
,
0000
0000
0000
0000
,
0000
0000
0000
0000
,
0000
0000
0000
0000
,
0000
0000
0000
0000
,
0000
0000
0000
0000
,
0200
0000
0300
0000
,
0002
0000
0003
0000
,
2000
0000
3000
0000
,
0020
0000
0030
0000
,
0002
0000
0003
0000
,
0200
0000
0300
0000
,
2000
0000
3000
0000
,
0020
0000
0030
0000
,
1001
0000
0000
0000
,
0000
0000
0000
0000
,
1000
0000
0010
0000
,
0001
0000
0100
0000
,
0001
0000
0010
0000
,
0001
0000
0000
0000
,
0001
0000
0010
0000
,
1000
0000
0100
0000
,
1000
0000
0001
0000
,
0020
0000
0030
0000
,
0001
0000
1000
0000
,
0100
0000
0100
0000
,
0010
0000
1000
0000
,
0100
0000
0000
0000
,
1000
0000
0001
0000
,
0010
0000
0010
0000
,
0001
0000
1000
0000
,
0200
0000
0300
0000
,
0001
0001
0001
0000
,
1000
0000
0010
0000
,
0100
0100
0100
0000
,
0001
0000
0010
0000
,
0001
0001
0001
0000
,
0100
0000
0010
0000
,
1000
0000
0001
0000
,
1000
1000
1000
0000
,
2002
0000
0000
0000
,
3003
0000
0000
0000
;

//---------------dance-single - ----------------
#NOTES:
     dance-single:
     :
     Easy:
     8:
     0.390,0.441,0.189,0.462,0.000:
0000
0000
0000
0000
,
0000
0000
0000
0000
,
0000
0000
0000
0000
,
0000
0000
0000
0000
,
0000
0000
0000
0000
,
0000
0000
0000
0000
,
0000
0000
0000
0000
,
0000
0000
0000
0000
,
0000
0000
0000
0000
,
1000
1000
0100
0100
,
0010
0010
0001
0001
,
0100
0100
0010
0010
,
1000
1000
0001
0001
,
0010
0010
0001
0001
,
0100
0100
1000
1000
,
0010
0010
0001
0001
,
0100
0100
0010
0010
,
2002
0000
0000
3003
,
1020
0130
0010
1000
,
0001
0010
0100
1000
,
0001
0100
0010
0100
,
0001
1000
1100
0000
,
0021
0130
0010
0100
,
1000
0001
0100
0010
,
2000
3000
0200
0300
,
0010
0100
1001
0000
,
0021
0130
1000
0001
,
0100
1000
0100
0001
,
0010
0001
1000
0001
,
0100
0010
0110
0000
,
1020
0130
0001
1000
,
0010
0001
0010
1000
,
0002
0003
2000
3000
,
0010
0000
0100
0010
,
0001
0001
0002
0003
,
1000
1000
0010
0010
,
0100
0100
0200
0300
,
0001
0001
0010
0010
,
0001
0001
0002
0003
,
0100
0100
0010
0010
,
0200
0300
0020
0030
,
0001
1000
1001
0000
,
2002
0000
0000
0000
,
0000
0000
0000
0000
,
0000
0000
0000
0000
,
0000
0000
0000
0000
,
0000
0000
0000
0000
,
0000
0000
0000
0000
,
0000
0000
0000
3003
,
0002
0000
0023
0000
,
0230
0000
0000
0000
,
2300
0000
3002
0000
,
0203
0000
0320
0000
,
2030
0000
3200
2300
,
3002
0000
0000
0000
,
0203
0000
0320
0000
,
0230
0000
0302
0000
,
0023
0000
0230
0300
,
1001
0000
0000
0000
,
0000
0100
0100
0100
,
0021
0130
0010
0001
,
1000
0010
0100
0001
,
1000
0100
0010
0100
,
1000
0001
0101
0000
,
1020
0130
0010
0100
,
0001
1000
0100
0010
,
0002
0003
0200
0300
,
0010
0100
1001
0000
,
1020
0130
0001
1000
,
0100
0001
0100
1000
,
0010
1000
0001
1000
,
0100
0010
0110
0000
,
0021
0130
1000
0001
,
0010
1000
0010
0001
,
2000
3000
0002
0003
,
0010
0000
0100
0010
,
1000
1000
2000
3000
,
0001
0001
0010
0010
,
0100
0100
0200
0300
,
1000
1000
0010
0010
,
1000
1000
2000
3000
,
0100
0100
0010
0010
,
0200
0300
0020
0030
,
1000
0001
1001
0000
,
2002
0000
0000
0000
,
3003
0000
0000
0000
;

//---------------dance-single - ----------------
#NOTES:
     dance-single:
     :
     Medium:
     10:
     0.516,0.682,0.359,0.519,0.019:
0000
0000
0000
0000
,
0000
0000
0000
0000
,
0000
0000
0000
0000
,
0000
0000
0000
0000
,
0000
0000
0000
0000
,
0000
0000
0000
0000
,
0000
0000
0000
0000
,
0000
0000
0000
0000
,
0000
0000
0000
0000
,
0001
0000
0001
0000
0100
0000
0010
1000
,
0010
0010
1000
1000
,
0100
0000
0100
0000
0010
0000
0001
1000
,
0001
0001
0100
0100
,
0010
0000
0010
0000
1000
0000
0100
1000
,
0100
0100
0010
0010
,
0001
0000
0001
0000
1000
0000
0001
1000
,
0001
1000
0010
0100
,
2002
0000
0000
3003
,
0021
0000
0130
0000
0010
0000
0001
1000
,
0000
0010
0100
0000
0001
0000
0010
0000
,
0100
1000
0100
0000
0010
0000
0001
0100
,
0000
1100
0000
0001
0100
0000
0010
0000
,
1020
0000
0130
0000
0010
0000
0100
0001
,
0000
1000
0100
0000
0010
0001
1000
0000
,
0010
1000
0100
0000
0010
0001
0100
0000
,
0010
0000
0000
0100
0000
0000
0010
0000
0100
0000
0000
0000
1001
0000
0000
0000
,
1020
0000
0130
0000
0001
0000
1000
0100
,
0000
0010
0100
0000
1000
0000
0001
0000
,
0100
0010
1000
0000
0001
0000
1000
0100
,
0000
0101
0000
0010
0100
0000
0001
0000
,
0021
0000
0130
0000
1000
0000
0001
0100
,
0000
0010
1000
0000
0010
0100
0001
0000
,
1000
0001
0100
0000
0001
1000
0100
0000
,
0020
0000
0130
1001
,
1010
1010
2010
0100
,
0001
0001
3010
1000
,
0011
0011
0012
0100
,
1000
1000
0013
0001
,
1001
1001
2001
0010
,
0100
0100
0001
3010
,
0200
0300
0020
0030
,
1000
0000
0000
0001
0000
0000
0010
0000
0100
0000
0000
0000
0000
0000
0000
0000
,
2002
0000
0000
0000
,
0000
0000
0000
0000
,
0000
0000
0000
0000
,
0000
0000
0000
0000
,
0000
0000
0000
0000
,
0000
0000
0000
0000
,
0000
0000
0000
3003
,
2000
3020
0230
0302
,
2003
0000
0000
3200
,
0320
0230
2300
3020
,
0230
0000
0302
0000
,
2003
3200
0320
0032
,
2003
0000
0000
3002
,
0023
0032
2003
3002
,
0203
0320
0230
0302
,
2003
3020
0230
0301
,
1001
0000
0000
0000
,
0000
0100
0100
0100
,
1020
0000
0130
0000
0010
0000
1000
0001
,
0000
0010
0100
0000
1000
0000
0010
0000
,
0100
0001
0100
0000
0010
0000
1000
0100
,
0000
0101
0000
1000
0100
0000
0010
0000
,
0021
0000
0130
0000
0010
0000
0100
1000
,
0000
0001
0100
0000
0010
1000
0001
0000
,
0010
0001
0100
0000
0010
1000
0100
0000
,
0010
0000
0000
0100
0000
0000
0010
0000
0100
0000
0000
0000
1001
0000
0000
0000
,
0021
0000
0130
0000
1000
0000
0001
0100
,
0000
0010
0100
0000
0001
0000
1000
0000
,
0100
0010
0001
0000
1000
0000
0001
0100
,
0000
1100
0000
0010
0100
0000
1000
0000
,
1020
0000
0130
0000
0001
0000
1000
0100
,
0000
0010
0001
0000
0010
0100
1000
0000
,
0001
1000
0100
0000
1000
0001
0100
0000
,
0020
0000
0130
1001
,
0011
0011
0012
0100
,
1000
1000
0013
0001
,
1010
1010
2010
0100
,
0001
0001
3010
1000
,
1001
1001
1002
0010
,
0100
0100
1000
0013
,
0200
0300
0020
0030
,
0001
0000
0000
1000
0000
0000
0010
0000
0100
0000
0000
0000
0010
0000
0000
0000
,
2002
0000
0000
0000
,
3003
0000
0000
0000
;

//---------------dance-single - ----------------
#NOTES:
     dance-single:
     :
     Hard:
     13:
     0.613,0.762,0.340,0.538,0.104:
0000
0000
0000
0000
,
0000
0000
0000
0000
,
0000
0000
0000
0000
,
0000
0000
0000
0000
,
0000
0000
0000
0000
,
0000
0000
0000
0000
,
0000
0000
0000
0000
,
0000
0000
0000
0000
,
0000
0000
0000
0000
,
1000
0000
1000
0000
0100
0000
0010
0001
,
0100
0000
0100
0000
0010
0000
1000
0001
,
0010
0000
0010
0000
0100
0000
1000
0001
,
0100
0000
0100
0000
0010
0000
1000
0100
,
0010
0000
0010
0000
0001
0000
0100
0001
,
0010
0000
0010
0000
0100
0000
1000
0001
,
0100
0000
0100
0000
0001
0000
1000
0100
,
0001
0000
0001
0000
0100
0000
1000
0001
,
2002
0000
0000
3003
,
1020
0000
0130
0000
0010
0100
0001
1000
,
0000
0100
0010
0001
1000
0000
0010
0100
,
0001
1000
0100
0010
0001
0010
0100
1100
,
0000
0101
0000
0110
1001
0000
0100
0010
,
0021
0000
0130
0000
0010
0100
1000
0001
,
0000
0100
0010
1000
0001
0010
0001
0100
,
0001
0100
0001
0100
0001
0000
0000
0000
1000
0100
1000
0100
1000
0000
0000
0000
,
0010
0000
0000
1000
0000
0000
0001
0000
1001
0000
0000
0000
0100
0000
0000
0000
,
0021
0000
0130
0000
1000
0001
0100
0010
,
0000
0100
0001
1000
0100
0000
0010
0001
,
0100
0010
1000
0100
0010
0001
0100
0110
,
0000
1001
0000
1100
0101
0000
0010
1000
,
1020
0000
0130
0000
0001
1000
0100
0010
,
0000
0100
1000
0001
0100
0010
1000
0001
,
0010
0100
0010
0100
0010
0000
0000
0000
0100
0010
0100
0010
0100
0000
0000
0000
,
0010
0000
0000
0001
0000
0000
1000
0000
1100
0000
0000
0000
0010
0000
0000
0000
,
0001
0010
0001
0010
0002
0000
0010
0000
,
1000
1000
0103
0001
,
1000
0010
1000
0010
2000
0000
0010
0000
,
0001
0001
3100
1000
,
0001
1000
0001
1000
0002
0000
0010
0000
,
0100
0100
1000
0013
,
0220
0330
2002
3003
,
0001
0000
0000
1000
0000
0000
0010
0000
0100
0000
0000
0000
0000
0000
0000
0000
,
2002
0000
0000
0000
,
0000
0000
0000
0000
,
0000
0000
0000
0000
,
0000
0000
0000
0000
,
0000
0000
0000
0000
,
0000
0000
0000
0000
,
0000
0000
0000
3003
,
0002
0023
0230
2300
,
3002
0000
0000
0203
,
0320
0230
0302
0023
,
0230
0000
2300
0000
,
3002
0203
0320
2030
,
3002
0000
0000
2003
,
3020
2030
3002
2003
,
3200
0320
0230
2300
,
3002
0023
0230
1300
,
0101
0000
0000
0000
,
0000
0100
0100
0100
,
0021
0000
0130
0000
0010
0100
1000
0001
,
0000
0100
0010
1000
0001
0000
0010
0100
,
1000
0001
0100
0010
1000
0010
0100
0101
,
0000
1100
0000
0110
1001
0000
0100
0010
,
1020
0000
0130
0000
0010
0100
0001
1000
,
0000
0100
0010
0001
1000
0010
1000
0100
,
1000
0100
1000
0100
1000
0000
0000
0000
0001
0100
0001
0100
0001
0000
0000
0000
,
0010
0000
0000
0001
0000
0000
1000
0000
1001
0000
0000
0000
0100
0000
0000
0000
,
1020
0000
0130
0000
0001
1000
0100
0010
,
0000
0100
1000
0001
0100
0000
0010
1000
,
0100
0010
0001
0100
0010
1000
0100
0110
,
0000
1001
0000
0101
1100
0000
0010
0001
,
0021
0000
0130
0000
1000
0001
0100
0010
,
0000
0100
0001
1000
0100
0010
0001
1000
,
0010
0100
0010
0100
0010
0000
0000
0000
0100
0010
0100
0010
0100
0000
0000
0000
,
0010
0000
0000
1000
0000
0000
0001
0000
0101
0000
0000
0000
0010
0000
0000
0000
,
1000
0010
1000
0010
2000
0000
0010
0000
,
0001
0001
3100
1000
,
0001
0010
0001
0010
0002
0000
0010
0000
,
1000
1000
0103
0001
,
1000
0001
1000
0001
2000
0000
0010
0000
,
0100
0100
0001
3010
,
0220
0330
2002
3003
,
1000
0000
0000
0001
0000
0000
0010
0000
0100
0000
0000
0000
0010
0000
0000
0000
,
2002
0000
0000
0000
,
3003
0000
0000
0000
;

//---------------dance-double - ----------------
#NOTES:
     dance-double:
     :
     Easy:
     7:
     0.346,0.401,0.132,0.377,0.000: // measure 1
00000000
00000000
00000000
00000000
,  // measure 2
00000000
00000000
00000000
00000000
,  // measure 3
00000000
00000000
00000000
00000000
,  // measure 4
00000000
00000000
00000000
00000000
,  // measure 5
00000000
00000000
00000000
00000000
,  // measure 6
00000000
00000000
00000000
00000000
,  // measure 7
00000000
00000000
00000000
00000000
,  // measure 8
00000000
00000000
00000000
00000000
,  // measure 9
00000000
00000000
00000000
00000000
,  // measure 10
00001000
00000000
00000100
00000000
,  // measure 11
00000010
00000000
00000001
00000000
,  // measure 12
00000100
00000000
00001000
00000000
,  // measure 13
00010000
00000000
01000000
00000000
,  // measure 14
10000000
00100000
01000000
00000000
,  // measure 15
00100000
10000000
00010000
00000000
,  // measure 16
00100000
00001000
00010000
00000000
,  // measure 17
00001000
00000010
00000100
00000000
,  // measure 18
00002002
00000000
00000000
00003003
,  // measure 19
00000010
00000001
00000100
00000010
,  // measure 20
00010000
00001000
00100000
00000000
,  // measure 21
00001000
00010000
01000000
00100000
,  // measure 22
00010000
10000000
10010000
00000000
,  // measure 23
00100000
10000000
01000000
10000000
,  // measure 24
00010000
00100000
00001000
00000010
,  // measure 25
00000200
00000300
00000020
00000030
,  // measure 26
00000001
00001000
00001001
00000000
,  // measure 27
00000001
00000100
00001000
00010000
,  // measure 28
00000010
00001000
00010000
00000000
,  // measure 29
01000000
00100000
10000000
01000000
,  // measure 30
00100000
01000000
01100000
00000000
,  // measure 31
01000000
00010000
00000100
00000010
,  // measure 32
00000001
00001000
00000010
00000100
,  // measure 33
00000020
00000030
00000200
00000300
,  // measure 34
00001000
00010000
00011000
00000000
,  // measure 35
00100000
00100000
00200000
00300000
,  // measure 36
10000000
01000000
10000000
01000000
,  // measure 37
00010000
00010000
00020000
00030000
,  // measure 38
00001000
00000100
00001000
00000100
,  // measure 39
00000001
00000001
00000002
00000003
,  // measure 40
00000010
00000100
00000010
00000100
,  // measure 41
00020000
00030000
00002000
00003000
,  // measure 42
01000000
00100000
01100000
00000000
,  // measure 43
20020000
00000000
00000000
00000000
,  // measure 44
00000000
00000000
00000000
00000000
,  // measure 45
00000000
00000000
00000000
00000000
,  // measure 46
00000000
00000000
00000000
00000000
,  // measure 47
00000000
00000000
00000000
00000000
,  // measure 48
00000000
00000000
00000000
00000000
,  // measure 49
00000000
00000000
00000000
30030000
,  // measure 50
00200000
00000000
20300000
00000000
,  // measure 51
32000000
00000000
00000000
00000000
,  // measure 52
03020000
00000000
00032000
00000000
,  // measure 53
00203000
00000000
00320000
00000000
,  // measure 54
02030000
00000000
03002000
00000000
,  // measure 55
00023000
00000000
00000000
00000000
,  // measure 56
00030020
00000000
00000230
00000000
,  // measure 57
00000302
00000000
00000023
00000000
,  // measure 58
00002030
00000000
00023000
00030000
,  // measure 59
00011000
00000000
00000000
00000000
,  // measure 60
00000000
01000000
01000000
01000000
,  // measure 61
00100000
10000000
01000000
00100000
,  // measure 62
00001000
00010000
00000010
00000000
,  // measure 63
00010000
00001000
00000100
00000010
,  // measure 64
00001000
00000001
00001001
00000000
,  // measure 65
00000010
00000001
00000100
00000001
,  // measure 66
00001000
00000010
00010000
00100000
,  // measure 67
02000000
03000000
00200000
00300000
,  // measure 68
10000000
00010000
10010000
00000000
,  // measure 69
10000000
01000000
00010000
00001000
,  // measure 70
00100000
00010000
00001000
00000000
,  // measure 71
00000100
00000010
00000001
00000100
,  // measure 72
00000010
00000100
00000110
00000000
,  // measure 73
00000100
00001000
01000000
00100000
,  // measure 74
10000000
00010000
00100000
01000000
,  // measure 75
00200000
00300000
02000000
03000000
,  // measure 76
00010000
00001000
00011000
00000000
,  // measure 77
00000010
00000010
00000020
00000030
,  // measure 78
00000001
00000100
00000001
00000100
,  // measure 79
00001000
00001000
00002000
00003000
,  // measure 80
00010000
01000000
00010000
01000000
,  // measure 81
10000000
10000000
20000000
30000000
,  // measure 82
00100000
01000000
00100000
01000000
,  // measure 83
00002000
00003000
00020000
00030000
,  // measure 84
00000100
00000010
00000110
00000000
,  // measure 85
00002002
00000000
00000000
00000000
,  // measure 86
00003003
00000000
00000000
00000000
;

//---------------dance-double - ----------------
#NOTES:
     dance-double:
     :
     Medium:
     10:
     0.484,0.682,0.208,0.519,0.019: // measure 1
00000000
00000000
00000000
00000000
,  // measure 2
00000000
00000000
00000000
00000000
,  // measure 3
00000000
00000000
00000000
00000000
,  // measure 4
00000000
00000000
00000000
00000000
,  // measure 5
00000000
00000000
00000000
00000000
,  // measure 6
00000000
00000000
00000000
00000000
,  // measure 7
00000000
00000000
00000000
00000000
,  // measure 8
00000000
00000000
00000000
00000000
,  // measure 9
00000000
00000000
00000000
00000000
,  // measure 10
10000000
10000000
01000000
01000000
,  // measure 11
00100000
00100000
00010000
00010000
,  // measure 12
00001000
00001000
00000100
00000100
,  // measure 13
00000010
00000010
00000001
00000001
,  // measure 14
00000100
00000100
00000010
00000010
,  // measure 15
00001000
00001000
00010000
00010000
,  // measure 16
01000000
01000000
00100000
00100000
,  // measure 17
10000000
00010000
00100000
01000000
,  // measure 18
20020000
00000000
00000000
30030000
,  // measure 19
10200000
00000000
01300000
00000000
00100000
00000000
10000000
01000000
,  // measure 20
00000000
00010000
00001000
00000000
00000100
00000000
00000001
00000000
,  // measure 21
00000010
00000001
00000100
00000000
00000010
00000000
00010000
00001000
,  // measure 22
00000000
00100000
00000000
01000000
00100000
00000000
01000000
00000000
,  // measure 23
00210000
00000000
01300000
00000000
00010000
00000000
00001000
00010000
,  // measure 24
00000000
00001000
00000100
00000000
00000010
00000100
00000001
00000000
,  // measure 25
00001000
00000010
00000001
00000100
,  // measure 26
00001000
00000000
00000000
00010000
00000000
00000000
00001000
00000000
00010000
00000000
00000000
00000000
00011000
00000000
00000000
00000000
,  // measure 27
00210000
00000000
01300000
00000000
10000000
00000000
00010000
01000000
,  // measure 28
00000000
00100000
00010000
00000000
00001000
00000000
00000100
00000000
,  // measure 29
00000001
00001000
00000100
00000000
00000010
00000000
00000001
00001000
,  // measure 30
00000000
00000100
00000000
00010000
00001000
00000000
01000000
00000000
,  // measure 31
10200000
00000000
01300000
00000000
00010000
00000000
10000000
01000000
,  // measure 32
00000000
00010000
00001000
00000000
00000010
00000001
00001000
00000000
,  // measure 33
00000010
00001000
00000100
00000000
00000010
00000001
00000100
00000000
,  // measure 34
00002000
00000000
00013000
00011000
,  // measure 35
00100000
00010000
00120000
10000000
,  // measure 36
01000000
01000000
00100000
00130000
,  // measure 37
00001000
00010000
00021000
00000010
,  // measure 38
00001000
00001000
00000100
00030100
,  // measure 39
00001000
00000001
00000102
00001000
,  // measure 40
00000100
00000100
00000010
00000013
,  // measure 41
00000200
00000300
00000020
00000030
,  // measure 42
00000100
00000000
00000000
00010000
00000000
00000000
00001000
00000000
00010000
00000000
00000000
00000000
00000000
00000000
00000000
00000000
,  // measure 43
00022000
00000000
00000000
00000000
,  // measure 44
00000000
00000000
00000000
00000000
,  // measure 45
00000000
00000000
00000000
00000000
,  // measure 46
00000000
00000000
00000000
00000000
,  // measure 47
00000000
00000000
00000000
00000000
,  // measure 48
00000000
00000000
00000000
00000000
,  // measure 49
00000000
00000000
00000000
00033000
,  // measure 50
00020000
00230000
20300000
32000000
,  // measure 51
03200000
00000000
00000000
00302000
,  // measure 52
00003020
00002030
00023000
00032000
,  // measure 53
00003200
00000000
00000302
00000000
,  // measure 54
00002003
00003200
00000320
00000032
,  // measure 55
00000203
00000000
00000000
00002300
,  // measure 56
02003000
03002000
00023000
00230000
,  // measure 57
02300000
03020000
20030000
32000000
,  // measure 58
03020000
00032000
00003020
00000031
,  // measure 59
00001001
00000000
00000000
00000000
,  // measure 60
00000000
00000100
00000100
00000100
,  // measure 61
00000021
00000000
00000130
00000000
00000010
00000000
00000001
00000100
,  // measure 62
00000000
00001000
00010000
00000000
01000000
00000000
10000000
00000000
,  // measure 63
00100000
10000000
01000000
00000000
00100000
00000000
00001000
00010000
,  // measure 64
00000000
00000010
00000000
00000100
00000010
00000000
00000100
00000000
,  // measure 65
00001020
00000000
00000130
00000000
00001000
00000000
00010000
00001000
,  // measure 66
00000000
00010000
01000000
00000000
00100000
01000000
10000000
00000000
,  // measure 67
00010000
00100000
10000000
01000000
,  // measure 68
00010000
00000000
00000000
00001000
00000000
00000000
00010000
00000000
00001000
00000000
00000000
00000000
00011000
00000000
00000000
00000000
,  // measure 69
00001020
00000000
00000130
00000000
00000001
00000000
00001000
00000100
,  // measure 70
00000000
00000010
00001000
00000000
00010000
00000000
01000000
00000000
,  // measure 71
10000000
00010000
01000000
00000000
00100000
00000000
10000000
00010000
,  // measure 72
00000000
01000000
00000000
00001000
00010000
00000000
00000100
00000000
,  // measure 73
00000021
00000000
00000130
00000000
00001000
00000000
00000001
00000100
,  // measure 74
00000000
00001000
00010000
00000000
00100000
10000000
00010000
00000000
,  // measure 75
00100000
00010000
01000000
00000000
00100000
10000000
01000000
00000000
,  // measure 76
00020000
00000000
00031000
00011000
,  // measure 77
00000010
00001000
00002010
00000001
,  // measure 78
00000100
00000100
00000010
00003010
,  // measure 79
00010000
00001000
00012000
00100000
,  // measure 80
00010000
00010000
01000000
01003000
,  // measure 81
00010000
10000000
21000000
00010000
,  // measure 82
01000000
01000000
00100000
30100000
,  // measure 83
02000000
03000000
00200000
00300000
,  // measure 84
01000000
00000000
00000000
00001000
00000000
00000000
00010000
00000000
00000010
00000000
00000000
00000000
00001000
00000000
00000000
00000000
,  // measure 85
00002002
00000000
00000000
00000000
,  // measure 86
00003003
00000000
00000000
00000000
;

//---------------dance-double - ----------------
#NOTES:
     dance-double:
     :
     Hard:
     13:
     0.578,0.682,0.245,0.538,0.028:
00000000
00000000
00000000
00000000
,
00000000
00000000
00000000
00000000
,
00000000
00000000
00000000
00000000
,
00000000
00000000
00000000
00000000
,
00000000
00000000
00000000
00000000
,
00000000
00000000
00000000
00000000
,
00000000
00000000
00000000
00000000
,
00000000
00000000
00000000
00000000
,
00000000
00000000
00000000
00000000
,
00000001
00000000
00000001
00000000
00000100
00000000
00000010
00001000
,
00000100
00000000
00000100
00000000
00010000
00000000
00001000
00100000
,
00010000
00000000
00010000
00000000
01000000
00000000
00100000
10000000
,
00010000
00000000
00010000
00000000
00100000
00000000
01000000
00010000
,
00001000
00000000
00001000
00000000
00000010
00000000
00000001
00001000
,
00000100
00000000
00000100
00000000
00000010
00000000
00000100
00010000
,
00001000
00000000
00001000
00000000
00010000
00000000
01000000
10000000
,
00010000
00000000
01000000
00000000
00100000
00000000
00010000
00001000
,
00022000
00000000
00000000
00033000
,
00000020
00000000
00000130
00000000
00000001
00001000
00000100
00000010
,
00000000
00000100
00010000
00001000
00100000
00000000
00010000
10000000
,
00100000
01000000
00010000
01000000
00100000
10000000
01000000
00100000
,
00000000
00011000
00000000
00000010
00000100
00000000
00000010
00001000
,
00000200
00000000
00000310
00000000
00000100
00010000
00001000
01000000
,
00000000
00100000
00010000
00001000
00100000
01000000
10000000
00100000
,
01000000
00100000
01100000
00000000
00001000
00010000
00011000
00000000
,
00000100
00000000
00000000
00001000
00000000
00000000
00000010
00000000
00000100
00000000
00000000
00000000
00000010
00000000
00000000
00000000
,
00002010
00000000
00003100
00000000
00000010
00000001
00000100
00001000
,
00000000
00010000
00100000
10000000
00100000
00000000
01000000
00100000
,
10000000
01000000
00100000
01000000
00100000
00001000
00010000
00000100
,
00000000
00001100
00000000
00000001
00000100
00000000
00000001
00000010
,
00000021
00000000
00000130
00000000
00001000
00000001
00000100
00000010
,
00000000
00010000
00100000
01000000
00010000
00100000
01000000
10000000
,
00010000
01000000
01010000
00000000
00001000
00010000
00011000
00000000
,
00000010
00000000
00000000
00001000
00000000
00000000
00000001
00000000
00000100
00000000
00000000
00000000
00000110
00000000
00000000
00000000
,
00001000
00000010
00001000
00000010
00002000
00000000
00000010
00000000
,
00000001
00000001
00003100
00001000
,
00010000
00001000
00010000
00001000
00020000
00000000
00000100
00000000
,
00001000
00001000
01000000
01030000
,
10000000
01000000
10000000
01000000
20000000
00000000
00010000
00000000
,
01000000
01000000
00100000
30010000
,
02200000
03300000
20020000
30030000
,
10000000
00000000
00000000
01000000
00000000
00000000
00010000
00000000
00001000
00000000
00000000
00000000
00000000
00000000
00000000
00000000
,
00022000
00000000
00000000
00000000
,
00000000
00000000
00000000
00000000
,
00000000
00000000
00000000
00000000
,
00000000
00000000
00000000
00000000
,
00000000
00000000
00000000
00000000
,
00000000
00000000
00000000
00000000
,
00000000
00000000
00000000
00033000
,
00000020
00020030
00032000
02003000
,
03200000
00000000
00000000
00320000
,
00030020
00020030
00230000
00320000
,
00030020
00000000
00000230
00000000
,
00000302
00002003
00023000
20030000
,
32000000
00000000
00000000
03020000
,
00030200
00020300
02030000
03020000
,
00032000
00003020
00000032
00000203
,
00000320
00002030
00023000
01030000
,
01100000
00000000
00000000
00000000
,
00000000
01000000
01000000
01000000
,
00200000
00000000
01300000
00000000
10000000
00010000
01000000
00100000
,
00000000
01000000
00001000
00010000
00000010
00000000
00001000
00000001
,
00000010
00000100
00001000
00000100
00000010
00000001
00000100
00000010
,
00000000
00011000
00000000
00100000
01000000
00000000
00100000
00010000
,
02000000
00000000
03100000
00000000
01000000
00001000
00010000
00000100
,
00000000
00000010
00001000
00010000
00000010
00000100
00000001
00000010
,
00000100
00000010
00000110
00000000
00010000
00001000
00011000
00000000
,
01000000
00000000
00000000
00010000
00000000
00000000
00100000
00000000
01000000
00000000
00000000
00000000
00100000
00000000
00000000
00000000
,
00120000
00000000
01030000
00000000
00100000
10000000
01000000
00010000
,
00000000
00001000
00000010
00000001
00000010
00000000
00000100
00000010
,
00000001
00000100
00000010
00000100
00000010
00010000
00001000
01000000
,
00000000
01010000
00000000
10000000
01000000
00000000
10000000
00100000
,
10200000
00000000
01300000
00000000
00010000
10000000
01000000
00100000
,
00000000
00001000
00000010
00000100
00001000
00000010
00000100
00000001
,
00001000
00000100
00001100
00000000
00010000
00001000
00011000
00000000
,
00100000
00000000
00000000
00010000
00000000
00000000
10000000
00000000
01000000
00000000
00000000
00000000
01100000
00000000
00000000
00000000
,
00010000
00100000
00010000
00100000
00020000
00000000
00100000
00000000
,
10000000
10000000
01030000
00010000
,
00001000
00010000
00001000
00010000
00002000
00000000
01000000
00000000
,
00010000
00010000
00000100
00003100
,
00000001
00000100
00000001
00000100
00000002
00000000
00001000
00000000
,
00000100
00000100
00000010
00001003
,
00000220
00000330
00002002
00003003
,
00000001
00000000
00000000
00000100
00000000
00000000
00001000
00000000
00010000
00000000
00000000
00000000
00100000
00000000
00000000
00000000
,
20020000
00000000
00000000
00000000
,
30030000
00000000
00000000
00000000
;

//---------------dance-single - ----------------
#NOTES:
     dance-single:
     :
     Challenge:
     17:
     0.838,0.922,0.547,0.226,0.453: // measure 1
0000
0000
0000
0000
,  // measure 2
0000
0000
0000
0000
,  // measure 3
0000
0000
0000
0000
,  // measure 4
0000
0000
0000
0000
,  // measure 5
0000
0000
0000
0000
,  // measure 6
0000
0000
0000
0000
,  // measure 7
0000
0000
0000
0000
,  // measure 8
0000
0000
0000
0000
,  // measure 9
0000
0000
0000
0000
,  // measure 10
1000
0000
0100
1000
0100
0000
0001
0000
0100
0000
0000
0000
0010
0000
0100
1000
,  // measure 11
0001
0000
0010
0100
0010
0000
0001
0000
1000
0000
0000
0000
1000
0000
0010
0100
,  // measure 12
0001
0000
0010
0100
0010
0000
0100
0000
1000
0000
0000
0000
1000
0000
0001
0100
,  // measure 13
0010
0000
1000
0100
1000
0000
0100
0000
0010
0000
0000
0000
1000
0000
0100
0001
,  // measure 14
1000
0000
0010
0001
0010
0000
0100
0000
0010
0000
0000
0000
1000
0000
0001
0100
,  // measure 15
0010
0000
1000
0010
1000
0000
0100
0000
0001
0000
0000
0000
1000
0000
0001
0010
,  // measure 16
0100
0000
1000
0010
1000
0000
0010
0000
0001
0000
0000
0000
1000
0000
0100
0001
,  // measure 17
0010
0000
1000
0000
0001
0000
0010
0000
1000
0010
0001
0000
0010
0000
0100
1000
,  // measure 18
0001
0100
1100
1000
1010
1000
1001
0000
,  // measure 19
1010
0000
0000
0000
0011
0000
0000
0000
0010
0000
1000
0001
1000
0000
0010
0000
,  // measure 20
0000
0000
0100
0000
0010
0000
0001
0000
1000
0000
0001
1000
0001
0000
1000
0000
,  // measure 21
0001
1000
0100
0001
0010
0100
1000
1100
,  // measure 22
0000
0110
0000
0011
1001
0000
0100
1000
,  // measure 23
0011
0000
0000
0000
1100
0000
0000
0000
0010
0000
0100
1000
0100
0000
0001
0000
,  // measure 24
0000
0000
0100
0000
0010
0000
1000
0000
0001
0000
0010
0001
0010
0000
1000
0000
,  // measure 25
0001
0010
0100
1000
0001
0000
0010
0000
1000
0100
0010
0001
1000
0000
0100
0000
,  // measure 26
0010
0000
0000
1100
0000
0000
0101
0000
1001
0000
0000
0000
0100
0000
0000
0000
,  // measure 27
0001
0000
0010
0000
1000
0000
0010
0000
0100
0000
0001
1000
0001
0000
0010
0000
,  // measure 28
0000
0000
0100
0000
0001
0000
1000
0000
0100
0000
0010
0100
0010
0000
0001
0000
,  // measure 29
0100
0000
0010
0000
1000
0000
0100
0000
0010
0000
0001
1000
0001
0000
0110
0000
,  // measure 30
0000
1001
0000
1100
0101
0000
0010
1000
,  // measure 31
0001
0000
0010
0000
1000
0000
0001
0000
0100
0000
1000
0001
0010
0000
0100
0000
,  // measure 32
0000
0001
1000
0001
0100
0010
1000
0001
,  // measure 33
1000
0010
0100
0010
1000
0000
0100
0000
0001
0100
0010
0100
0001
0000
0010
0000
,  // measure 34
0100
0000
0000
0011
0000
0000
1010
0000
1001
0000
0000
0000
0010
0000
0000
0000
,  // measure 35
1000
0000
0100
0000
0010
0000
0100
0000
0001
0010
0000
0000
0100
1000
0000
0000
,  // measure 36
0001
0000
0010
0000
1000
0000
0010
0000
0001
0000
0100
1000
0100
0000
0010
0001
,  // measure 37
0010
0000
0100
0000
0001
0000
0010
0000
1000
0010
0000
0000
0100
0001
0000
0000
,  // measure 38
1000
0000
0100
0000
0001
0000
1000
0000
0100
0000
1000
0010
1000
0000
0001
0100
,  // measure 39
0001
0000
1000
0000
0001
0000
1000
0000
0001
1000
0000
0000
0010
0100
0000
0000
,  // measure 40
0100
0000
0010
0000
0100
0000
1000
0000
0100
0000
0001
1000
0001
0000
0010
0100
,  // measure 41
0010
0001
0010
0000
0100
1000
0100
0000
,  // measure 42
0101
0000
0000
1100
0000
0000
0110
0000
1001
0000
0010
0100
0010
0000
0000
0000
,  // measure 43
2000
0000
0002
3000
,  // measure 44
0020
0003
0200
0030
,  // measure 45
2000
0300
0020
3000
,  // measure 46
0200
0030
0002
0300
,  // measure 47
2000
0003
0020
3000
,  // measure 48
2000
0030
0002
3000
,  // measure 49
0200
0003
2000
3300
,  // measure 50
0011
0101
0110
1010
,  // measure 51
1001
0000
0000
1000
,  // measure 52
0001
0000
0100
0000
1000
0000
0100
0100
,  // measure 53
0001
0000
1000
0000
,  // measure 54
0001
0000
0010
0000
0100
0000
1000
1000
,  // measure 55
0001
0000
0000
1000
,  // measure 56
0001
0000
0010
0000
0100
0000
1000
0001
,  // measure 57
0002
0023
0230
2300
,  // measure 58
3002
0203
0320
2030
,  // measure 59
3001
0000
1001
0000
1100
0110
0011
0000
,  // measure 60
0001
0000
0010
0000
0100
0000
1000
0000
0001
0000
0010
1000
0010
0000
0100
0000
,  // measure 61
0001
0100
0010
0000
1000
0000
0100
0000
0010
0100
0010
1000
0001
0000
0100
0000
,  // measure 62
0000
0000
0100
0000
0010
0000
1000
0100
0001
0000
0100
0010
0100
0000
1000
0000
,  // measure 63
0100
0001
0100
0000
1000
0000
0010
1000
0010
0000
0001
0000
0100
0000
0011
0000
,  // measure 64
0000
0110
0000
1100
1001
0000
0100
0010
,  // measure 65
1000
0001
1000
0000
0100
0000
0010
0000
0001
1000
0100
1000
0010
0000
0001
0000
,  // measure 66
0000
0000
0100
0000
0010
0000
0001
1000
0001
0000
0010
0100
1000
0000
0100
0000
,  // measure 67
1000
0100
0001
0100
1000
0000
0100
0000
0001
0010
1000
0010
0001
0000
0010
0000
,  // measure 68
0110
0000
0000
0011
0000
0000
1100
0000
1000
0001
0000
0000
0100
0010
0000
0000
,  // measure 69
1000
0100
1000
0000
0001
0000
0100
0000
0001
0010
0001
1000
0100
0000
0010
0000
,  // measure 70
0000
0000
0100
0000
1000
0000
0001
1000
0100
0000
0010
0001
1000
0000
0010
0000
,  // measure 71
0100
0001
0010
0000
0010
0000
0100
1000
0010
0000
1000
0000
0100
0000
0110
0000
,  // measure 72
0000
1001
0000
0101
1100
0000
0010
0001
,  // measure 73
0010
1000
0010
0000
0100
0000
0001
0000
0100
0010
0001
1000
0100
0000
0010
0000
,  // measure 74
0000
0100
0001
1000
0100
0010
0001
1000
,  // measure 75
0010
0100
0001
0100
0010
0000
1000
0000
0100
0010
1000
0010
0100
0000
0001
0000
,  // measure 76
1010
0000
0000
1100
0000
0000
0101
0000
0011
0000
0000
0000
0010
0000
0000
0000
,  // measure 77
1000
0000
0010
0000
1000
0000
0010
0000
1000
0100
0000
0000
0010
0001
0000
0000
,  // measure 78
0001
0000
0100
0000
0001
0000
1000
0000
0001
0000
0010
0100
1000
0000
0100
0010
,  // measure 79
0001
0000
0010
0000
0100
0000
0010
0000
1000
0001
0000
0000
0100
0010
0000
0000
,  // measure 80
1000
0000
0001
0000
1000
0000
0010
0000
0100
0000
0001
1000
0100
0000
0010
0001
,  // measure 81
1000
0000
0100
0000
1000
0000
0001
0000
0010
0100
0000
0000
0001
1000
0000
0000
,  // measure 82
0100
0000
1000
0000
0100
0000
0010
0000
0001
0000
1000
0100
0010
0000
0001
0100
,  // measure 83
0010
1100
0011
1001
,  // measure 84
1100
0000
0000
0101
0000
0000
0110
0000
1001
0000
0000
0000
0110
0000
0000
0000
,  // measure 85
2002
0000
0000
0000
,  // measure 86
3003
0000
0000
0000
;
