#TITLE:Arcanos;
#SUBTITLE:;
#ARTIST:DJ Totoriott;
#TITLETRANSLIT:;
#SUBTITLETRANSLIT:;
#ARTISTTRANSLIT:;
#GENRE:;
#CREDIT:;
#BANNER:Arcanos.png;
#BACKGROUND:Arcanos-bg.png;
#LYRICSPATH:;
#CDTITLE:;
#MUSIC:Arcanos.ogg;
#OFFSET:0.000000;
#SAMPLESTART:64.062500;
#SAMPLELENGTH:15.000000;
#SELECTABLE:YES;
#DISPLAYBPM:96.000000;
#BPMS:0.000000=96.000000
;
#STOPS:99.500000=1.875000
;
#BGCHANGES:;
#KEYSOUNDS:;
#ATTACKS:;

//---------------dance-single - ----------------
#NOTES:
     dance-single:
     :
     Challenge:
     16:
     0.930863,0.893809,1.000000,0.334388,1.000000,530.000000,154.000000,37.000000,0.000000,0.000000,0.000000,0.930863,0.893809,1.000000,0.334388,1.000000,530.000000,154.000000,37.000000,0.000000,0.000000,0.000000:
0000
0000
0000
0000
,
0000
0000
0000
0000
,
0000
0000
0000
0000
,
0000
0000
0000
0000
,
1001
0000
0101
0100
0110
0000
0010
0000
1010
0000
1100
0000
0101
0000
1001
1000
,
1010
0000
0010
0100
0001
0000
0101
0000
0100
0000
0110
0000
0010
0000
1000
0001
0010
0000
0000
0000
0011
0000
0001
0000
0100
0010
1000
0001
0100
0000
0000
0000
,
0110
0000
0100
0000
0001
1000
0100
0010
0001
0000
0100
0000
0010
0000
1000
0000
0010
0000
1000
0100
1000
0100
1000
0000
0100
0000
0001
0000
0100
0000
1000
0000
,
0010
0000
0000
0000
1100
0000
1000
0000
0001
0000
0001
0000
0011
0000
0001
0100
0010
0000
1000
0000
1100
0000
0100
0000
0110
0000
0000
0000
0001
0000
0100
0010
,
0100
0000
0001
0000
0100
0000
0010
0000
1000
0000
1000
0000
1100
0000
0000
0000
0101
0000
0000
0000
0100
0000
0010
0000
1000
0000
0001
0000
0010
0000
0100
1000
,
0100
0010
0100
1000
1001
0000
0011
0011
0000
1010
1010
0000
1000
0100
0001
1000
,
0010
0000
0000
0000
0110
0000
0100
0000
0001
0000
1000
0000
0100
0010
0100
0010
0001
0000
0000
0000
0100
0000
0101
0000
1001
0000
0000
0000
1000
0000
0100
1000
,
0100
1000
0010
0000
0100
0000
0001
0000
0010
0000
0001
0000
0100
0000
0010
0000
2000
0000
0000
0000
0000
0000
0000
0000
3020
0000
0000
0000
2030
0000
0000
0000
,
3001
0000
0100
0000
0010
0000
1000
0000
0100
0000
0010
0001
0010
0000
1000
0000
0010
0000
0100
0000
0101
0000
0000
0000
1100
0000
0000
0000
1001
0000
0100
0000
,
0101
0000
0000
0000
0110
0000
0010
0000
1000
0000
0001
0000
1000
0010
1000
0010
1000
0000
0000
0000
1001
0000
0001
0100
0010
0000
0000
0000
1010
0000
1000
0001
,
1000
0001
1000
0000
0100
0000
0001
0000
0100
0000
1000
0000
0001
0000
0100
0000
0110
0000
0000
0000
1001
0000
1000
0000
0100
0000
0010
0000
0001
0010
0001
0010
,
0100
0000
0000
0000
1010
0000
1000
0000
1001
0000
0000
0000
0100
0000
0001
0000
0100
0000
1000
0000
0100
0000
0010
0000
0001
0000
0100
0010
1000
0000
1000
0000
,
1100
0000
0000
0000
1001
0000
0001
0000
0100
0000
0010
0000
1000
0001
0010
0001
1000
0000
0001
0000
0001
0000
0010
0000
0011
0000
0000
0000
0001
0000
0100
0010
,
0100
0010
0100
0000
0001
0000
0000
0000
1000
0000
0100
0000
0010
0000
0100
0000
1001
0000
0000
0000
0010
0000
0001
0000
0010
0000
0100
0000
0010
0000
0100
1000
,
0100
0000
0010
0000
0001
0000
0100
0000
0010
0000
0000
0000
1000
0000
0010
0000
1000
0000
0001
0000
0100
0000
0010
0000
1000
0000
0100
0000
0010
0001
0010
0001
,
0100
0101
0000
1010
1010
0000
1010
1000
1001
0001
1000
0010
1100
1100
0000
0011
,
0011
0000
0000
0000
0001
1000
0001
1000
0001
1000
0010
0100
0010
0100
0010
0100
0001
0000
0011
0000
0000
0000
1010
0000
1010
0000
0000
0000
1100
0000
0100
0000
,
0110
0010
1000
0001
0101
0101
0000
1001
1001
0000
0100
0010
1000
0100
0010
0100
,
1001
1001
0010
0101
0101
0000
1100
0010
0001
0100
0010
1000
1100
1100
0010
0101
,
0101
0000
0000
0000
1000
0100
1000
0000
0100
0000
0010
0000
0001
0010
0001
0010
0001
0000
0101
0000
0101
0000
1001
0000
1001
0000
0000
0000
1000
0000
1100
0000
,
1100
0000
0000
0000
1001
0000
0000
0000
1001
0000
0000
0000
0100
0000
0000
0000
0010
0000
0000
0000
0100
0000
0000
0000
1000
0000
0000
0000
0010
0000
0000
0000
0100
0000
0000
0000
0010
0000
0000
0000
1100
0000
0000
0000
0000
0000
0000
0000
1001
0000
0000
0000
0000
0000
0000
0000
0202
0303
0000
0000
0000
0000
0000
0000
,
2020
0000
0000
0000
0030
0000
3001
0010
0100
1000
0100
0010
0001
0000
0000
0000
0000
0000
0000
0000
1000
0000
0000
0000
2200
0000
0000
0000
3300
0000
1000
0100
,
0010
0000
0110
0000
0202
0000
0000
0000
0303
0000
1001
0000
1000
0000
0100
0000
0110
0000
0000
0000
0000
0000
1001
0000
0100
0010
0100
0000
0001
0000
0010
0000
,
1000
0000
0010
0000
0001
0000
0100
0000
2002
0000
0000
0000
0000
0000
0000
0000
3003
0000
1000
0001
0200
0000
0000
0000
0000
0000
0000
0000
1300
0010
1000
0010
,
0100
0000
0001
0000
0100
0000
0001
0100
0001
0100
0001
0100
0010
0000
1000
0000
0010
0000
1000
0000
0100
0000
0010
0000
0001
0000
0000
0000
0110
0000
0000
0000
,
1000
0001
0101
0000
1010
1000
1001
0001
0101
0000
0000
1001
0000
1100
0120
0000
,
0032
0000
0203
0300
2002
0000
0000
0000
0000
0000
0000
0000
0000
0000
3003
0000
,
1001
0000
0000
0000
0000
0000
0010
1000
0010
1000
0001
0000
0101
0000
0000
0000
1100
0000
0000
0000
1010
0000
0000
0000
0011
0000
0000
0000
0001
0000
1000
0100
,
1000
0100
0010
0000
0110
0000
0100
0000
0101
0000
0001
0000
1001
0000
1000
0000
1100
0000
0000
0000
1000
0000
0001
0100
0001
0100
0010
0000
1010
0000
0010
0000
,
0110
0100
0101
0001
1001
0000
1000
0001
1000
0010
1100
0000
1010
1010
1001
0000
,
0101
0000
0000
0000
0001
0000
1000
0001
1000
0001
1000
0010
1000
0000
0100
0000
0011
0000
0001
0000
0100
0000
1010
0000
1001
0000
0000
0000
0001
0000
1000
0100
,
1000
0010
0110
0100
0101
0001
1001
1000
1001
0000
0010
1000
0001
1000
0210
0000
,
0310
0001
1000
0001
0210
0000
0310
1000
0001
1000
0100
0000
0010
0000
1001
0000
,
0101
0101
0000
1001
1001
0000
1000
0100
0001
0100
1000
0010
0110
0110
0000
1001
,
1001
0000
0011
0001
0101
0100
0110
0010
1010
1010
0000
1100
1100
0000
0001
0100
,
0010
0000
0000
1000
0100
1000
0100
0000
0000
0010
0000
0000
1001
0000
0000
1001
0000
0000
0000
0000
0000
0110
0000
0000
0110
0000
0000
0000
0000
0000
1010
0000
0000
0000
0000
0000
0110
0000
0000
0000
0000
0000
0011
0000
0000
0000
0000
0000
,
2002
0000
3003
2200
0000
3300
0202
0000
,
0303
0022
0000
0033
2020
0000
3030
2002
,
0000
3003
0202
0000
0303
2002
0000
3003
,
0100
0000
0000
0000
;

//---------------dance-double - ----------------
#NOTES:
     dance-double:
     :
     Challenge:
     16:
     0.879220,0.816087,1.000000,0.307275,1.000000,518.000000,129.000000,34.000000,0.000000,0.000000,0.000000,0.879220,0.816087,1.000000,0.307275,1.000000,518.000000,129.000000,34.000000,0.000000,0.000000,0.000000:
// measure 0
00000000
00000000
00000000
00000000
,  // measure 1
00000000
00000000
00000000
00000000
,  // measure 2
00000000
00000000
00000000
00000000
,  // measure 3
00000000
00000000
00000000
00000000
,  // measure 4
00011000
00000000
00000100
00001000
00001001
00000000
00000001
00000000
00000011
00000000
00000010
00000000
00001010
00000000
00001000
00010000
,  // measure 5
00011000
00000000
00001000
00010000
00000010
00000000
00001000
00000000
00000100
00000000
00000010
00000000
00000001
00000000
00001000
00000000
00001001
00000000
00000000
00000000
00011000
00000000
00001000
00000000
00100000
00010000
00100000
00010000
01000000
00000000
00000000
00000000
,  // measure 6
00011000
00000000
00001000
00000000
00010000
00001000
00010000
00001000
00100000
00000000
00001000
00000000
00010000
00000000
00100000
00000000
01000000
00000000
10000000
01000000
10000000
00000000
01000000
00000000
00100000
00000000
00010000
00000000
00100000
00000000
00010000
00000000
,  // measure 7
01000000
00000000
00000000
00000000
00100000
00000000
00001000
00000000
00010000
00000000
00000010
00000000
00001000
00000000
00000100
00001000
00000100
00000000
00000010
00000000
00000001
00000000
00000100
00000000
00000110
00000000
00000000
00000000
00001000
00000000
00010000
00000000
,  // measure 8
01000000
00000000
10000000
00000000
00100000
00000000
00000000
00000000
00010100
00000000
00000000
00000000
00001100
00000000
00000000
00000000
00001000
00000000
00000000
00000000
00000001
00000000
00000010
00000000
00001000
00000000
00010000
00000000
00001000
00000000
00010000
00001000
,  // measure 9
00100000
00010000
10000000
00100000
10010000
00000000
00101000
00101000
00000000
00010010
00010010
00000000
00000010
00000001
00001000
00000001
,  // measure 10
00000011
00000000
00000000
00000000
00000110
00000000
00000100
00000000
00000010
00000000
00010000
00000000
00011000
00000000
00001000
00010000
00001000
00000000
00000000
00000000
00010000
00000000
10000000
00000000
10010000
00000000
00000000
00000000
10000000
00000000
01000000
10000000
,  // measure 11
01000000
00100000
00010000
00000000
00001000
00000000
00010000
00000000
00000100
00000000
00001000
00000000
00000100
00000000
00000010
00000000
00000002
00000000
00000000
00000000
00000000
00000000
00000000
00000000
00002003
00000000
00000000
00000000
00003200
00000000
00000000
00000000
,  // measure 12
00010300
00000000
00001000
00000000
00010000
00000000
00001000
00000000
00010000
00000000
00001000
00010000
00000010
00000000
00001000
00000000
00000010
00000000
00001000
00000000
00001100
00000000
00000000
00000000
00011000
00000000
00000000
00000000
01010000
00000000
00010000
00000000
,  // measure 13
10010000
00000000
00000000
00000000
01100000
00000000
00100000
00000000
00010000
00000000
01000000
00000000
00100000
00000000
10000000
00010000
01000000
00000000
00000000
00000000
00011000
00000000
00001000
00010000
00001000
00000000
00000000
00000000
00010100
00000000
00010000
00000100
,  // measure 14
00010000
00000100
00010000
00000000
00001000
00000000
00000010
00000000
00000001
00000000
00000100
00000000
00001000
00000000
00000100
00000000
00000110
00000000
00000000
00000000
00010010
00000000
00010000
00000000
00001000
00000000
00010000
00000000
00001000
00000000
00100000
00010000
,  // measure 15
01000000
00000000
00000000
00000000
11000000
00000000
01000000
00000000
01010000
00000000
00000000
00000000
00010000
00000000
01000000
00000000
00010000
00000000
01000000
00000000
00001000
00000000
00010000
00000000
00001000
00000000
00010000
00000100
00001000
00000000
00000000
00000000
,  // measure 16
00000110
00000000
00000000
00000000
00001100
00000000
00000010
00000000
00000001
00000000
00000000
00000000
00001000
00000010
00000100
00000010
00001000
00000000
00000000
00000000
00000010
00000000
00000100
00000000
00000101
00000000
00000000
00000000
00000100
00000000
00001000
00010000
,  // measure 17
00001000
00010000
00001000
00000000
01000000
00000000
00000000
00000000
00010000
00000000
00100000
00000000
00010000
00000000
00010000
00000000
00011000
00000000
00000000
00000000
00010000
00000000
00100000
00000000
00010000
00000000
10000000
00000000
01000000
00000000
10000000
01000000
,  // measure 18
00100000
00000000
00010000
00000000
01000000
00000000
00100000
00000000
10000000
00000000
00000000
00000000
10000000
00000000
00100000
00000000
00010000
00000000
00001000
00000000
00000010
00000000
00000001
00000000
00001000
00000000
00000010
00001000
00000001
00001000
00000001
00001000
,  // measure 19
00000100
00001100
00000000
00011000
00011000
00000000
00010000
01000000
10000000
00010000
00100000
10000000
10100000
10100000
00000000
01010000
,  // measure 20
01010000
00000000
00000000
00000000
00010000
00001000
00010000
00000100
00001000
00000000
00000100
00001000
00000100
00001000
00000010
00000000
00000101
00000000
00000101
00000000
00000000
00000000
00001100
00000000
00001100
00000000
00000000
00000000
00001010
00000000
00001000
00000000
,  // measure 21
00011000
00010000
00001000
00100000
10010000
10010000
00000000
11000000
11000000
00000000
00010000
00001000
00010000
00001000
00100000
00010000
,  // measure 22
01100000
01000000
00100000
01000000
01100000
00000000
00010000
00100000
00001000
00010000
00000010
00001000
00000110
00000100
00000010
00000100
,  // measure 23
00000110
00000000
00000000
00000000
00010000
00001000
00010000
00000000
00001000
00000000
00010000
00000000
00001000
00010000
00001000
00010000
00100000
00000000
01000000
00000000
01100000
00000000
01100000
00000000
01010000
00000000
00000000
00000000
00100000
00000000
01000000
00000000
,  // measure 24
01100000
00000000
00000000
00000000
01100000
00000000
00000000
00000000
11000000
00000000
00000000
00000000
00000000
00000000
00000000
00000000
10000000
00000000
00000000
00000000
01000000
00000000
00000000
00000000
00010000
00000000
00000000
00000000
00001000
00000000
00000000
00000000
00000100
00000000
00000000
00000000
00000000
00000000
00000000
00000000
00000110
00000000
00000000
00000000
00000000
00000000
00000000
00000000
00011000
00000000
00000000
00000000
00000000
00000000
00000000
00000000
02200000
03300000
00000000
00000000
00000000
00000000
00000000
00000000
,  // measure 25
20020000
00000000
00000000
00000000
30030000
00000000
00010000
00001000
00010000
00001000
00010000
00000010
00001000
00000000
00000000
00000000
00000000
00000000
00000000
00000000
00000001
00000000
00000000
00000000
00000202
00000000
00000000
00000000
00000303
00000000
00000100
00000010
,  // measure 26
00001000
00000000
00000100
00000000
00020200
00000000
00000000
00000000
00030300
00000000
00010000
00000000
00001000
00000000
00001000
00000000
00101000
00000000
00000000
00000000
00000000
00000000
00110000
00000000
00010000
10000000
00010000
00000000
10000000
00000000
01000000
00000000
,  // measure 27
10000000
00000000
01000000
00000000
00010000
00000000
01000000
00000000
02200000
00000000
00000000
00000000
00000000
00000000
00000000
00000000
03300000
00000000
10000000
01000000
00010000
00000000
00000000
00000000
00000000
00000000
00000000
00000000
10000000
01000000
10000000
01000000
,  // measure 28
10000000
00000000
00100000
00000000
01000000
00000000
00001000
00010000
00001000
00010000
00000100
00001000
00000100
00000000
00001000
00000000
00000100
00000000
00000010
00000000
00000001
00000000
00000100
00000000
00001000
00000000
00000000
00000000
00000110
00000000
00000000
00000000
,  // measure 29
00001000
00001000
00001100
00000000
00011000
00001000
01001000
01000000
01010000
00000000
00000000
11000000
00000000
00100000
02000000
00000000
,  // measure 30
03020000
00000000
00032000
00003000
00022000
00000000
00000000
00000000
00000000
00000000
00000000
00000000
00033000
00000000
00011000
00000000
,  // measure 31
01010000
00000000
00000000
00000000
00000000
00000000
00010000
00100000
01000000
00000000
10000000
00000000
01010000
00000000
01000000
00000000
01001000
00000000
00001000
00000000
00011000
00000000
00000000
00000000
00010100
00000000
00000000
00000000
00010010
00000000
00010000
00001000
,  // measure 32
00010000
00000000
00000100
00000000
00001100
00000000
00001000
00000000
00000100
00000000
00000010
00000000
00000001
00000000
00000100
00000000
00000101
00000000
00000000
00000000
00001000
00000000
00000100
00001000
00000100
00000000
00000010
00000000
00000110
00000000
00000100
00000000
,  // measure 33
00000101
00000001
00001001
00001000
00001100
00000000
00000001
00000010
00001000
00010000
00100000
00000000
10000000
10010000
01010000
00000000
,  // measure 34
00011000
00000000
00000000
00000000
00001000
00000000
00010000
00001000
00010000
00001000
00010000
00000100
00001000
00000000
00000100
00000000
00001010
00000000
00000100
00000000
00000010
00000000
00000001
00000000
00001001
00000000
00000000
00000000
00010000
00000000
00001000
00010000
,  // measure 35
00001000
00010000
00011000
00001000
01001000
01000000
01100000
00100000
10010000
00000000
10000000
01000000
00010000
00001000
00000100
00000000
,  // measure 36
00000001
00000100
00001000
00010000
01000000
00000000
10000000
01000000
00010000
00001000
00000100
00000000
00000001
00000100
00001000
00010000
,  // measure 37
01010000
01010000
00000000
01001000
01001000
00000000
00010000
00000100
00001000
00000100
00010000
00000100
00001100
00001100
00000000
00010010
,  // measure 38
00010010
00000000
00001010
00001000
00000100
00000010
00000001
00000100
00000110
00000110
00000000
00011000
00011000
00000000
00010000
00100000
,  // measure 39
00010000
00000000
00000000
10000000
01000000
10000000
01000000
00000000
00000000
00100000
00000000
00000000
10010000
00000000
00000000
01010000
00000000
00000000
00000000
00000000
00000000
00011000
00000000
00000000
00010100
00000000
00000000
00000000
00000000
00000000
00001100
00000000
00000000
00000000
00000000
00000000
00001010
00000000
00000000
00000000
00000000
00000000
00000101
00000000
00000000
00000000
00000000
00000000
,  // measure 40
00002002
00000000
00003003
00000202
00000000
00000303
00002200
00000000
,  // measure 41
00003300
00022000
00000000
00033000
00220000
00000000
00330000
20200000
,  // measure 42
00000000
30300000
20020000
00000000
30030000
00022000
00000000
00033000
,  // measure 43
00001001
00000000
00000000
00000000
;
