#TITLE:Anti-Matter;
#SUBTITLE:;
#ARTIST:Orbit1 & Milo;
#TITLETRANSLIT:;
#SUBTITLETRANSLIT:;
#ARTISTTRANSLIT:;
#GENRE:HARDCORE SPEED;
#CREDIT:;
#MENUCOLOR:extra;
#METERTYPE:DDR X;
#BANNER:Anti-Matter.png;
#BACKGROUND:Anti-Matter-bg.png;
#LYRICSPATH:;
#CDTITLE:./CDTITLES/DanceDanceRevolution X2.png;
#MUSIC:Anti-Matter.mp3;
#OFFSET:1.149;
#SAMPLESTART:19.240;
#SAMPLELENGTH:15.000;
#SELECTABLE:YES;
#LISTSORT:;
#DISPLAYBPM:100.000:400.000;
#BPMS:0.000=200.000,64.000=100.000,66.000=400.000,194.000=200.000,226.000=400.000,282.000=100.000,284.000=400.000,412.000=200.000,444.000=400.000;
#STOPS:;
#BGCHANGES:3.750=Anti-Matter.avi=1.000=0=0=0,
99999=-nosongbg-=1.000=0=0=0 // don't automatically add -songbackground-
;
#ATTACKS:;

//---------------dance-single - ----------------
#NOTES:
     dance-single:
     :
     Beginner:
     6:
     0.292,0.380,0.149,0.000,0.000:
0000
0000
0000
0000
,
0000
0000
0000
0000
,
0000
0000
0000
0000
,
0000
0000
0000
0000
,
0000
0000
0000
0000
,
0000
0000
0000
0000
,
0000
0000
0000
0000
,
0000
0000
0000
0000
,
0000
0000
0000
0000
,
1001
0000
0000
0000
,
0000
0000
0000
0000
,
1001
0000
0000
0000
,
0000
0000
0000
0000
,
1001
1001
0000
0000
,
0000
0000
0000
0000
,
0000
0000
0000
0000
,
0100
0000
0010
0000
,
0000
0000
1000
0000
,
0000
0000
0010
0000
,
0000
0000
1000
0000
,
0000
0000
0100
0000
,
0000
0000
0001
0000
,
0000
0000
0100
0000
,
0000
0000
0001
0000
,
0000
0000
1000
0000
,
1000
0000
1000
0000
,
0000
0000
0001
0000
,
0001
0000
0001
0000
,
0000
0000
1000
0000
,
1000
0000
1000
0000
,
0000
0000
1001
0000
,
0000
0000
0000
0000
,
0000
0000
0001
0000
,
0001
0000
0010
0000
,
0000
0000
0100
0000
,
0100
0000
0001
0000
,
0000
0000
1000
0000
,
1000
0000
0010
0000
,
0000
0000
0010
0000
,
0010
0000
0100
0000
,
0000
0000
0001
0000
,
0001
0000
0100
0000
,
0000
0000
0100
0000
,
0100
0000
0010
0000
,
0000
0000
1000
0000
,
1000
0000
0010
0000
,
0000
0000
0100
0000
,
0000
0000
0000
0000
,
0000
0000
1001
0000
,
0000
0000
0001
0000
,
1000
0000
1001
0000
,
0000
0000
0010
0010
,
0010
0000
1001
0000
,
0000
0000
1000
0000
,
0001
0000
1001
0000
,
0000
0000
0100
0100
,
0100
0000
0100
0000
,
1000
0000
0100
0000
,
1000
0000
0010
0000
,
0000
0000
0010
0000
,
0000
0000
0100
0000
,
0001
0000
0100
0000
,
0001
0000
0010
0000
,
0000
0000
0010
0000
,
0000
0000
0001
0000
,
1000
0000
0001
0000
,
1000
0000
0100
0000
,
0010
0000
0100
0000
,
0010
0000
0001
0000
,
0000
0000
1000
0000
,
0000
0000
1001
0000
,
0001
0000
0001
0000
,
1000
0000
1000
0000
,
0001
0000
1000
0000
,
0001
0000
1000
0000
,
0010
0000
0010
0000
,
0100
0000
0100
0000
,
0010
0000
0100
0000
,
0010
0000
0100
0000
,
1000
0000
1000
0000
,
0001
0000
0001
0000
,
1000
0000
0001
0000
,
1000
0000
0001
0000
,
0100
0000
0100
0000
,
0010
0000
0010
0000
,
0100
0000
0010
0000
,
0100
0000
0000
0000
,
0100
0000
0100
0000
,
0001
0000
0001
0000
,
0010
0000
0010
0000
,
1000
0000
1000
0000
,
0100
0000
0100
0000
,
0001
0000
0001
0000
,
0010
0000
0010
0000
,
1000
0000
1000
0000
,
1000
0000
0010
0000
,
1000
0000
0010
0000
,
0100
0000
0001
0000
,
0100
0000
0001
0000
,
1000
0000
0001
0000
,
1000
0000
0001
0000
,
1000
0000
0000
0000
,
0001
0000
0000
0000
,
1001
0000
0000
0000
,
0010
0010
0010
0000
,
0110
0000
0000
0000
,
1000
1000
1000
0000
,
1001
0000
0000
0000
,
0100
0100
0100
0000
,
0110
0000
0000
0000
,
0001
0001
0001
0000
,
1000
0000
0100
0000
,
1000
0000
0100
0000
,
1000
0000
0010
0000
,
1000
0000
0010
0000
,
0100
0000
0010
0000
,
0100
0000
0010
0000
,
0100
0000
0001
0000
,
0100
0000
0001
0000
,
0001
0000
0001
0000
,
0010
0000
0010
0000
,
1000
0000
1000
0000
,
0100
0000
0100
0000
,
0001
0000
0001
0000
,
0010
0000
0010
0000
,
1000
0000
0000
0000
,
0001
0000
0000
0000
,
1001
0000
0000
0000
,
;

//---------------dance-single - ----------------
#NOTES:
     dance-single:
     :
     Easy:
     9:
     0.552,0.765,0.329,0.219,0.000:
0000
0000
0000
0000
,
0000
0000
0000
0000
,
0000
0000
0000
0000
,
0000
0000
0000
0000
,
0000
0000
0000
0000
,
0000
0000
0000
0000
,
0000
0000
0000
0000
,
0000
0000
0000
0000
,
0000
0000
0000
0000
,
1001
0100
0100
0100
,
0100
0100
0100
0100
,
1001
0010
0010
0010
,
0010
0010
0010
0010
,
1001
1001
0001
0001
,
1000
1000
0010
0010
,
0100
0100
1001
0110
,
0002
0000
2000
3003
0001
0000
0000
0000
,
0010
0000
0100
0000
,
1001
0000
1000
0000
,
0010
0000
0100
0000
,
1001
0000
0001
0000
,
0010
0000
0100
0000
,
1001
0000
1000
0000
,
0010
0000
0100
0000
,
1001
0000
0001
0000
,
0100
0000
0010
0000
,
1001
0000
1000
0000
,
0100
0000
0010
0000
,
1001
0000
0010
0000
,
0100
0000
0010
0000
,
1001
0000
0002
0000
,
0023
0000
0230
0000
,
2300
0000
3001
0001
,
0001
0000
0010
0000
,
0110
0000
1000
0000
,
0010
0000
0100
0000
,
0110
0000
0001
0000
,
0010
0000
0100
0000
,
0110
0000
1000
0000
,
1000
0000
0001
0000
,
0001
0000
0000
0000
,
1001
0000
1000
0000
,
0100
0000
0010
0000
,
0110
0000
0001
0100
,
0001
0100
0010
0000
,
0110
0000
0010
1000
,
0001
0000
0002
0000
,
0000
0000
1000
1000
,
1003
0000
0000
0000
1000
0100
1000
0000
,
0010
1000
0100
0001
,
0100
0000
1000
0000
0001
0100
0001
0000
,
0010
0001
0100
1000
,
0100
0000
0001
0000
1000
0010
1000
0000
,
0001
0010
0001
0000
1000
0000
0100
0000
,
0001
0100
2000
0001
,
0001
0001
0001
0001
,
0100
0100
3100
0000
0001
0000
0010
0000
,
0001
0000
0100
0000
,
0100
0000
0010
1000
,
0010
0000
0100
0000
,
0100
0000
0001
1000
,
0001
0000
0010
0000
,
0100
0000
1000
0001
,
1000
0000
0100
0000
,
0010
0000
0001
1000
,
0001
0000
1000
0001
,
1000
0000
0010
0100
,
0010
0000
0100
0010
,
0100
0000
0001
0010
,
0001
1000
0001
0100
,
0001
0000
0010
0000
0002
0000
2000
3003
,
1000
0000
0100
0000
,
0010
0000
1001
0000
,
0001
0000
0100
0000
,
0010
0000
1001
0000
,
1000
0000
0100
0000
,
0010
0000
1001
0000
,
0001
0000
0100
0000
,
0010
0000
1001
0000
,
1000
0000
0010
0000
,
0100
0000
1001
0000
,
0001
0000
0010
0000
,
0100
0000
1001
0000
,
0100
0000
0010
0000
,
0100
0000
1001
0000
,
2000
0000
3200
0000
,
0320
0000
0032
0000
,
1003
1000
1000
0000
,
0100
0000
0110
0000
,
0001
0000
0100
0000
,
0010
0000
0110
0000
,
1000
0100
1000
0000
,
0010
0000
0110
0000
,
0001
1000
0001
0000
,
1000
0001
1000
0000
,
0010
0000
1001
0000
,
0001
0100
0010
0000
,
0100
0000
0110
0000
,
1000
0100
0010
0000
,
0100
0000
0110
0000
,
0010
0001
0100
0000
,
0020
0000
0100
0000
,
0100
0100
0130
0000
,
0010
0000
0010
0000
0001
0100
1000
0000
,
0001
0100
1000
0000
0002
0000
1003
0000
,
0010
0000
0010
0000
1000
0100
0001
0000
,
1000
0100
0001
0000
2000
0000
3001
0000
,
1000
0000
0001
0000
0010
0001
0100
0000
,
0010
1000
0100
0000
0020
0000
0130
0000
,
0010
0001
1000
0100
,
0020
0000
0030
0000
,
0001
0010
0001
0000
,
1000
0100
1000
0000
,
0010
1000
0010
0000
,
0100
0001
0100
0000
,
0010
0100
0010
0000
,
1000
0010
1000
0000
,
0001
0100
0001
0000
,
0100
0010
0100
0000
,
0001
0100
0010
1000
,
0001
0100
0010
1000
,
0001
0010
0100
1000
,
0001
0010
0100
1000
,
0001
0001
0100
0100
,
0010
0010
1000
1000
,
0002
0000
0000
0000
,
0003
0000
0000
0000
,
2002
0000
0000
0000
,
3003
0000
0000
0000
;

//---------------dance-single - ----------------
#NOTES:
     dance-single:
     :
     Medium:
     14:
     0.709,0.893,0.110,0.428,0.040:
0000
0000
0000
0000
,
0000
0000
0000
0000
,
0000
0000
0000
0000
,
0000
0000
0000
0000
,
0000
0000
0000
0000
,
0000
0000
0000
0000
,
0000
0000
0000
0000
,
0000
0000
0000
0000
,
0000
0000
0000
0000
,
1001
0100
0100
0100
,
0100
0000
0100
0000
0100
0000
0100
1000
,
0001
0010
0010
0010
,
0010
0000
0010
0000
0010
0000
0010
1000
,
0100
0110
0001
0001
,
1000
1000
0010
0010
,
0100
0100
1001
0110
,
0002
0000
0000
0000
0000
0000
0000
0000
0000
0000
0000
0000
0000
0000
0000
0000
0000
0000
0000
0000
0000
0000
0000
0000
0000
0000
0000
0000
0000
0000
0000
0000
0000
0000
0000
0000
0000
0000
0000
0000
0000
0000
0000
0000
0000
0000
0000
0000
0000
0000
0000
2000
0000
0000
0000
0000
0000
0000
0000
0000
0000
0000
0000
0000
0000
0000
0000
0000
0000
0000
0000
0000
3003
0000
0000
0000
0000
0000
0000
0000
0000
0000
0000
0000
0000
0000
0000
0000
0000
0000
0000
0000
0000
0000
0000
0000
0001
0000
0000
0000
0000
0000
0000
0000
0000
0000
0000
0000
0000
0000
0000
0000
0000
0000
0000
0000
0000
0000
0000
0000
0000
0000
0000
0000
0000
0000
0000
0000
0000
0000
0000
0000
0000
0000
0000
0000
0000
0000
0000
0000
0000
0000
0000
0000
0000
0000
0000
0000
0000
0000
0000
0000
0000
0000
0000
0000
0000
0000
0000
0000
0000
0000
0000
0000
0000
0000
0000
0000
0100
0000
0000
0000
0000
0000
0000
0000
0000
0000
0000
0000
0000
0000
0000
0000
0000
0000
0000
0000
0000
0000
0000
0000
,
0000
0001
0010
0100
,
2000
0000
0000
0000
3002
0000
0000
0103
,
0000
0001
0100
0010
,
1000
0000
0001
0000
2000
0000
0000
3100
,
0000
1000
0010
0100
,
0002
0003
1000
0001
,
0100
0001
1000
0010
,
0200
0000
0000
0000
0310
0000
0000
1000
,
0000
0001
0010
0100
,
0020
0000
0000
0000
0032
0000
0000
1003
,
0000
0010
1000
0001
,
0100
0000
0010
0000
2000
0000
0000
3001
,
0000
0100
0010
1000
,
0200
0300
1100
0000
,
0011
0000
0101
0000
,
1010
0000
0001
0001
,
0100
0001
0010
0100
,
2000
0000
0000
0000
3020
0000
0000
1030
,
0000
0010
0100
0001
,
0010
0000
0100
0000
0020
0000
0000
0031
,
0000
0100
0001
0010
,
0200
0000
0301
0100
,
1000
0100
0001
0100
,
1000
0100
0001
0000
,
1001
0000
0001
0010
,
0200
0000
0000
0000
2300
0000
0000
3001
,
0000
0100
0010
1000
,
0010
0000
0100
0000
0002
0000
0000
1003
,
0000
0010
1000
0010
,
0200
0000
0301
0001
,
1000
1000
0010
0010
,
0100
0000
0000
0000
1000
0100
1000
0000
,
0100
0000
0000
0100
0000
0000
0010
0000
0000
0010
0000
0000
0001
0000
0000
0000
,
0001
0100
0001
1000
0001
0010
0001
0000
,
0100
0000
0000
0100
0000
0000
0010
0000
0000
0000
0010
0000
0000
1000
0000
0000
,
1000
0010
1000
0001
1000
0010
0100
0001
,
0010
0000
0000
0100
0000
0000
0010
0000
0000
0000
0001
0000
0000
0100
0000
0000
,
1000
0000
0000
0100
0000
0000
0010
0000
0200
0000
0000
0000
0000
0000
0000
0000
,
0000
0000
0000
0000
,
0010
0010
0310
0000
1000
0000
0100
0000
,
1000
0000
0001
0100
,
0001
0000
1000
0010
,
1000
1000
0100
0010
,
0100
0000
0010
0001
,
0010
0000
0001
1000
,
0100
0000
1000
0001
,
0010
1000
0010
0001
,
0100
0000
0010
1000
,
0100
0001
0100
1000
,
0010
0001
0010
1000
,
0100
1000
0010
0100
,
0001
0010
0100
1000
,
0010
0100
0001
0100
,
1000
0000
0100
0000
0002
0000
2000
3003
,
1000
0100
1000
0010
,
1000
0001
0200
0000
,
0301
0010
0100
1000
,
0100
0001
0100
1000
,
0001
0100
0001
1000
,
0001
1000
0200
0000
,
1300
0010
0100
0001
,
0100
1000
0200
0000
,
0301
0010
0100
0010
,
1000
0010
0002
0000
,
1003
0010
0100
0010
,
0001
0010
0100
0010
,
1000
0100
0010
0001
,
0100
0010
2000
0000
,
3002
0010
0023
0100
,
0230
1000
2300
0000
,
3001
0001
0001
0010
,
0100
0010
0002
0000
,
1003
0010
1000
0010
,
0100
0001
0010
0100
,
0010
0100
0010
0100
0010
0000
0100
0000
,
0010
0001
0200
0000
,
0310
1000
0100
0001
,
0100
1000
0010
0001
,
0010
1000
0100
0010
,
0001
0100
0020
0000
,
0130
1000
0100
0001
,
0010
1000
0010
0100
,
0001
0100
1000
0010
,
0100
0001
0020
0000
,
0031
0001
0100
0100
,
0010
0010
1000
0000
,
0001
0000
0010
0000
0001
0100
1000
0000
,
0010
1000
0100
0000
0200
0000
0300
0000
,
1000
0000
0010
0000
1000
0100
0001
0000
,
0010
0001
0100
0010
0200
0000
0300
0000
,
0001
1000
0010
0000
0010
1000
0100
0010
,
0001
0100
0010
0000
2002
0000
3003
0000
,
0010
1000
0001
0100
,
0020
0000
0130
0000
,
1000
0100
0010
0001
,
1000
0100
0010
0001
,
0001
0100
0010
1000
,
0001
0100
0010
1000
,
0100
0001
0100
1000
,
1000
0010
0001
0010
,
0010
1000
0100
0001
,
0001
0100
1000
0010
,
1000
0100
0010
0000
0001
0000
0100
0000
,
0010
1000
0010
0100
,
0001
0100
0010
0000
1000
0000
0010
0000
,
0100
0001
0010
0100
,
0010
0001
0100
0000
0010
0000
0100
0000
,
0001
0000
0100
0000
0010
0100
0010
0100
,
0020
0000
0000
0000
,
0030
0000
0000
0000
,
2002
0000
0000
0000
,
3003
0000
0000
0000
,
;

//---------------dance-single - ----------------
#NOTES:
     dance-single:
     :
     Hard:
     17:
     0.952,1.000,0.219,0.468,0.120:
0000
0000
0000
0000
,
0000
0000
0000
0000
,
0000
0000
0000
0000
,
0000
0000
0000
0000
,
0000
0000
0000
0000
,
0000
0000
0000
0000
,
0000
0000
0000
0000
,
0000
0000
0000
0000
,
0000
0000
0000
0000
,
1001
0100
0100
0100
,
0100
0000
0100
0000
0100
0000
0100
0010
,
1001
0010
0010
0010
,
0010
0000
0010
0000
0010
0000
0010
0100
,
1010
0101
0001
0001
,
1000
1000
0010
0010
,
0100
0100
1001
0110
,
0002
0000
0000
0000
0000
0000
0000
0000
0000
0000
0000
0000
0000
0000
0000
0000
0000
2000
0000
0000
0000
0000
0000
0000
3003
0000
0000
0000
0000
0000
0000
0000
0001
0000
0000
0000
0000
0000
0000
0000
0100
0000
0000
0000
0000
0000
0000
0000
0001
0000
0000
0000
0000
0000
0000
0000
0000
0000
0000
0000
0000
0000
0000
0000
,
0100
0001
0010
0100
1000
0000
0100
0000
,
2200
0000
3300
0000
1000
0100
1000
0000
,
0100
1000
0100
0010
0001
0000
0010
0000
,
0001
0000
0010
0000
0001
0100
0001
0000
,
0100
0001
0010
0100
1000
0000
0100
0000
,
2200
3300
1000
1000
,
0001
0001
0010
0100
,
2000
0000
3000
0000
0001
0100
0001
0000
,
0100
0001
0010
0100
1000
0000
0100
0000
,
2200
0000
3300
0000
1000
0100
1000
0000
,
0100
1000
0100
0010
0001
0000
0100
0000
,
0010
0000
0100
0000
0001
0100
0001
0000
,
0100
0001
0010
0100
1000
0000
0001
0000
,
2000
3000
0001
0001
,
1000
1000
0001
0001
,
1000
1000
1010
1010
,
1000
0010
1000
0010
,
2020
0000
3030
0000
1000
0100
1000
0000
,
0001
0100
0001
0000
0100
0000
0100
0000
,
0001
0000
0100
0000
0001
0100
0001
0000
,
1000
0100
1000
0000
0001
0000
0100
0000
,
0202
0000
0303
0000
1000
0100
1000
0000
,
0010
0000
0100
0000
0001
0100
0001
0000
,
0010
0100
0010
0000
,
1001
0000
0001
0010
,
0200
0000
0300
0000
1000
0100
1000
0001
,
0100
0001
0100
0000
0001
0000
0010
0000
,
0001
0000
0100
0000
0001
0100
0001
0100
,
0001
1000
0100
1000
0001
0100
0010
1000
,
0002
0003
1000
0100
,
1000
0100
1000
0000
0001
0000
0010
0100
,
0020
0000
0030
0000
1000
0001
0100
0010
,
2000
0010
0000
0010
3000
0000
0020
0000
0000
0100
0000
0000
0130
0000
0000
0000
,
0001
0100
1000
0100
0001
0010
1000
0010
,
0002
0100
0000
0100
0003
0000
0200
0000
0000
0000
0010
0000
0300
0010
0000
0000
,
1000
0100
1000
0001
0100
0001
0100
0000
0001
0100
0001
0000
0010
0000
0100
0000
,
2000
0100
0000
0100
3000
0000
0001
0100
0000
0000
0001
0000
0000
0100
0000
0000
,
0001
0010
0000
0001
0010
0001
0100
0000
0002
0000
0000
0000
0000
0000
0000
0000
,
0000
0000
0000
0000
,
1000
1000
1003
0000
0010
0000
1000
0000
,
0100
0001
1000
0010
,
0001
1000
0100
0001
,
0100
1000
0010
0001
,
0010
0100
0001
0010
,
1000
0001
0100
1000
,
0010
0001
1000
0100
,
0001
1000
0001
1000
,
0001
0100
0001
0000
1000
0100
1000
0000
,
0001
0100
0001
0000
1000
0100
1000
0000
,
0001
0100
0001
0000
1000
0010
1000
0000
,
0001
0010
0001
0000
1000
0010
1000
0000
,
0001
0010
0001
0000
1000
0100
1000
0001
,
0100
0001
1000
0000
0001
1000
0100
1000
,
0001
0100
0001
1000
0200
0000
0020
0330
,
1000
0100
1000
0000
0100
1000
0010
0100
,
0001
0100
0202
0303
,
0001
0100
0001
0000
0100
0001
0100
0010
,
1000
0010
1000
0010
,
1000
0100
1000
0000
0100
1000
0010
0100
,
0001
0100
0202
0303
,
0001
0001
1000
1000
,
0010
0100
0002
0003
,
1000
0100
1000
0000
0100
1000
0010
0100
,
0001
0100
0202
0303
,
0001
0100
0001
0000
0100
0001
0100
0010
,
1000
0100
0010
0100
,
1000
0100
1000
0000
0100
1000
0010
0100
,
0001
1000
0002
0003
,
1000
1000
0001
0001
,
1000
1000
0001
0001
,
0011
0011
0001
0010
,
0001
0010
0022
0033
,
0001
0100
0001
0000
1000
0100
1000
0000
,
0100
0100
1000
0100
,
1000
0100
1000
0100
1000
0000
0001
0000
,
1000
0100
2200
3300
,
0001
0100
0001
0000
0010
0000
0100
0000
,
1000
0100
1000
0000
0010
0000
0100
0000
,
0010
1000
0001
0100
,
0010
1000
0010
0000
0200
0000
0300
0000
,
0001
0100
0001
1000
0100
1000
0100
0000
,
1000
0010
1000
0100
,
1000
0100
1000
0100
1000
0001
0100
0001
,
1000
0100
0010
0001
2000
0000
3000
0000
,
0001
0000
0100
0000
0001
0100
0001
0000
,
1000
0000
0010
0100
0020
0000
0030
0000
,
1000
0000
0100
0000
1000
0000
0001
0000
0100
1000
0100
0000
0001
0000
0010
0000
,
0100
0010
0100
0000
0001
0000
0100
0000
2000
0000
0000
0000
3000
0000
0000
0000
,
0001
0000
0010
0000
0001
0000
1000
0000
0010
0001
0010
0000
1000
0000
0100
0000
,
0010
0100
0010
0000
1000
0000
0010
0000
0002
0000
0000
0000
0003
0000
0000
0000
,
0001
0100
0001
0000
0010
0000
0100
0000
1000
0000
0010
0000
0001
0000
0010
0000
,
1000
0100
1000
0000
0100
0000
0001
0000
0200
0000
0000
0000
0300
0000
0000
0000
,
0010
1000
0001
0100
,
0020
0000
0030
0000
,
1000
1000
0001
0001
,
0010
0010
1000
1000
,
0001
0001
0100
0100
,
0010
0010
0100
0100
,
1000
0100
1000
0000
0001
0100
0001
0000
,
1000
0010
0100
0000
0001
0010
0100
0000
,
1000
0001
0100
0000
0010
1000
0001
0000
,
1000
0100
0010
0001
0100
0010
1000
0000
,
0001
0100
0001
1000
0100
0000
1000
0100
,
1000
0001
0100
0000
0001
0010
0001
1000
,
0010
0000
1000
0100
0010
0001
0100
0000
,
0001
0100
0010
1000
0100
0000
1000
0001
,
0100
0001
0010
0100
1000
0001
0100
0001
,
1000
0100
1000
0001
0010
0100
1000
0001
,
0200
0000
0000
0000
,
0300
0000
0000
0000
,
2002
0000
0000
0000
,
3003
0000
0000
0000
;

//---------------dance-single - ----------------
#NOTES:
     dance-single:
     :
     Challenge:
     18:
     1.000,1.000,0.219,0.388,0.219:
0000
0000
0000
0000
,
0000
0000
0000
0000
,
0000
0000
0000
0000
,
0000
0000
0000
0000
,
0000
0000
0000
0000
,
0000
0000
0000
0000
,
0000
0000
0000
0000
,
0000
0000
0000
0000
,
0000
0000
0000
0000
,
1001
0100
0100
0100
,
0100
0100
0100
0100
,
1001
0010
0010
0010
,
0010
0010
0010
0010
,
1010
0101
0001
0001
,
1000
1000
0010
0010
,
0100
0100
1001
0110
,
0002
0000
0000
0000
0000
0000
0000
0000
0000
0000
0000
0000
0000
0000
0000
0000
0000
2000
0000
0000
0000
0000
0000
0000
3003
0000
0000
0000
0000
0000
0000
0000
0001
0000
0000
0000
0000
0000
0000
0000
0100
0000
0000
0000
0000
0000
0000
0000
0001
0000
0000
0000
0000
0000
0000
0000
0100
0000
0000
0000
0000
0000
0000
0000
,
0001
0100
0010
1000
0100
0000
1000
0000
,
2200
0000
3300
0000
1000
0100
1000
0100
,
1000
0100
0010
0001
0010
0000
0001
0000
,
0010
0000
0001
0000
0001
0100
0001
0100
,
0001
0100
0001
0010
0100
0000
1000
0000
,
2200
0000
3300
0000
1000
0010
1000
0000
,
0001
0000
1000
0000
0001
0100
0001
0000
,
2000
0000
3000
0000
0001
0100
0001
0100
,
0001
0100
0001
0010
0100
0000
1000
0000
,
2200
0000
3300
0000
1000
0100
1000
0100
,
0010
0001
0100
0001
0100
0000
0001
0000
,
1000
0000
0001
0000
0100
0001
0100
0001
,
0100
0010
1000
0100
1000
0001
0100
0001
,
2000
0000
3000
0000
0001
0010
0001
0000
,
1000
0010
1000
0000
0001
0010
0001
0000
,
1000
0010
1000
0000
1010
0000
1010
0000
,
1000
0000
0010
0000
1000
0010
1000
0000
,
2020
0000
3030
0000
1000
0100
1000
0100
,
1000
0001
0100
0001
0100
0000
0001
0000
,
0010
0000
0001
0000
0100
0001
0100
0001
,
1000
0100
1000
0001
0100
0010
1000
0001
,
0200
0000
0300
0000
0001
0100
0001
0000
,
0010
0000
0100
0000
1000
0100
1000
0000
,
0010
0100
0010
0000
,
1001
0000
0000
0000
0001
0100
0001
1000
,
0200
0000
0300
0000
1000
0100
1000
0001
,
0100
0001
0100
0000
0001
0000
0010
0000
,
0001
0000
0100
0000
0001
0100
0001
0100
,
0001
1000
0100
1000
0001
0100
0010
1000
,
0002
0003
1000
0100
,
1000
0100
1000
0000
0001
0000
0010
0100
,
0020
0000
0030
0000
1000
0001
0100
0010
,
1000
0100
0000
0010
0001
0000
0100
0010
0000
1000
0100
0000
0010
0001
0000
0000
,
1000
0000
0010
0000
1000
0100
1000
0000
0001
0000
1000
0000
0010
0000
0100
0000
,
0001
0100
0000
0010
1000
0000
0001
0100
0000
0000
0010
1000
0000
0100
0010
0000
,
0001
0010
0100
1000
0100
1000
0100
0000
1000
0001
0100
0000
0010
0000
0100
0000
,
0001
0100
0000
0001
0100
0000
0010
1000
0000
0000
0010
1000
0001
0100
0000
0000
,
0001
0010
0000
0001
0010
0001
0100
0000
0001
0000
0100
0000
0010
0000
1000
0000
,
0001
0010
0000
0100
0010
0000
0001
0100
0000
0010
0100
0000
0001
0000
1000
0000
,
0001
0001
0001
0000
0010
0000
1000
0000
,
0100
0001
1000
0010
,
0001
1000
0100
0001
,
0100
1000
0010
0001
,
0010
0100
0001
0010
,
1000
0001
0100
1000
,
0010
0001
1000
0100
,
0001
1000
0001
1000
,
0001
0100
0001
0000
1000
0100
1000
0000
,
0001
0100
0001
0000
1000
0100
1000
0000
,
0001
0100
0001
0000
1000
0010
1000
0000
,
0001
0010
0001
0000
1000
0010
1000
0000
,
0001
0010
0001
0000
1000
0100
1000
0001
,
0100
0001
1000
0100
1000
0001
0010
0001
,
1000
0010
1000
0001
0200
0000
0020
0330
,
1000
0100
1000
0100
1000
0100
0010
0001
,
0100
0001
0202
0303
,
0001
0100
0001
0100
0001
0100
0010
1000
,
0010
1000
0001
1000
,
0100
1000
0100
0000
1000
0100
1000
0010
,
0100
0001
0202
0303
,
0001
0010
0001
0000
1000
0000
0001
0000
,
1000
0100
1000
0000
0002
0000
0003
0000
,
1000
0100
1000
0100
1000
0100
1000
0010
,
0100
0001
0202
0303
,
0001
0100
0001
0100
0010
1000
0100
1000
,
0100
1000
0010
1000
,
0100
1000
0100
1000
0100
0010
0001
0100
,
0001
1000
0100
1000
0002
0000
0003
0000
,
1000
0100
1000
0000
0001
0100
0001
0000
,
1000
0100
1000
0000
0001
0010
0001
0000
,
0011
0011
0001
0010
,
0001
0010
0001
0000
0022
0000
0033
0000
,
0001
0100
0001
0100
0001
1000
0100
1000
,
0100
1000
0010
1000
,
0100
1000
0100
1000
0100
0000
1000
0100
,
0010
0001
0010
0100
2000
0000
3000
0000
,
1000
0100
1000
0000
0001
0100
0001
0000
,
1000
0100
1000
0000
0001
0100
0001
0000
,
0010
0100
0010
0100
1000
0100
1000
0010
,
0100
0001
0200
0300
,
0001
0100
0001
1000
0100
1000
0100
0000
,
1000
0010
1000
0100
,
1000
0100
1000
0001
0100
0001
1000
0100
,
1000
0100
0010
0001
2000
0000
3000
0000
,
1000
0000
1100
0000
0001
0100
0001
0000
,
0101
0000
0100
0010
0200
0000
0300
0000
,
1000
0000
0100
0000
1000
0001
0100
0000
0010
1000
0100
0000
0001
0000
0010
0000
,
0100
0010
0100
0000
0001
0000
0100
0000
2000
0000
0000
0000
3000
0000
0000
0000
,
0001
0000
0010
0000
0001
1000
0010
0000
0100
0001
0010
0000
0001
0000
0100
0000
,
0010
0100
0010
0000
1000
0100
1000
0000
0002
0000
0000
0000
0003
0000
0000
0000
,
0001
0100
0001
0000
0010
0100
0010
0000
1000
0000
0010
0000
0001
0100
0001
0000
,
1000
0100
1000
0000
0100
1000
0001
0010
0200
0000
0000
0000
0300
0000
0000
0000
,
0010
0001
0010
0000
0100
1000
0100
0000
0001
0100
0001
0000
0010
0000
0100
0000
,
0020
0000
0030
0000
,
1000
0100
1000
0000
0001
0100
0001
0000
,
1000
0010
1000
0000
0001
0010
0001
0000
,
1000
0001
0100
0000
0001
1000
0100
0000
,
1000
0001
0100
0000
0001
1000
0100
0000
,
1000
0001
0100
0001
1000
0000
0001
1000
,
0100
1000
0001
0000
1000
0001
0010
0001
,
1000
0000
0001
1000
0010
1000
0001
0000
,
1000
0100
0010
0001
0100
0010
1000
0000
,
0001
0100
0001
1000
0100
1000
0001
0100
,
0001
1000
0100
1000
0001
0010
0001
1000
,
0010
1000
0001
0100
0010
1000
0100
0010
,
0001
0100
0010
1000
0100
1000
0001
1000
,
0100
1000
0010
0100
0001
1000
0100
1000
,
0001
0100
0001
1000
0010
0100
0001
1000
,
0200
0000
0000
0000
,
0300
0000
0000
0000
,
2002
0000
0000
0000
,
3003
0000
0000
0000
;

//---------------dance-double - ----------------
#NOTES:
     dance-double:
     :
     Easy:
     10:
     0.549,0.771,0.309,0.219,0.000:
00000000
00000000
00000000
00000000
,
00000000
00000000
00000000
00000000
,
00000000
00000000
00000000
00000000
,
00000000
00000000
00000000
00000000
,
00000000
00000000
00000000
00000000
,
00000000
00000000
00000000
00000000
,
00000000
00000000
00000000
00000000
,
00000000
00000000
00000000
00000000
,
00000000
00000000
00000000
00000000
,
00011000
00010000
00010000
00010000
,
00001000
00001000
00000010
00000010
,
00000110
00000001
00000001
00001000
,
00001000
00000001
00000001
00001000
,
00001001
00000110
00000010
00000010
,
00001000
00001000
00100000
00100000
,
01000000
01000000
01100000
10010000
,
00020000
00000000
20000000
30030000
00100000
00000000
00000000
00000000
,
10000000
00000000
01000000
00000000
,
10010000
00000000
00100000
00000000
,
00001000
00000000
00010000
00000000
,
00011000
00000000
00000010
00000000
,
00001000
00000000
00000100
00000000
,
00001001
00000000
00000001
00000000
,
00000010
00000000
00000001
00000000
,
00000110
00000000
00000010
00000000
,
00000001
00000000
00000100
00000000
,
00001001
00000000
00000010
00000000
,
00010000
00000000
00001000
00000000
,
00011000
00000000
00100000
00000000
,
00010000
00000000
01000000
00000000
,
10010000
00000000
02000000
00000000
,
03020000
00000000
00032000
00000000
,
00003200
00000000
00000310
00000010
,
00000010
00000000
00000100
00000000
,
00001001
00000000
00000001
00000000
,
00001000
00000000
00000100
00000000
,
00000110
00000000
00000010
00000000
,
00000001
00000000
00000100
00000000
,
00000110
00000000
00000100
00000000
,
00001000
00000000
00010000
00000000
,
01000000
00000000
00000000
00000000
,
10010000
00000000
10000000
00000000
,
01000000
00000000
00010000
00000000
,
00011000
00000000
00001000
00010000
,
00001000
00010000
00000100
00000000
,
00000010
00000000
00000001
00000100
,
00000010
00000000
00002000
00000000
,
00000000
00000000
00000001
00000001
,
00003001
00000000
00000000
00000000
00000001
00000100
00001000
00000000
,
01000000
00010000
00100000
01000000
,
10000000
00000000
01000000
00000000
10000000
01000000
00010000
00000000
,
00000100
00001000
00000100
00000010
,
00000001
00000000
00000100
00000000
00000010
00010000
00001000
00000000
,
00010000
00001000
00100000
00000000
00010000
00000000
01000000
00000000
,
00100000
00010000
00002000
00010000
,
00010000
00010000
00010000
00010000
,
00010000
00010000
00013000
00000000
00001000
00000000
00010000
00000000
,
01000000
00000000
00100000
00000000
,
01000000
00000000
10000000
01000000
,
10000000
00000000
00010000
00000000
,
01000000
00000000
00010000
01000000
,
00001000
00000000
00010000
00000000
,
00001000
00000000
00010000
00000100
,
00000010
00000000
00000001
00000000
,
00000010
00000000
00000001
00000100
,
00001000
00000000
00000001
00000100
,
00001000
00000000
00000010
00010000
,
00001000
00000000
00000010
00010000
,
00001000
00000000
00010000
00001000
,
00100000
00010000
00100000
00001000
,
00010000
00000000
00000010
00000000
00002000
00000000
00000002
00003003
,
00000010
00000000
00000001
00000000
,
00000100
00000000
00001001
00000000
,
00000010
00000000
00010000
00000000
,
00001000
00000000
00011000
00000000
,
00100000
00000000
00010000
00000000
,
01000000
00000000
10010000
00000000
,
10000000
00000000
00100000
00000000
,
10000000
00000000
01100000
00000000
,
00100000
00000000
10000000
00000000
,
01000000
00000000
10010000
00000000
,
00100000
00000000
00001000
00000000
,
00010000
00000000
00011000
00000000
,
00000010
00000000
00001000
00000000
,
00000100
00000000
00001001
00000000
,
00000200
00000000
00002300
00000000
,
00023000
00000000
02030000
00000000
,
03100000
00100000
00100000
00000000
,
01000000
00000000
10010000
00000000
,
10000000
00000000
00010000
00000000
,
01000000
00000000
01100000
00000000
,
00100000
10000000
01000000
00000000
,
00010000
00000000
01100000
00000000
,
01000000
00010000
00001000
00000000
,
00010000
00001000
00000100
00000000
,
00000010
00000000
00001001
00000000
,
00000001
00000010
00000100
00000000
,
00001000
00000000
00011000
00000000
,
00010000
00001000
00010000
00001000
,
01000000
00000000
00100000
00000000
,
10000000
01000000
00100000
00000000
,
00020000
00000000
00000000
00000000
,
10000000
10000000
10030000
00000000
,
00100000
00000000
00100000
00000000
10000000
01000000
00010000
00000000
,
00001000
00000010
00000001
00000000
00002000
00000000
00003001
00000000
,
00000010
00000000
00000010
00000000
00000001
00000100
00001000
00000000
,
00010000
00100000
10000000
00000000
00020000
00000000
10030000
00000000
,
00100000
00000000
00001000
00000000
00010000
00001000
00010000
00000000
,
00001000
00000100
00000010
00000000
00000002
00000000
00001003
00000000
,
00000010
00000001
00001000
00000100
,
00000020
00000000
00000030
00000000
,
00000001
00000010
00000100
00000000
,
00000010
00000100
00010000
00000000
,
00001000
00010000
01000000
00000000
,
00100000
00010000
01000000
00000000
,
00001000
00010000
00001000
00000000
,
00010000
01000000
10000000
00000000
,
00010000
01000000
10000000
00000000
,
00100000
00010000
01000000
00000000
,
00010000
01000000
00100000
10000000
,
01000000
00100000
00010000
00001000
,
00000100
00000001
00000100
00001000
,
00000010
00000100
00000001
00000010
,
00000100
00010000
00001000
00100000
,
00010000
01000000
00100000
00010000
,
00002000
00000000
00000000
00000000
,
00003000
00000000
00000000
00000000
,
00022000
00000000
00000000
00000000
,
00000000
00000000
00000000
00000000
,
00033000
00000000
00000000
00000000
,
;

//---------------dance-double - ----------------
#NOTES:
     dance-double:
     :
     Medium:
     15:
     0.741,1.000,0.169,0.598,0.035:
00000000
00000000
00000000
00000000
,
00000000
00000000
00000000
00000000
,
00000000
00000000
00000000
00000000
,
00000000
00000000
00000000
00000000
,
00000000
00000000
00000000
00000000
,
00000000
00000000
00000000
00000000
,
00000000
00000000
00000000
00000000
,
00000000
00000000
00000000
00000000
,
00000000
00000000
00000000
00000000
,
00011000
00000100
00000001
00000010
,
00001000
00000000
00010000
00000000
01000000
00000000
10000000
01000000
,
00100000
00010000
00100000
00001000
,
00000100
00000000
00000010
00000000
00001000
00000000
00010000
01000000
,
00100000
10010000
00100000
00010000
,
00000100
00000010
00001000
00010000
,
01000000
00100000
01000000
00000000
01100000
00000000
10010000
00000000
,
00020000
00000000
20000000
30030000
10000000
00000000
00000000
00010000
,
00000000
01000000
00001000
00010000
,
02000000
00000000
00000000
00000000
03200000
00000000
00000000
00310000
,
00000000
01000000
00001000
00010000
,
00000100
00000000
00000010
00000000
00000002
00000000
00000000
00000013
,
00000000
00000010
00001000
00010000
,
00200000
00000000
10300000
01000000
,
00010000
00001000
01000000
00100000
,
20000000
00000000
00000000
00000000
30020000
00000000
00000000
01030000
,
00000000
00001000
00010000
00000010
,
00000200
00000000
00000000
00000000
00000302
00000000
00000000
00000013
,
00000000
00000100
00010000
00001000
,
00000100
00000000
00000010
00000000
00002000
00000000
00000000
00003100
,
00000000
00010000
01000000
10000000
,
00200000
00300000
10100000
00000000
,
00110000
00000000
00011000
00000000
,
00001010
00000000
00000001
00000001
,
00000010
00000100
00001000
00000100
,
00020000
00000000
00000000
00000000
02030000
00000000
00000000
13000000
,
00000000
01000000
00010000
00001000
,
00000100
00000000
00000001
00000000
00000020
00000000
00000000
00000031
,
00000000
00000100
00001000
00000100
,
00000002
00000000
00000103
00000001
,
00000010
00001000
00010000
01000000
,
10000000
01000000
00100000
00000000
,
10010000
00000000
00100000
01000000
,
00020000
00000000
00000000
00000000
20030000
00000000
00000000
30010000
,
00000000
01000000
00010000
00000100
,
00000010
00000000
00001000
00000000
00000002
00000000
00000000
00001003
,
00000000
00000010
00000001
00000010
,
00000200
00000000
00000302
00000000
,
00002003
00000000
02003000
00000000
,
23000000
00000000
00000000
00000000
30010000
00100000
00010000
00100000
,
01000000
00000000
00000000
00100000
00000000
00000000
00010000
00000000
00000000
01000000
00000000
00000000
10000000
00000000
00000000
00000000
,
01000000
00010000
00000100
00000010
00000001
00000010
00000001
00000010
,
00000100
00000000
00000000
00000010
00000000
00000000
00001000
00000000
00000000
00000000
00000100
00000000
00000000
00000001
00000000
00000000
,
00000100
00001000
00010000
00100000
00010000
01000000
00100000
10000000
,
00100000
00000000
00000000
10000000
00000000
00000000
00100000
00000000
00000000
00000000
01000000
00000000
00000000
00010000
00000000
00000000
,
00100000
00000000
00000000
00001000
00000000
00000000
00000100
00000000
00000020
00000000
00000000
00000000
00000000
00000000
00000000
00000000
,
00000000
00000000
00000000
00000000
,
00000100
00000100
00000130
00000000
00000010
00000000
00001000
00000000
,
00000010
00001000
00000001
00000100
,
00000001
00000100
00001000
00010000
,
00001000
00010000
00100000
10000000
,
00100000
10000000
01000000
10000000
,
01000000
00100000
00010000
00100000
,
00010000
00001000
00000100
00001000
,
00000100
00000010
00000001
00000010
,
00000001
00000000
00000100
00000000
00000010
00001000
00000010
00000000
,
00001000
00000100
00010000
00000100
,
00010000
00000000
00001000
00000000
01000000
00010000
01000000
00000000
,
00100000
01000000
00010000
00100000
,
01000000
00000000
10000000
00000000
00010000
01000000
00010000
00000000
,
01000000
00000000
00001000
00000000
00010000
00001000
00010000
00000000
,
00000100
00000000
00000010
00000000
00000200
00000000
00000020
00000330
,
00000001
00000000
00000000
00001000
00000000
00000000
00000100
00000000
,
00010000
00001000
00000200
00000000
,
00000320
00000000
00000000
00001030
00000000
00000000
00000100
00000000
,
00010000
00001000
01000000
00100000
,
20000000
00000000
00000000
30100000
00000000
00000000
00100000
00000000
,
00010000
00001000
00000020
00000000
,
00000031
00000100
00001000
00010000
,
00000100
00000010
00000002
00000000
,
00002003
00000000
00000000
00003100
00000000
00000000
00010000
00000000
,
00001000
00100000
02000000
00000000
,
23000000
00000000
00000000
30100000
00000000
00000000
01000000
00000000
,
00001000
00010000
01000000
00100000
,
00020000
00000000
00000000
01030000
00000000
00000000
00010000
00000000
,
01000000
00001000
00000200
00000300
,
00001010
00000000
00011000
00000000
,
00011000
00000000
00110000
00000000
,
10000000
10000000
00100000
01000000
,
00010000
00100000
00002000
00000000
,
00003200
00000000
00000000
00000301
00000000
00000000
00000100
00000000
,
00001000
00010000
01000000
10000000
,
00100000
10000000
00100000
10000000
00100000
00000000
01000000
00000000
,
00010000
01000000
00020000
00000000
,
01030000
10000000
01000000
00010000
,
00100000
00000000
00001000
00000000
00010000
00001000
00010000
00000000
,
00002000
00000000
00000000
00013000
00000000
00000000
00000100
00000000
,
00000010
00000100
00002000
00000000
,
00003002
00000000
00000000
00001003
00000000
00000000
00000100
00000000
,
00001000
01000000
00100000
00010000
,
20000000
00000000
00000000
30010000
00000000
00000000
00100000
00000000
,
10000000
00100000
02000000
00000000
,
23000000
00000000
30020000
00000000
,
00030200
00000000
00000000
00000000
00000000
00000000
00000000
00000000
00000000
00000000
00000000
00000000
00000000
00000000
00000000
00000000
00000000
00000000
00000000
00000000
00000000
00000000
00000000
00000000
00000000
00000000
00000000
00000000
00000000
00000000
00000000
00000000
00000000
00000000
00000000
00000000
00000000
00000000
00000000
00000000
00000000
00000000
00000000
00000000
00000000
00000000
00000000
00000000
00000000
00000000
00000000
00000000
00000000
00000000
00000000
00000000
00000000
00000000
00000000
00000000
00000000
00000000
00000000
00000000
00000000
00000000
00000000
00000000
00000000
00000000
00000000
00000000
00000000
00000000
00000000
00000000
00000000
00000000
00000000
00000000
00000000
00000000
00000000
00000000
00000000
00000000
00000000
00000000
00000000
00000000
00000000
00000000
00000000
00000000
00000000
00000300
00000002
00000000
00000000
00000000
00000000
00000000
00000000
00000000
00000000
00000000
00000000
00000000
00000000
00000000
00000000
00000000
00000000
00000000
00000000
00000000
00000000
00000000
00000000
00000000
00000000
00000000
00000000
00000000
00000000
00000000
00000000
00000000
00000000
00000000
00000000
00000000
00000000
00000000
00000000
00000000
00000000
00000000
00000000
00000000
00000000
00000000
00000000
00000000
00000000
00000000
00000000
00000000
00000000
00000000
00000000
00000000
00000000
00000000
00000000
00000000
00000000
00000000
00000000
00000000
00000000
00000000
00000000
00000000
00000000
00000000
00000000
00000000
00000000
00000000
00000000
00000000
00000000
00000000
00000000
00000000
00000000
00000000
00000000
00000000
00000000
00000000
00000000
00000000
00000000
00000000
00000000
00000000
00000000
00000000
00000000
00000000
,
00001003
00000001
00000100
00000000
00000010
00010000
00001000
00000000
,
00010000
00001000
01000000
00000000
20020000
00000000
30030000
00000000
,
00100000
10000000
01000000
00000000
00100000
00010000
01000000
00000000
,
00100000
01000000
00010000
00000000
00022000
00000000
00033000
00000000
,
00010000
00000100
00001000
00000000
00000100
00010000
00000010
00010000
,
00001000
01000000
00010000
00000000
00022000
00000000
00033000
00000000
,
00010000
00001000
00010000
01000000
10000000
00100000
00010000
00001000
,
00020000
00000000
00000000
00000000
00002000
00000000
00000000
00033000
,
00001000
01000000
10000000
01000000
,
00010000
00100000
10000000
00100000
,
00010000
01000000
00010000
00100000
,
00001000
00010000
00001000
00000010
,
00000001
00000100
00001000
00000100
,
00000001
00001000
00000010
00000001
,
00000010
00001000
00100000
01000000
,
10000000
01000000
00010000
00100000
,
00010000
01000000
00010000
00000000
01000000
00000000
00100000
00000000
,
01000000
00001000
00010000
00001000
,
00010000
00001000
00010000
00000000
00001000
00000000
00000100
00000000
,
00000001
00000010
00001000
00000010
,
00000100
00000010
00000100
00000000
00000001
00000000
00000100
00000000
,
00000010
00000000
00000001
00000000
00001000
00000001
00001000
00000001
,
00002000
00000000
00000000
00000000
,
00003000
00000000
00000000
00000000
,
00002002
00000000
00000000
00000000
,
00000000
00000000
00000000
00000000
,
00003003
00000000
00000000
00000000
,
;

//---------------dance-double - ----------------
#NOTES:
     dance-double:
     :
     Hard:
     17:
     0.828,0.964,0.129,0.438,0.000:
00000000
00000000
00000000
00000000
,
00000000
00000000
00000000
00000000
,
00000000
00000000
00000000
00000000
,
00000000
00000000
00000000
00000000
,
00000000
00000000
00000000
00000000
,
00000000
00000000
00000000
00000000
,
00000000
00000000
00000000
00000000
,
00000000
00000000
00000000
00000000
,
00000000
00000000
00000000
00000000
,
00011000
01000000
10000000
00100000
,
01000000
00000000
00100000
00000000
00010000
00000000
00001000
00000100
,
00001100
00000001
00000010
00001000
,
00000010
00000000
00000001
00000000
00000010
00000000
00000100
00000001
,
00000101
00001100
00001000
00010000
,
00001000
00000100
00000001
00000010
,
00000100
00000001
00000100
00001000
,
00020000
00000000
00002000
00033000
00010000
00001000
00010000
00000000
,
00001000
00100000
00010000
01000000
00100000
00000000
10000000
00000000
,
00020000
00030000
10000000
10000000
,
00010000
00010000
00100000
00100000
,
01000000
00000000
10000000
00000000
00010000
01000000
00001000
00000000
,
00010000
00000100
00001000
00000001
00000010
00000000
00000001
00000000
,
00002000
00003000
00000001
00000001
,
00001000
00001000
00000010
00000010
,
00000200
00000000
00000300
00000000
00000010
00010000
00001000
00000000
,
00010000
00001000
00000100
00000010
00000100
00000000
00000001
00000000
,
00000200
00000300
00000001
00000001
,
00000010
00000100
00001000
00000100
,
00010000
00000000
00001000
00000000
00010000
00001000
01000000
00000000
,
00010000
00100000
01000000
00100000
00010000
00000000
00010000
00000000
,
02000000
03000000
02000000
00000000
,
03020000
00000000
00030200
00000000
,
00000302
00000000
00000103
00000101
,
00000101
00000000
00000000
00000000
00000001
00000010
00000001
00000010
,
00000200
00000000
00000300
00000000
00001000
00000100
00001000
00000000
,
00000100
00000000
00010000
00000000
00000100
00001000
00000100
00000000
,
00001000
00000000
00000100
00000000
00010000
00001000
01000000
00010000
,
00100000
01000000
00010000
01000000
,
00200000
00000000
00300000
00000000
01000000
10000000
01000000
00000000
,
10000000
00000000
00100000
00000000
01000000
00100000
01000000
00000000
,
00010000
01000000
00100000
00000000
,
00011000
00000000
00001000
00000100
,
00000002
00000000
00000003
00000000
00001000
00000100
00001000
00000000
,
00000010
00000000
00000100
00000000
00000001
00000100
00000001
00000000
,
00000010
00000000
00000100
00000000
00001000
00000100
00001000
00000000
,
00000100
00010000
00001000
01000000
,
00200000
00300000
10000000
01000000
,
00100000
00010000
00001000
00000100
,
00000010
00000001
00001000
00000110
,
00000010
00001000
00000100
00000001
00000100
00001000
00000010
00010000
,
00100000
01000000
00010000
00000000
10000000
00000000
01100000
00000000
,
01000000
00010000
00100000
10000000
00100000
00010000
01000000
00001000
,
00000100
00000010
00001000
00000000
00000001
00000000
00000110
00000000
,
00000001
00000010
00001000
00000010
00001000
00010000
01000000
10000000
,
00100000
00010000
00100000
01000000
00200000
00000000
00000000
00000000
,
00000000
00000000
00000000
00000000
,
01000000
01000000
01300000
00000000
00100000
00000000
10000000
00000000
,
01000000
00010000
01000000
10000000
,
00100000
01000000
00001000
00010000
,
00001000
00000010
00000001
00000010
,
00000100
00001000
00000010
00000100
,
00000001
00000100
00001000
00010000
,
00001000
01000000
00100000
01000000
,
00001000
00100000
01000000
10000000
,
02000000
00000000
03000000
00000000
10000000
01000000
10000000
00000000
,
00010000
00000000
01000000
00000000
00001000
00010000
00001000
00000000
,
00010000
00000000
00000100
00000000
00001000
00000100
00010000
00000000
,
00001000
00000000
00010000
00000000
00000100
00001000
00000001
00000000
,
00001000
00000000
00000100
00000000
00000010
00000001
00000010
00000000
,
00000100
00001000
00000100
00000000
00010000
00001000
00010000
00000000
,
01000000
10000000
01000000
00000000
20000000
00000000
00020000
30030000
,
00010000
01000000
00010000
00000000
01000000
00100000
10000000
00100000
,
01000000
00010000
02000000
03000000
,
00010000
00100000
00001000
00010000
,
00001000
00000010
00000001
00000100
,
00000001
00000100
00000001
00000000
00001000
00000100
00001000
00000010
,
00000100
00001000
00000200
00000300
,
00001000
00100000
00010000
00100000
,
00010000
00001000
00000200
00000300
,
00000010
00000001
00000010
00000000
00000001
00000100
00000001
00000100
,
00000001
00000100
00002000
00003000
,
00010000
01000000
10000000
00100000
,
01000000
00100000
10000000
01000000
,
10000000
00100000
10000000
00000000
00010000
01000000
00010000
01000000
,
00100000
00010000
00200000
00300000
,
00002000
00000000
00003020
00000000
,
00020030
00000000
00230000
00000000
,
00310000
00110000
00110000
00000000
,
10000000
01000000
10000000
01000000
20000000
00000000
30000000
00000000
,
00010000
00100000
10000000
00100000
,
00001000
00000010
00000001
00000100
,
00000001
00000100
00000001
00001000
00000100
00000000
00010000
00000000
,
00000100
00001000
00000200
00000300
,
00001000
00000100
00001000
00000010
,
00010000
00001000
00100000
01000000
,
10000000
01000000
10000000
00000000
00100000
00000000
01000000
00000000
,
00001000
00010000
00001000
00000000
00020000
00000000
00030000
00000000
,
00001000
00000100
00000001
00000010
,
00000001
00000100
00001000
01000000
,
00010000
10000000
01000000
00000000
00010000
00000000
00001000
00000000
,
00010000
00001000
00010000
00001000
00020000
00000000
00030000
00000000
,
00001000
00001000
00100000
00100000
,
00010000
00010000
02000000
00000000
,
03020000
00000000
00130000
00000000
00001000
00000100
00000010
00001000
,
00000001
00000100
00000010
00001000
00000200
00000000
00000300
00000000
,
00002000
00000000
00003100
00000000
00010000
00001000
00010000
00100000
,
01000000
00010000
10000000
00100000
02000000
00000000
03000000
00000000
,
00020000
00000000
00031000
00000000
00001000
00100000
01000000
00010000
,
00001000
00000010
00000100
00000001
00000020
00000000
00000030
00000000
,
00000100
00010000
00001000
00010000
,
00002000
00000000
00020000
00033000
,
00001000
00100000
01000000
00010000
,
00000100
00001000
00000010
00001000
,
00000100
00000001
00000100
00010000
,
01000000
00000000
10000000
00000000
01000000
00000000
00100000
01000000
,
10000000
01000000
10000000
00010000
,
01000000
00000000
00001000
00000000
00010000
00000000
00000010
00001000
,
00000010
00000100
00000001
00000100
,
00001000
00000100
00000001
00001000
,
00000010
00000100
00000010
00000000
00010000
00001000
00010000
00000000
,
00000100
00010000
00000100
00000000
00010000
00001000
00100000
00000000
,
00010000
01000000
00100000
00000000
10000000
00010000
01000000
00000000
,
00100000
01000000
00100000
00000000
10000000
01000000
00100000
00000000
,
00010000
01000000
00010000
10000000
01000000
10000000
00100000
01000000
,
00010000
00100000
00001000
00010000
00000010
00001000
00000001
00000010
,
00000200
00000000
00000000
00000000
,
00000300
00000000
00000000
00000000
,
00002002
00000000
00000000
00000000
,
00000000
00000000
00000000
00000000
,
00003003
00000000
00000000
00000000
,
;

//---------------dance-double - ----------------
#NOTES:
     dance-double:
     :
     Challenge:
     18:
     0.970,1.000,0.159,0.428,0.144:
00000000
00000000
00000000
00000000
,
00000000
00000000
00000000
00000000
,
00000000
00000000
00000000
00000000
,
00000000
00000000
00000000
00000000
,
00000000
00000000
00000000
00000000
,
00000000
00000000
00000000
00000000
,
00000000
00000000
00000000
00000000
,
00000000
00000000
00000000
00000000
,
00000000
00000000
00000000
00000000
,
00011000
00000000
00100000
00010000
01000000
00000000
00100000
10000000
,
01000000
00000000
10000000
01000000
00010000
00000000
00001000
00000000
,
00001100
00000000
00000100
00000001
00001000
00000000
00000001
00000010
,
00000100
00000000
00001000
00000001
00000100
00000000
00001000
00000001
,
00000011
00001100
00000100
00001000
,
00010000
00100000
00010000
00001000
,
00010000
01000000
00010000
00100000
,
00002000
00000000
00020000
00033000
00001000
00010000
00000100
00000000
,
00001000
00000001
00000010
00000001
00000100
00000000
00000001
00000000
,
00000202
00000000
00000303
00000000
00000001
00000100
00000010
00000000
,
00001000
00000100
00010000
00000000
00001000
00010000
00001000
00000000
,
00010000
00000000
01000000
00000000
00100000
00010000
01000000
00000000
,
00010000
01000000
00010000
01000000
00010000
00000000
01000000
00000000
,
02020000
03030000
00010000
01000000
,
10000000
01000000
00010000
00100000
,
00020000
00000000
00030000
00000000
10000000
01000000
10000000
00100000
,
01000000
00000000
00010000
00000000
00100000
00001000
00010000
00000000
,
00002000
00000000
00003000
00000000
00010000
00001000
00010000
00000000
,
00001000
00010000
00000010
00010000
00000100
00000000
00010000
00000000
,
00001000
00000000
00100000
00000000
01000000
10000000
01000000
00000000
,
10000000
01000000
10000000
00010000
01000000
00000000
00010000
00000000
,
00200000
00000000
00300000
00000000
00001000
00010000
00001000
00000000
,
00100000
00001000
00010000
00000000
00000100
00010000
00001000
00000000
,
00010000
00001000
01000000
00000000
01001000
00000000
01001000
00000000
,
00001000
00000000
00100000
00000000
01000000
10000000
01000000
00000000
,
22000000
00000000
33000000
00000000
00010000
01000000
00010000
01000000
,
00001000
00000000
00010000
00000000
00001000
00010000
00001000
00010000
,
00000100
00000000
00000010
00000000
00000001
00000010
00000001
00000010
,
00000100
00000000
00001000
00000000
00000100
00010000
00001000
00000000
,
02000000
00000000
03000000
00000000
00010000
01000000
00010000
00000000
,
00100000
00000000
00010000
00000000
00100000
01000000
00100000
00000000
,
00010000
01000000
00100000
00000000
,
00011000
00000000
00000100
00000001
,
00000020
00000000
00000030
00000000
00000100
00001000
00000001
00000100
,
00000010
00001000
00000100
00010000
,
00001000
00000000
01000000
00000000
00010000
01000000
00100000
10000000
,
00100000
01000000
00010000
01000000
,
00002000
00003000
00010000
00001000
,
00000100
00000010
00000100
00000000
00001000
00000000
00010000
00001000
,
02000000
00000000
00000000
00000000
03010000
00100000
01000000
00010000
,
01000000
00010000
00000000
00010000
00000000
00000000
00001000
00000000
00000000
00000100
00000000
00000000
00000010
00002000
00000000
00000000
,
00003001
00000000
00000010
00000000
00000001
00001000
00000100
00000000
00000010
00000000
00000001
00000000
00000100
00000000
00000010
00000000
,
00001000
00000010
00000000
00010000
00000000
00000000
00001000
00000000
00000000
00000000
00010000
00000000
00000000
01000000
00000000
00000000
,
10000000
00100000
10000000
00100000
01000000
00010000
01000000
00000000
00010000
00100000
00010000
00000000
00100000
00000000
00010000
00000000
,
00100000
00010000
00000000
00100000
00000000
00000000
00001000
00000000
00000000
00000000
00000100
00000010
00000000
00000100
00000000
00000000
,
00000010
00001000
00000000
00000001
00000100
00000001
00000100
00000000
00000002
00000000
00000000
00000000
00000000
00000000
00000000
00000000
,
00000000
00000000
00000000
00000000
,
00001000
00001000
00001003
00000000
00000001
00000000
00000100
00000000
,
00000010
00000100
00000010
00000000
00001000
00000000
00000100
00000000
,
00010000
00001000
00010000
00000000
00001000
00000000
00100000
00000000
,
00010000
01000000
00010000
00000000
01000000
00000000
00100000
00000000
,
10000000
00100000
10000000
00000000
00100000
00000000
01000000
00000000
,
00010000
01000000
00001000
00000000
00010000
00000000
00001000
00000000
,
00010000
00000010
00001000
00000000
00000010
00000000
00000100
00000000
,
00000001
00000100
00000010
00000000
00001000
00000010
00001000
00000010
,
00010000
00001000
00010000
00000000
00001000
00100000
00010000
00000000
,
01000000
00000000
00010000
00000000
10000000
01000000
10000000
00000000
,
00100000
00000000
01000000
00000000
00100000
10000000
00100000
00000000
,
01000000
00000000
00001000
00000000
00010000
00001000
00010000
00000000
,
00000010
00000000
00001000
00000000
00000100
00001000
00000100
00001000
,
00000010
00000100
00000010
00000100
00000001
00000100
00000001
00000100
,
00000010
00000100
00000010
00000100
00002000
00000000
00000000
00003000
,
00100000
00001000
01000000
00000000
00010000
10000000
00010000
10000000
,
01000000
10000000
22000000
33000000
,
10000000
01000000
00100000
00000000
00010000
01000000
00001000
00100000
,
00001000
00010000
00000010
00001000
,
00000100
00001000
00000100
00000000
00001000
00000100
00010000
00001000
,
00010000
00001000
00022000
00033000
,
00010000
00001000
00000100
00000001
,
00000010
00000100
00002000
00003000
,
00000001
00000100
00000001
00000000
00000100
00000001
00001000
00000010
,
00010000
00001000
00020000
00030000
,
00001000
00010000
00001000
00000000
00100000
00010000
01000000
00010000
,
01000000
00010000
01000000
00001000
,
00010000
00001000
00010000
00000000
00000010
00000100
00000001
00001000
,
00000100
00001000
00000020
00000030
,
00010000
00001000
00010000
00000000
00001000
00000100
00000010
00000000
,
00001000
00000100
00001000
00000000
00000001
00000100
00000001
00000000
,
00000101
00000101
00001000
00000010
,
00000100
00000001
00000100
00000000
00000202
00000000
00000303
00000000
,
00001000
00000100
00001000
00000000
00000010
00001000
00000010
00010000
,
00001000
00000000
00010000
00000000
00001000
00010000
00001000
00000000
,
00010000
00001000
00100000
00010000
00100000
00010000
01000000
00000000
,
00010000
00100000
00002000
00003000
,
00010000
00000100
00010000
00000000
00000100
00000000
00001000
00000000
,
00000001
00000100
00000001
00000000
00000100
00000000
00001000
00000000
,
00010000
00001000
00010000
00000000
00001000
00100000
00010000
01000000
,
00100000
10000000
00200000
00300000
,
01000000
00010000
10000000
01000000
00100000
00000000
00010000
00000000
,
01000000
00010000
00100000
00001000
,
00010000
00001000
00010000
00000010
00001000
00000000
00000100
00000000
,
00001000
00000100
00020000
00030000
,
00001000
00000000
00100000
00000000
00010000
01000000
00100000
00000000
,
01000000
00000000
00000000
00000000
00000000
00000000
00000000
00000000
00000000
00000000
00000000
00000000
00000000
00000000
00000000
00000000
00000000
00000000
00000000
00000000
00000000
00000000
00000000
00000000
00000000
00000000
00000000
00000000
00000000
00000000
00000000
00000000
00000000
00000000
00000000
00000000
00000000
00000000
00000000
00000000
00000000
00000000
00000000
00000000
00000000
00000000
00000000
00000000
00001000
00000000
00000000
00000000
00000000
00000000
00000000
00000000
00000000
00000000
00000000
00000000
00000000
00000000
00000000
00000000
00000000
00000000
00000000
00000000
00000000
00000000
00000000
00000000
00010000
00000000
00000000
00000000
00000000
00000000
00000000
00000000
00000000
00000000
00000000
00000000
00000000
00000000
00000000
00000000
00000000
00000000
00000000
00000000
00000000
00000000
00000000
00000000
00000200
00000000
00000000
00000000
00000000
00000000
00000000
00000000
00000000
00000000
00000000
00000000
00000000
00000000
00000000
00000000
00000000
00000000
00000000
00000000
00000000
00000000
00000000
00000000
00000000
00000000
00000000
00000000
00000000
00000000
00000000
00000000
00000000
00000000
00000000
00000000
00000000
00000000
00000000
00000000
00000000
00000000
00000000
00000000
00000000
00000000
00000000
00000000
00000000
00000000
00000000
00000000
00000000
00000000
00000000
00000000
00000000
00000000
00000000
00000000
00000000
00000000
00000000
00000000
00000000
00000000
00000000
00000000
00000000
00000000
00000000
00000000
00000000
00000000
00000000
00000000
00000000
00000000
00000000
00000000
00000000
00000000
00000000
00000000
00000000
00000000
00000000
00000000
00000000
00000000
00000000
00000000
00000000
00000000
00000000
00000300
,
00000010
00000000
00000001
00000000
00001000
00000100
00001000
00000000
00000100
00010000
00001000
00000000
00010000
00001000
00100000
00000000
,
00010000
00100000
10000000
00100000
02000000
00000000
00000000
03000000
,
00100000
00000000
00010000
00000000
01000000
00010000
01000000
00000000
00010000
01000000
00001000
00000000
00010000
00000010
00000100
00000000
,
00001000
00000100
00000001
00000010
00000200
00000000
00000000
00000300
,
00001000
00000100
00001000
00000000
00000100
00010000
00001000
00000000
00100000
00010000
01000000
00000000
00100000
01000000
00010000
00000000
,
10000000
00100000
00010000
00100000
20000000
00000000
30000000
00000000
,
20000000
30020000
00030200
00000320
,
00002030
00000000
00000002
00003003
,
00000001
00001000
00000100
00000010
,
00000001
00000100
00001000
00010000
,
00001000
00100000
01000000
00100000
,
00010000
00000000
10000000
00000000
01000000
00000000
00010000
00001000
,
00010000
00001000
00000100
00000001
,
00000010
00000000
00001000
00000000
00000010
00000000
00000001
00001000
,
00000001
00000000
00000100
00000010
00000100
00000000
00001000
00010000
,
00001000
00000000
00100000
00010000
01000000
00010000
01000000
00000000
,
00100000
10000000
01000000
10000000
00010000
00000000
00100000
00001000
,
00010000
00000100
00001000
00000000
00000001
00001000
00000100
00010000
,
00001000
00000000
00100000
00010000
10000000
00010000
01000000
00000000
,
00001000
00010000
00000010
00001000
00000001
00000010
00000001
00001000
,
00000001
00000100
00001000
00000100
00000001
00000100
00001000
00010000
,
00001000
01000000
00010000
10000000
01000000
10000000
00010000
01000000
,
20000000
00000000
00000000
00000000
,
30000000
00000000
00000000
00000000
,
20020000
00000000
00000000
00000000
,
00000000
00000000
00000000
00000000
,
30030000
00000000
00000000
00000000
,
;

//---------------dance-single - NEGATIVEMATTER----------------
#NOTES:
     dance-single:
     NEGATIVEMATTER:
     Edit:
     19:
     1.000,1.000,0.807,0.388,0.339: // measure 1
0000
0000
0000
0000
,  // measure 2
0000
0000
0000
0000
,  // measure 3
0000
0000
0000
0000
,  // measure 4
0000
0000
0000
0000
,  // measure 5
0000
0000
0000
0000
,  // measure 6
0000
0000
0000
0000
,  // measure 7
0000
0000
0000
0000
,  // measure 8
0000
0000
0000
0000
,  // measure 9
2000
0000
0000
0000
0002
0000
0000
3003
,  // measure 10
1000
0000
0100
0000
1000
0000
0100
0000
0101
0000
0000
0110
0000
0000
1010
0000
,  // measure 11
0000
1100
0000
0000
1001
0000
0000
0000
0110
0000
0000
0000
1001
0000
1001
0000
,  // measure 12
1001
0000
0100
0000
0010
0000
1000
0000
1010
0000
0000
0110
0000
0000
0101
0000
,  // measure 13
0000
0011
0000
0000
1100
0000
0000
0000
1001
0000
0000
0000
0010
0000
0001
0000
,  // measure 14
1000
0000
0100
1000
0001
0000
0010
0001
1000
0000
0100
1000
0010
0000
0100
0010
,  // measure 15
0001
0000
1000
0010
0100
0000
0001
0010
0100
0000
1000
0100
0010
0001
0010
0000
,  // measure 16
1000
0100
0010
0001
0100
0010
1000
0100
0010
0001
0100
0010
1000
0100
0010
0001
,  // measure 17
1000
0001
1000
0000
0001
0000
1000
0001
1000
0000
0000
0000
1001
0000
0000
0000
0010
0000
0000
0000
0100
0000
0000
0000
1000
0000
0000
0000
0100
0000
0000
0000
,  // measure 18
0001
0100
0010
1000
0001
0000
1001
0000
,  // measure 19
0220
0000
0330
0000
0010
0100
1000
0100
,  // measure 20
0001
1000
0010
0001
0010
0000
1100
0000
,  // measure 21
1001
0000
0011
0000
0010
0100
0001
1000
,  // measure 22
0100
0010
0001
0100
0010
0000
1000
0000
,  // measure 23
2002
0000
3003
0000
1000
0100
0010
0100
,  // measure 24
1000
0000
1000
0000
0001
0100
0010
1000
,  // measure 25
2002
0000
3003
0000
0010
0100
0001
0100
,  // measure 26
0010
1000
0100
0010
0001
0000
1000
0000
,  // measure 27
2200
0000
3300
0000
0010
0100
0010
1000
,  // measure 28
0001
0010
0100
1000
0010
0000
0001
1000
,  // measure 29
0001
1000
0001
0000
1000
0100
0010
0001
,  // measure 30
0100
0010
1000
0010
0100
0001
0010
0200
,  // measure 31
2000
0000
3300
0000
0001
0010
1000
0000
,  // measure 32
0001
0100
1000
0000
0001
0010
1000
0000
,  // measure 33
0001
0010
1000
0000
0100
0001
1000
0010
,  // measure 34
0100
0001
0010
0100
1000
0000
0001
0000
,  // measure 35
0220
0000
0330
0000
0010
0100
0010
0001
,  // measure 36
0100
0010
1000
0100
1000
0000
0101
0000
,  // measure 37
1001
0000
1010
0000
0001
0010
0100
0010
,  // measure 38
0001
1000
0100
0010
0100
1000
0001
0100
,  // measure 39
0020
0000
0030
0000
0100
0001
0100
0001
,  // measure 40
0010
0000
0100
0000
1000
0100
1000
0001
,  // measure 41
0010
0100
0010
0000
0001
0000
0000
0100
,  // measure 42
0010
0000
0000
1000
0100
0010
0001
0100
,  // measure 43
0010
0000
0000
0000
1000
0100
0010
0001
,  // measure 44
0100
0010
1000
0000
0011
0000
0110
0000
,  // measure 45
1100
0000
0100
0000
1000
0100
0010
0001
,  // measure 46
0010
0100
1000
0100
0001
0100
0010
1000
,  // measure 47
0200
0300
1000
0100
,  // measure 48
1000
0100
0001
0100
1000
0100
0010
0001
,  // measure 49
1000
0100
0010
0001
1000
0001
0100
0010
,  // measure 50
1001
0000
0000
0101
0000
0000
1010
0000
0000
1100
0000
0000
1001
0000
0000
1010
,  // measure 51
0000
0000
0110
0000
0001
0000
1000
0000
0001
1000
0001
1000
0010
0000
0100
0000
,  // measure 52
1100
0000
0000
0101
0000
0000
0110
0000
0000
1010
0000
0000
0110
0000
0000
1001
,  // measure 53
0000
0000
0010
0001
0010
0100
1000
0000
0010
0001
0100
0000
1000
0000
0100
0000
,  // measure 54
1001
0000
0000
0110
0000
0000
1100
0000
0000
0101
0000
0000
0110
0000
0000
0110
,  // measure 55
0000
0000
1001
0000
0010
0001
0100
0000
2002
0000
0000
0000
0000
0000
0000
0000
,  // measure 56
0000
0000
0000
3003
,  // measure 57
1100
0110
0011
0000
0010
1000
0010
0000
,  // measure 58
0100
0000
0001
0000
1000
0010
0000
0010
,  // measure 59
0100
0000
0100
0010
0000
0010
0001
0000
,  // measure 60
0001
1000
0000
0010
0100
0000
1000
0010
,  // measure 61
0000
0100
0001
0000
1000
0000
0010
0000
,  // measure 62
1000
0000
0001
0000
0100
0010
0000
1000
,  // measure 63
0010
0000
0100
0010
0000
1000
0100
0000
,  // measure 64
0001
0100
0000
0010
0100
0000
1000
0000
,  // measure 65
0010
0100
0010
0000
0001
0010
0001
0010
,  // measure 66
0100
0010
0100
0010
0100
1000
0100
1000
,  // measure 67
0010
0100
0010
0100
1000
0001
1000
0001
,  // measure 68
0100
0001
0100
0001
1000
0010
1000
0010
,  // measure 69
0100
0010
0100
0010
1000
0100
0010
0100
,  // measure 70
0001
0100
0010
1000
0100
0010
0001
0100
,  // measure 71
0010
0000
1000
0000
0100
0000
0010
0000
0001
1000
0100
0000
0010
0001
0010
0001
,  // measure 72
1000
0010
0100
0001
0010
0100
1000
0100
,  // measure 73
0010
1001
0220
0330
,  // measure 74
1000
0100
1000
0100
0010
0100
0010
0001
,  // measure 75
0100
1000
0010
0000
0001
1000
0001
0000
,  // measure 76
0010
0100
0010
1000
0100
0001
0100
1000
,  // measure 77
0010
1010
0202
0303
,  // measure 78
0001
0010
1000
0000
1001
0000
1001
0000
,  // measure 79
1000
0100
0001
0000
1100
0000
0011
0000
,  // measure 80
1000
0100
0010
0100
1000
0100
0010
0001
,  // measure 81
0010
0110
2002
3003
,  // measure 82
0010
0100
0001
0100
1000
0100
0010
1000
,  // measure 83
0001
1100
0110
0011
,  // measure 84
0010
1000
0001
1000
0001
0010
0001
1000
,  // measure 85
0100
1000
0010
0100
0020
0000
0000
0000
,  // measure 86
1030
0100
0010
0000
0100
0010
0001
0000
,  // measure 87
0010
0001
1000
0000
0001
0010
0001
0000
,  // measure 88
1000
0100
1000
0010
0100
0001
0010
0100
,  // measure 89
1000
1010
0022
0033
,  // measure 90
0010
0100
1000
0100
0001
1000
0100
0010
,  // measure 91
0001
1010
1100
1001
,  // measure 92
0001
0100
0010
1000
0000
0000
0010
0001
,  // measure 93
1000
0010
0100
0001
0020
0000
0000
0000
,  // measure 94
1030
0100
1000
0000
0001
0100
0001
0000
,  // measure 95
1000
0100
1000
0000
0010
0100
0001
1000
,  // measure 96
0001
0010
0100
1000
0001
0010
0100
0010
,  // measure 97
0001
1000
0100
0010
0002
0000
0000
0000
,  // measure 98
0013
0100
0001
1000
0100
1000
0100
0001
,  // measure 99
0010
0100
0010
1000
0100
0001
0100
0010
,  // measure 100
1000
0100
1000
0001
0100
0001
1000
0100
,  // measure 101
1000
0100
0010
0001
0020
0000
0000
0000
,  // measure 102
0031
0100
0001
0010
0100
0010
1000
0001
,  // measure 103
0100
0010
1000
0001
0220
0000
0330
0000
,  // measure 104
0110
0000
0001
0000
1000
0100
0010
0000
0001
1000
0010
0000
0100
0000
0001
0000
,  // measure 105
1000
0010
1000
0000
0100
0000
0010
0000
2001
0000
0000
0000
3001
0000
0000
0000
,  // measure 106
1010
0000
0100
0000
0001
1000
0010
0000
0100
1000
0001
0000
0100
0000
0010
0000
,  // measure 107
1000
0100
1000
0000
0001
0010
0001
0000
0120
0000
0000
0000
0130
0000
0000
0000
,  // measure 108
0001
0100
0001
0000
0010
0100
0010
0000
1000
0000
0010
0000
0001
0100
0001
0000
,  // measure 109
1000
0100
0010
0001
1000
0010
0100
0001
1000
0000
0000
0000
1001
0000
0000
0000
,  // measure 110
0001
0010
0100
1000
0001
0100
0010
1000
0100
0010
0001
1000
0100
0010
0001
0100
,  // measure 111
0020
0000
0000
0000
0100
0000
0000
0000
0130
1000
0100
1000
0001
0010
0001
0010
,  // measure 112
1000
0100
1000
0000
0100
0010
0100
0000
,  // measure 113
0010
0001
0010
0000
0001
1000
0001
0000
,  // measure 114
1000
0100
0001
0000
1000
0010
0001
0000
,  // measure 115
1000
0100
0001
0000
0001
0010
1000
0000
,  // measure 116
0001
0100
1000
0000
1000
0010
0001
0000
,  // measure 117
0001
0100
1000
0000
1000
0010
0001
0000
,  // measure 118
0001
0100
1000
0000
1000
0010
0001
0000
,  // measure 119
0001
0100
0010
0001
0100
0010
1000
0100
,  // measure 120
0001
0010
1000
0010
0001
0010
0100
0010
,  // measure 121
1000
0100
0001
0100
1000
0010
0100
0001
,  // measure 122
0010
0001
0100
0010
1000
0100
1000
0001
,  // measure 123
0100
0010
1000
0100
1000
0001
0010
0100
,  // measure 124
0010
0001
1000
0100
0010
0100
1000
0001
,  // measure 125
0100
0010
0100
0001
1000
0100
0010
0001
,  // measure 126
0220
0000
0000
0000
,  // measure 127
0330
0000
0000
0000
,  // measure 128
2002
0000
0000
0000
,  // measure 129
0000
0000
0000
0000
,  // measure 130
0000
0000
0000
0000
,  // measure 131
0000
0000
0000
0000
,  // measure 132
3003
0000
0000
0000
;
