#TITLE:Always (Microbots Trance Dance Mix);
#SUBTITLE:;
#ARTIST:MAN'S COOL;
#TITLETRANSLIT:;
#SUBTITLETRANSLIT:;
#ARTISTTRANSLIT:;
#GENRE:Trance;
#CREDIT:;
#BANNER:Always (Microbots Trance Dance Mix).png;
#BACKGROUND:Always (Microbots Trance Dance Mix)-bg.png;
#LYRICSPATH:;
#CDTITLE:./CDTITLES/Dance Dance Revolution HOTTEST PARTY.png;
#MUSIC:Always (Microbots Trance Dance Mix).mp3;
#OFFSET:-0.079;
#SAMPLESTART:45.760;
#SAMPLELENGTH:14.580;
#SELECTABLE:YES;
#DISPLAYBPM:105.000;
#BPMS:0.000=105.000
;
#STOPS:
;
#BGCHANGES:;
#KEYSOUNDS:;
#ATTACKS:;

//---------------dance-single - ----------------
#NOTES:
     dance-single:
     :
     Hard:
     8:
     0.387,0.348,0.251,0.471,0.000,198.000,25.000,47.000,0.000,0.000,0.000,0.387,0.348,0.251,0.471,0.000,198.000,25.000,47.000,0.000,0.000,0.000:
0000
0000
0000
0000
,
0000
0001
0000
0101
,
1000
0100
0001
0100
0010
0001
0100
0010
,
0001
0010
1000
0010
0100
1000
0010
0100
,
1001
0000
0000
0000
1000
0001
1000
1002
,
0000
0000
0003
0000
0000
0011
1000
0001
,
1000
0000
0000
0000
1000
0010
0001
0010
,
2100
3000
0000
0110
,
1001
0000
0000
0000
0001
1000
0001
2001
,
0000
0000
3000
0000
0000
1010
0001
1000
,
0001
0000
0000
0001
0001
0010
1000
0010
,
0012
0000
0003
0000
0000
0011
0000
0202
,
0000
0000
0303
0000
0000
1010
0000
2200
,
0000
0000
3300
0000
0000
0110
1000
0202
,
0000
0000
0303
0000
0000
0010
0000
0220
,
0000
0000
0000
0000
0000
0330
1001
2200
,
0000
0000
0000
0000
3300
0001
1000
0022
,
0000
0000
0000
0000
0033
0001
0010
0200
,
0000
0000
0300
0002
0000
0000
2003
0000
,
0000
3000
0000
0000
,
0002
0000
0000
2000
0003
3010
0100
1000
,
0002
0000
0013
0200
0000
1300
0100
0010
,
0002
0000
0013
0200
0000
1300
0001
0010
,
0001
1000
0001
0100
0001
0010
0002
0000
,
1003
0001
2000
0000
0000
0002
3000
0013
,
0100
0001
2000
0001
3010
0200
0000
0301
,
0100
0010
2000
0000
3010
0200
0000
0301
,
1000
0010
1000
0001
1000
0010
1000
0100
,
2000
0000
3001
1000
0020
0000
0000
2000
,
0030
3001
0100
0011
2000
0000
3010
0200
,
0000
1300
0001
0100
0020
0000
0031
2000
,
0000
3100
0001
0010
0001
0010
0001
0100
,
0001
1000
0002
0000
1003
0001
0020
0000
,
0000
0002
0030
1003
0100
0010
0002
0000
,
0013
0200
0000
0301
1000
0100
0020
0000
,
1030
0002
0000
0103
1000
0010
1100
1000
,
0001
1100
1000
0001
2000
0000
3001
1000
,
0001
0000
0011
0000
0001
0000
0010
0001
,
1000
0000
1100
0000
1000
0000
0100
1000
,
0001
0010
0001
0100
0001
0010
0100
1000
,
0001
1000
0001
1000
0100
0010
0100
0010
;

//---------------dance-single - ----------------
#NOTES:
     dance-single:
     :
     Medium:
     4:
     0.243,0.245,0.170,0.451,0.000,108.000,17.000,45.000,0.000,0.000,0.000,0.243,0.245,0.170,0.451,0.000,108.000,17.000,45.000,0.000,0.000,0.000:
0000
0000
0000
0100
,
0000
1000
0000
0100
,
0000
0100
0010
0001
,
0000
0100
0010
1000
,
1001
0000
1000
1000
,
1002
0000
0003
0000
0000
0001
1000
0001
,
0000
0000
0000
0000
1000
0000
0001
0001
,
0200
0300
0000
0110
,
1001
0000
0001
0001
,
2001
0000
3000
0000
0000
1000
0001
1000
,
0000
0000
0000
0001
0001
0000
1000
1000
,
0020
0000
0030
0000
0000
0000
0000
0002
,
0000
0000
0003
0000
0000
0000
0000
2000
,
0000
0000
3000
0000
0000
0100
0000
0200
,
0000
0000
0300
0000
0000
0010
0000
0220
,
0000
0000
0000
0000
0000
0330
0000
2000
,
0000
0000
0001
3001
,
0002
0000
0000
0000
0000
0100
0003
0200
,
0000
0001
0300
0002
0000
0000
2003
0000
,
0000
3000
0000
0000
,
0002
0000
0000
2000
0000
0000
3003
0000
,
0002
0203
0000
0301
,
2000
3020
0000
0030
,
1001
0110
1001
0002
,
0000
0003
2000
0000
0000
0002
0000
0000
,
3003
2000
3020
0000
,
1030
0002
0203
0000
,
0300
1001
0110
1001
,
2000
0000
0000
3000
0002
0000
0000
2000
,
0000
3003
0002
0023
,
0000
0031
2000
3200
,
0000
0300
1001
0110
,
1001
0000
0002
0000
0000
0003
2000
0000
,
0000
0002
0000
0000
3003
0000
2000
0000
,
3200
0000
1300
0002
,
0023
0000
0030
2000
,
3000
0020
0000
0030
2000
0000
0002
3003
,
0000
0000
0001
0000
0001
0100
0001
0000
,
0000
0000
1000
0000
1000
0010
1000
0000
,
1000
1100
0010
0001
,
0001
0101
0010
1000
;

//---------------dance-single - ----------------
#NOTES:
     dance-single:
     :
     Easy:
     2:
     0.165,0.184,0.070,0.291,0.000,79.000,7.000,29.000,0.000,0.000,0.000,0.165,0.184,0.070,0.291,0.000,79.000,7.000,29.000,0.000,0.000,0.000:
0000
0000
0000
0000
,
0000
0000
0000
0000
,
0000
0010
0000
0010
,
0000
0100
0000
0000
,
1001
0000
1000
0000
,
0001
0001
0000
0001
,
0001
0000
1000
0000
,
0200
0300
0000
0000
,
1001
0000
0001
0000
,
1000
1000
0000
1000
,
1000
0000
0001
0000
,
0020
0030
0000
0001
,
0001
0000
0000
1000
,
1000
0000
0000
0100
,
0100
0000
0000
0000
,
0220
0000
0330
0000
,
2000
0000
0000
3000
,
0002
0000
0000
0003
,
0200
0300
0002
0003
,
2000
3000
0000
0000
,
0002
0000
0003
0001
,
0200
0000
0300
0100
,
2000
0000
3000
1000
,
0020
0030
0200
0300
,
1001
0002
0000
0003
,
0001
0200
0000
0300
,
0100
2000
0000
3000
,
1000
0020
0030
0200
,
0300
1001
2000
0000
,
3000
1000
0020
0000
,
0030
0010
0002
0000
,
0003
0001
0200
0300
,
0020
0030
1001
2000
,
0000
3000
1000
0020
,
0000
0030
0010
0002
,
0000
0003
0001
0200
,
0300
0020
0030
1001
,
0000
0001
0000
0001
,
0001
1000
0000
1000
,
1000
0100
0100
0100
,
0000
0010
0010
0010
;

//---------------dance-single - ----------------
#NOTES:
     dance-single:
     :
     Beginner:
     1:
     0.084,0.081,0.020,0.140,0.000,43.000,2.000,14.000,0.000,0.000,0.000,0.084,0.081,0.020,0.140,0.000,43.000,2.000,14.000,0.000,0.000,0.000:
0000
0000
0000
0000
,
0000
0000
0000
0000
,
1000
0000
0000
0000
,
1000
0000
0000
0000
,
1001
0000
0000
0000
,
0001
0001
0000
0000
,
0001
0000
1000
0000
,
0100
0000
0000
0000
,
1001
0000
0000
0000
,
1000
1000
0000
0000
,
1000
0000
0001
0000
,
0010
0000
0000
0000
,
0001
0000
0000
0000
,
1000
0000
0000
0000
,
0100
0000
0000
0000
,
0001
0000
0000
0000
,
2000
0000
3000
0000
,
0002
0000
0003
0000
,
0100
0000
0001
0000
,
1000
0000
0000
0000
,
0002
0000
0000
0003
,
0000
0000
0000
0000
,
2000
0000
3000
0000
,
0002
0000
0000
0003
,
0000
0002
0000
0000
,
0003
0000
0000
0000
,
0000
2000
0000
3000
,
0000
0002
0000
0000
,
0003
0000
0020
0000
,
0000
0030
0000
0000
,
0000
0000
0200
0000
,
0300
0000
0020
0000
,
0000
0030
0000
0020
,
0000
0000
0030
0000
,
0000
0000
0000
0200
,
0000
0300
0000
0020
,
0000
0000
0030
0000
,
0001
0001
0000
0000
,
1000
1000
0000
0000
,
0100
0000
0100
0000
,
0010
0000
0010
0000
;

//---------------dance-single - ----------------
#NOTES:
     dance-single:
     :
     Challenge:
     9:
     0.726,0.618,0.361,0.271,0.762,444.000,36.000,27.000,0.000,0.000,0.000,0.726,0.618,0.361,0.271,0.762,444.000,36.000,27.000,0.000,0.000,0.000: // measure 0
0000
0000
0000
0000
,  // measure 1
0001
0000
0010
0100
0001
0000
0011
0000
1100
0000
1000
0010
0201
0000
1000
0000
,  // measure 2
0301
0000
0100
0010
1000
0100
0010
0000
0010
0000
0001
0010
1200
0000
0010
0000
,  // measure 3
0301
0000
0010
0001
0010
1000
0110
0000
0100
0000
1000
0100
0010
0001
0100
0010
,  // measure 4
1001
0000
0100
0020
0100
0000
1030
0000
1000
0100
0010
0001
1000
0000
0001
0000
,  // measure 5
0010
1000
0001
0010
0100
0000
1001
0000
0010
0100
0001
0100
1000
0010
0100
0001
,  // measure 6
1000
0000
0100
0010
0100
0010
0100
0000
1000
0100
0010
0000
0001
0010
0010
0100
,  // measure 7
1000
0000
0010
0000
0002
0010
0000
0100
0203
0000
1000
1000
0300
0001
0010
0000
,  // measure 8
1000
0000
0001
0010
0100
0000
1000
0000
0001
0000
1000
0000
1000
0010
0001
0100
,  // measure 9
0001
0000
0010
0200
1000
0000
1000
0000
1300
0000
0001
0010
0001
0000
1000
0000
,  // measure 10
0001
0000
1000
0001
0010
0100
0001
0000
0001
0000
0010
0000
1000
0001
0010
0100
,  // measure 11
0001
0000
1000
0000
0000
1000
0000
0000
1000
0000
1000
0100
0000
0100
0010
0000
,  // measure 12
0011
0000
0010
0001
0010
0100
1000
0000
0110
0000
1010
0000
0101
0000
1200
0000
,  // measure 13
0000
0010
1000
0301
0000
0110
1000
0001
,  // measure 14
1000
0000
0001
0010
0100
0000
1002
0000
0100
0000
0013
1000
0010
0001
0020
0000
,  // measure 15
0100
0100
0100
0100
0100
0100
0100
0100
0100
0100
0100
0100
0100
0100
0100
0100
,  // measure 16
0130
0000
0010
0000
1000
0000
0010
0000
0100
0000
0001
0010
1000
0100
0001
0100
,  // measure 17
1000
0000
0010
0100
0010
0100
0000
0010
1000
0000
0001
0100
0010
1000
0100
0000
,  // measure 18
0011
0000
0110
0000
1100
0000
1010
0000
0110
0000
0101
0000
1001
0000
0100
0010
,  // measure 19
0200
0000
0010
0000
0000
0010
0000
0000
0010
0000
0000
0010
0000
0000
0010
0000
,  // measure 20
0301
0000
0010
1000
0100
0010
0001
0100
0010
1000
0010
0001
0100
0000
1001
0000
,  // measure 21
0001
0100
0001
0100
0010
1000
0100
0001
0100
1000
0001
0010
1000
0000
0101
0000
,  // measure 22
0100
0010
1000
0010
0100
0001
0010
1000
0010
0100
0001
0100
1000
0000
1001
0000
,  // measure 23
0001
0010
1000
0100
0001
0010
0100
1000
0001
1000
0010
0100
0001
0000
1001
0000
,  // measure 24
0020
0000
0000
0000
1030
0000
0100
0001
0010
0100
0001
1000
0100
0100
0010
1000
,  // measure 25
0100
0000
1001
0000
1000
0010
0001
0010
0010
1000
0100
0001
0010
1000
0001
0100
,  // measure 26
0100
0000
0110
0000
1000
0100
0001
0100
0010
0001
0010
0100
1000
0100
0010
0001
,  // measure 27
1000
0000
0011
0000
1000
0100
0010
0100
1000
0001
0010
0100
0010
0001
0100
1000
,  // measure 28
0100
0010
0001
1000
0002
0000
0000
0000
0023
0000
0000
1000
0000
0000
2000
0000
,  // measure 29
0030
0000
3001
0000
0100
0010
0011
0000
1000
0001
0100
0010
1000
0001
0100
0010
,  // measure 30
1000
0000
0100
0000
0002
0000
1000
0000
0013
0000
0110
0000
0001
0100
2000
0000
,  // measure 31
0000
0000
3100
0000
0001
0000
0010
0000
0001
0001
1000
0001
1000
1000
0001
1000
,  // measure 32
0001
0001
1000
0001
1000
0000
0000
0000
0101
0000
0000
0010
0200
0000
0000
1000
,  // measure 33
0000
0000
0302
0000
0003
0000
1100
0000
0110
0000
0011
0000
0001
0100
1000
0100
,  // measure 34
0010
0000
0200
0000
0000
0000
0301
0000
1000
0000
0100
0001
0020
0000
1000
0000
,  // measure 35
1030
0100
0002
0000
0000
0000
0103
0000
1000
0000
0010
0000
0001
0100
0001
0010
,  // measure 36
0001
0100
0001
0010
0100
1000
0100
0010
0002
0000
0000
0000
2003
0000
0000
0000
,  // measure 37
3100
0000
0010
0001
0010
0000
1000
0000
0001
0000
0001
0010
0100
0000
0001
0000
,  // measure 38
1000
0000
0100
0010
0001
0000
0010
0000
1000
0000
0010
0100
0001
1000
0010
0000
,  // measure 39
0001
0000
0010
1000
0001
0000
0100
1000
0100
0010
0100
0001
0100
0000
2001
0000
,  // measure 40
3001
0000
2000
0010
0010
0010
0000
3010
0100
1000
0010
0001
0100
0010
0220
0000
,  // measure 41
0000
0330
0000
0000
0000
0000
0000
0000
;
