#TITLE:アルストロメリア (walk with you remix);
#SUBTITLE:;
#ARTIST:TAG;
#TITLETRANSLIT:Alstroemeria (walk with you remix);
#SUBTITLETRANSLIT:;
#ARTISTTRANSLIT:;
#GENRE:;
#CREDIT:;
#BANNER:Alstroemeria (walk with you remix).png;
#BACKGROUND:Alstroemeria (walk with you remix)-bg.png;
#LYRICSPATH:;
#CDTITLE:./CDTitles/DanceDanceRevolution X3 vs 2ndMIX.png;
#MUSIC:Alstroemeria (walk with you remix).mp3;
#OFFSET:0.000;
#SAMPLESTART:50.229;
#SAMPLELENGTH:15.000;
#SELECTABLE:YES;
#DISPLAYBPM:148.000;
#BPMS:0.000=148.000
;
#STOPS:
;
#BGCHANGES:;
#KEYSOUNDS:;
#ATTACKS:;

//---------------dance-single - ----------------
#NOTES:
     dance-single:
     :
     Beginner:
     3:
     0.174,0.180,0.034,0.163,0.000,119.000,4.000,19.000,0.000,0.000,0.000,0.174,0.180,0.034,0.163,0.000,119.000,4.000,19.000,0.000,0.000,0.000:
0000
0000
0000
0000
,
0000
0000
0000
0000
,
0000
0000
0000
0000
,
0000
0000
0000
0000
,
0000
0000
0000
0000
,
1000
0000
1000
0000
,
0001
0000
0001
0000
,
0010
0000
0010
0000
,
2002
0000
3003
0000
,
0000
0010
0000
0010
,
0000
0001
0000
0001
,
0000
1000
0000
1000
,
0000
0100
0000
0100
,
0000
0010
0000
0010
,
0000
0001
0000
1000
,
0000
0010
0000
0010
,
0000
1000
0000
0001
,
0000
0100
0000
0100
,
0000
0001
0000
1000
,
0000
0100
0000
0100
,
0000
1000
0000
0001
,
0002
0000
0003
0000
,
2000
0000
3000
0000
,
0020
0000
0030
0000
,
0200
0000
0300
0000
,
1000
0000
0010
0000
,
0001
0000
0010
0000
,
0001
0000
0001
0000
,
1000
0000
1000
0000
,
0100
0000
0100
0000
,
0010
0000
0000
0000
,
0001
0001
0001
0000
,
1000
1000
1000
0000
,
0001
0001
0001
0000
,
0010
0000
0010
0000
,
1000
1000
1000
0000
,
0001
0001
0001
0000
,
1000
1000
1000
0000
,
0010
0000
0010
0000
,
0002
0000
0003
0000
,
0020
0000
0030
0000
,
2000
0000
3000
0000
,
0200
0000
0300
0000
,
0002
0000
0003
0000
,
0020
0000
0030
0000
,
2000
0000
3000
0000
,
0200
0000
0300
0000
,
0002
0000
0003
0000
,
0010
0000
0000
0000
,
0000
0000
0000
1000
,
0000
0000
0000
1000
,
0000
0000
0000
0001
,
0000
0000
0000
0001
,
0000
0010
0000
0010
,
0000
1000
0000
1000
,
0000
0001
0000
0001
,
0001
0000
1001
0000
,
1000
0000
1001
0000
,
0001
0001
0001
0000
,
1000
1000
1000
0000
,
0001
0001
0001
0000
,
0100
0000
0100
0000
,
1000
1000
1000
0000
,
0001
0001
0001
0000
,
1000
1000
1000
0000
,
0100
0000
0100
0000
,
0020
0000
0030
0000
,
0200
0000
0300
0000
,
0020
0000
0030
0000
,
0200
0000
0300
0000
,
1001
0000
0000
0000
;

//---------------dance-single - ----------------
#NOTES:
     dance-single:
     :
     Easy:
     6:
     0.296,0.270,0.068,0.265,0.000,203.000,8.000,31.000,0.000,0.000,0.000,0.296,0.270,0.068,0.265,0.000,203.000,8.000,31.000,0.000,0.000,0.000:
0000
0000
0000
0000
,
0000
0000
0000
0000
,
0000
0000
0000
0000
,
0000
0000
0000
0000
,
0000
0000
0000
0000
,
0100
1000
0001
0100
,
0010
1000
0001
0010
,
0100
0100
0010
0100
,
2002
0000
0000
3003
,
0010
1000
0100
0000
,
0100
1000
0010
1000
,
0001
0100
0001
0000
,
0010
0001
1000
0100
,
1000
0001
0100
0000
,
0010
0100
0001
0010
,
0100
1000
0100
0000
,
1000
0001
0100
0010
,
1000
0001
0010
0000
,
0100
0010
0100
0010
,
0001
1000
0010
0000
,
1000
0000
0100
0000
,
0002
0100
1000
0103
,
2000
0100
0001
3100
,
0100
1000
0010
0001
,
0010
1000
1001
0000
,
2000
0010
0001
3010
,
0002
0010
1000
0013
,
0100
0001
0010
1000
,
0010
0001
1001
0000
,
0010
0010
0100
0010
,
0110
0000
0000
0010
,
0001
0001
0010
0100
,
1000
1000
0010
0100
,
0001
0001
1000
0100
,
0010
0001
1000
0000
,
0001
0001
0100
0010
,
1000
1000
0100
0010
,
0001
0001
1000
0010
,
0100
0001
1001
0000
,
0200
0300
0002
0003
,
0020
0030
2000
3000
,
0200
0300
0002
0003
,
0020
0030
2000
3000
,
0200
0300
0002
0003
,
0020
0030
2000
3000
,
0200
0300
0002
0003
,
0020
0030
2000
3000
,
0200
0300
0002
0003
,
0100
0000
0000
0000
,
1000
0010
0000
0010
,
0000
0010
0000
0010
,
0000
0100
0000
0100
,
0010
0000
1000
1000
,
0100
0010
0100
1000
,
0010
1000
0001
0010
,
1000
0100
0001
0100
,
0001
1000
0110
0000
,
0020
0000
0130
1001
,
1000
1000
0010
0100
,
0001
0001
0010
0100
,
1000
1000
0001
0100
,
0010
1000
0001
0000
,
1000
1000
0100
0010
,
0001
0001
0100
0010
,
1000
1000
0001
0010
,
0100
1000
1001
0000
,
0200
0000
0020
0300
,
0002
0000
0000
0033
,
0200
0000
0020
0300
,
2000
0000
0000
0030
,
3001
0000
0000
0000
;

//---------------dance-single - ----------------
#NOTES:
     dance-single:
     :
     Medium:
     8:
     0.411,0.419,0.274,0.223,0.000,278.000,32.000,26.000,0.000,0.000,0.000,0.411,0.419,0.274,0.223,0.000,278.000,32.000,26.000,0.000,0.000,0.000:
0000
0000
0000
0000
,
0000
0000
0000
0000
,
0000
0000
0000
0000
,
0000
0000
0000
0000
,
0000
0000
0000
0000
,
0100
0000
0001
0000
1000
0000
0100
0010
,
0001
0000
1000
0000
0010
0000
0100
0001
,
0010
1100
0010
0101
,
2002
0000
0000
3003
,
0010
0000
0001
0000
0100
1000
0010
0000
,
0100
0000
0001
0000
1000
0000
0100
0010
,
0100
0000
0010
0000
0001
1000
0010
0000
,
0100
0000
0010
0000
1000
0000
0001
1000
,
0100
0000
0010
0000
0100
0010
0001
0000
,
0100
0000
0010
0000
0100
0000
0001
1000
,
0010
0000
1000
0000
0100
0010
0001
0000
,
1000
0000
0000
0000
0001
0010
0100
0000
,
1000
0000
0010
0000
0100
0001
0010
0000
,
0100
0000
0010
0000
0001
0000
1000
0001
,
0100
0000
0001
0000
1000
0100
1000
0000
,
0001
0000
0000
0000
0100
0010
0100
0000
,
2000
0000
0100
0000
3001
0000
0010
0100
,
0020
0000
1000
0000
0130
0000
1000
0001
,
0100
0001
0010
1000
,
0010
0001
1000
0110
,
0002
0000
0100
0000
1003
0000
0010
0100
,
0020
0000
0001
0000
0130
0000
0001
1000
,
0100
1000
0010
0001
,
0010
1000
0001
0110
,
1000
0100
1000
0100
0010
0001
0010
0002
,
0000
0000
0000
0013
,
1010
0000
0101
0000
0010
1000
0100
0000
,
0011
0000
1100
0000
0010
0001
0100
0000
,
0110
0000
1001
0000
0100
0010
0001
0000
,
1000
0000
1000
0000
0010
0100
0001
0000
,
1100
0000
0101
0000
0010
0100
0001
0000
,
1010
0000
0011
0000
0010
0100
1000
0000
,
0110
0000
1001
0000
0100
0010
0001
0000
,
1000
0001
1001
0000
,
0100
0200
1300
2000
,
3010
0020
0031
0002
,
0103
0200
1300
2000
,
3010
0020
0031
0002
,
0103
0200
1300
2000
,
3010
0020
0031
0002
,
0103
1000
0010
0001
,
0100
1000
0010
0001
,
1000
0100
1000
0000
0001
0100
0001
0100
,
0000
0000
0000
0000
,
0001
0010
0000
0010
,
0000
0000
0010
0000
0000
0000
0010
0001
,
1000
0010
0000
0010
,
0100
0000
0100
0000
0100
0000
0010
1000
,
0100
0000
0010
0000
0100
0000
1000
0001
,
0010
0000
0001
0000
1000
0000
0010
0100
,
0001
0010
0100
0000
1000
0010
0100
0000
,
1000
0000
0001
0000
0010
0000
1000
0001
,
0020
0000
0130
1001
,
0011
0000
1100
0000
0010
0001
0100
0000
,
1010
0000
0101
0000
0010
1000
0100
0000
,
0110
0000
1001
0000
0100
0010
1000
0000
,
0001
0000
0001
0000
0010
0100
1000
0000
,
0101
0000
1100
0000
0010
0100
1000
0000
,
0011
0000
1010
0000
0010
0100
0001
0000
,
0110
0000
1001
0000
0100
0010
1000
0000
,
0001
1000
1001
0000
,
0200
0000
0020
0300
,
2000
0000
0000
3030
,
0200
0000
0020
0300
,
0002
0000
0000
0030
,
1003
0000
0000
0000
;

//---------------dance-single - ----------------
#NOTES:
     dance-single:
     :
     Hard:
     11:
     0.483,0.479,0.111,0.103,0.133,370.000,13.000,12.000,0.000,0.000,0.000,0.483,0.479,0.111,0.103,0.133,370.000,13.000,12.000,0.000,0.000,0.000:
0000
0000
0000
0000
,
0000
0000
0000
0000
,
0000
0000
0000
0000
,
0000
0000
0000
0000
,
0000
0000
0000
0000
,
0010
0000
1000
0000
0001
0000
0010
0100
,
1000
0000
0001
0000
0100
0000
0010
1000
,
0100
0010
0100
0010
0001
0100
1000
0100
,
0001
0000
0000
0100
0000
0000
0010
0000
0000
1000
0000
0000
0001
0000
0010
0000
,
0100
0000
1100
0000
0010
0001
0100
0000
,
0010
0000
1000
0001
1000
0001
0010
0100
,
0001
0000
0110
0000
1000
0001
0100
0000
,
0010
0000
0100
0001
0100
0001
1000
0100
,
0001
0000
0100
0000
0010
0100
1000
0000
,
0010
0000
0100
0010
0100
0010
1000
0001
,
0100
0000
1100
0000
0010
0100
1000
0000
,
0001
0000
0100
0010
1000
0100
0010
0001
,
1000
0000
0110
0000
0010
1000
0100
0000
,
0010
0000
0000
0000
0100
0010
0100
0000
,
0001
0010
0001
0000
1000
0010
1000
0000
,
0001
0010
1000
0010
,
0002
0000
0010
0000
1003
0001
0100
0010
,
0200
0000
0001
0000
0310
1000
0100
0010
,
0001
1100
0010
0101
,
0001
0000
0000
0010
0000
0000
0100
0000
1000
0000
0000
0000
0101
0000
0000
0000
,
2000
0000
0010
0000
3001
1000
0100
0010
,
0200
0000
1000
0000
0310
0001
0100
0010
,
1000
0101
0010
1100
,
1000
0000
0000
0010
0000
0000
0100
0000
0001
0000
0000
0000
1100
0000
0000
0000
,
0001
0000
0000
0010
0000
0000
0100
0000
1000
0000
0001
0000
0100
0000
0000
0020
,
0000
0000
0000
0130
,
0010
1000
0010
1000
0001
0100
0010
1000
,
0100
1000
0100
1000
0001
0010
0100
1000
,
0001
0100
0001
0100
0010
0100
0001
0010
,
0100
0000
0000
0000
0100
0000
0000
1000
0100
0000
0010
0000
0001
0000
1000
0000
,
0001
0100
0001
0100
0001
0010
1000
0010
,
0001
1000
0001
1000
0010
0100
0001
0010
,
0100
1000
0100
1000
0010
0001
0010
0100
,
0001
0000
0000
0010
0000
0000
0100
0000
1000
0000
0000
0000
1001
0000
0000
0000
,
0010
0000
0000
0010
0000
0000
0010
0000
0001
0000
0000
0001
0000
0000
0001
0000
,
0100
0000
0000
0100
0000
0000
0100
0000
1000
0000
0000
1000
0000
0000
1000
0000
,
0010
0000
0000
0010
0000
0000
0010
0000
0001
0000
0000
0001
0000
0000
0001
0000
,
0100
0000
0000
0100
0000
0000
0100
0000
1000
0000
0000
1000
0000
0000
1000
0000
,
0010
0000
0000
0010
0000
0000
0010
0000
1000
0000
0000
1000
0000
0000
1000
0000
,
0100
0000
0000
0100
0000
0000
0100
0000
0001
0000
0000
0001
0000
0000
0001
0000
,
0010
0000
0000
0001
0000
0000
0010
0000
0100
0000
0000
1000
0000
0000
0010
0000
,
1000
0000
0000
0001
0000
0000
0100
0000
0010
0000
0000
1000
0000
0000
0100
0000
,
1000
0000
0001
0000
0010
0000
0001
0000
1000
0000
0010
0000
0100
0010
0100
0010
,
0000
0000
0000
0000
,
1000
0100
0000
0100
,
0000
0000
0100
0000
0000
0000
0100
1000
,
0001
0100
0000
0100
,
0010
0000
0000
0000
0100
0000
0000
0000
0010
0000
0000
1000
0001
0000
0010
0000
,
0100
0000
0100
0000
0010
0001
0010
0100
,
1000
0000
1000
0000
0001
0100
1000
0100
,
0010
1000
0100
0010
0001
0100
0010
0100
,
0001
0000
0000
1000
0000
0000
0010
0000
0000
0100
0000
0000
0001
0000
1000
0000
,
0200
0000
0310
1001
,
0010
0001
0010
0001
1000
0100
0010
0001
,
0100
0001
0100
0001
1000
0010
0100
0001
,
1000
0100
1000
0100
0010
0100
1000
0010
,
0100
0000
0000
0000
0100
0000
0000
0001
0100
0000
0010
0000
1000
0000
0001
0000
,
1000
0100
1000
0100
1000
0010
0001
0010
,
1000
0001
1000
0001
0010
0100
1000
0010
,
0100
0001
0100
0001
0010
1000
0010
0100
,
1000
0000
0000
0010
0000
0000
0100
0000
0001
0000
0000
0000
1001
0000
0000
0000
,
0020
0000
0200
0030
,
0002
0000
0000
0303
,
0020
0000
0200
0030
,
2000
0000
0000
0300
,
3001
0000
0000
0000
;

//---------------dance-double - ----------------
#NOTES:
     dance-double:
     :
     Easy:
     6:
     0.287,0.270,0.086,0.163,0.000,206.000,10.000,19.000,0.000,0.000,0.000,0.287,0.270,0.086,0.163,0.000,206.000,10.000,19.000,0.000,0.000,0.000:
00000000
00000000
00000000
00000000
,
00000000
00000000
00000000
00000000
,
00000000
00000000
00000000
00000000
,
00000000
00000000
00000000
00000000
,
00000000
00000000
00000000
00000000
,
00100000
10000000
00010000
00100000
,
01000000
00010000
00001000
00000010
,
00000001
00001000
00000010
00000100
,
00002002
00000000
00000000
00003003
,
00000010
00001000
00000100
00000000
,
00010000
00001000
00100000
01000000
,
10000000
00010000
01000000
00000000
,
00100000
00010000
00001000
00000100
,
00000010
00001000
00000001
00000000
,
00000100
00001000
00010000
00100000
,
01000000
00010000
00100000
00000000
,
00001000
00010000
00000100
00001000
,
00000010
00000100
00000001
00000000
,
00000010
00000001
00001000
00000010
,
00000100
00001000
00010000
00000000
,
01000000
10000000
00100000
01000000
,
00010000
00000000
10000000
01000000
,
00100000
00010000
00001000
00000100
,
00000010
00000000
00000001
00000000
,
00001000
00000010
00000110
00000000
,
00001000
00000000
00000001
00000100
,
00000010
00001000
00010000
01000000
,
00100000
00000000
10000000
00000000
,
00010000
00100000
01100000
00000000
,
00001000
00010000
00001000
00000000
,
00011000
00000000
00000000
00000100
,
00000001
00000001
00000010
00000100
,
00010000
00010000
00001000
00100000
,
00010000
00010000
10000000
00100000
,
01000000
00010000
10000000
00000000
,
01000000
01000000
00100000
00001000
,
00010000
00010000
00000010
00001000
,
00000001
00000001
00000010
00000100
,
00001000
00000010
00000110
00000000
,
00000002
00000003
00000200
00000300
,
00002000
00003000
00020000
00030000
,
00200000
00300000
20000000
30000000
,
02000000
03000000
00020000
00030000
,
00001000
00001000
00000010
00000010
,
00000001
00000001
00000100
00000100
,
00001000
00001000
00010000
00010000
,
01000000
01000000
10000000
10000000
,
00200000
00300000
02000000
03000000
,
10010000
00000000
00000000
00000000
,
10000000
00100000
00000000
00100000
,
00000000
00010000
00000000
00010000
,
00000000
00001000
00000000
00001000
,
00000100
00000000
00000001
00000001
,
00001000
00000100
00000010
00000001
,
00001000
00000010
00000100
00001000
,
00010000
01000000
10000000
00100000
,
00010000
10000000
01100000
00000000
,
00200000
00000000
01300000
10010000
,
10000000
10000000
00100000
01000000
,
00001000
00001000
00010000
00000010
,
00001000
00001000
00000001
00000010
,
00000100
00001000
00000001
00000000
,
00000100
00000100
00000010
00010000
,
00001000
00001000
00100000
00010000
,
10000000
10000000
00100000
01000000
,
00010000
00100000
01100000
00000000
,
02000000
03000000
00200000
00300000
,
00002000
00000000
00000000
00003000
,
00020000
00030000
00000020
00000030
,
00000200
00000000
00000000
00000300
,
00001001
00000000
00000000
00000000
;

//---------------dance-double - ----------------
#NOTES:
     dance-double:
     :
     Medium:
     8:
     0.395,0.419,0.308,0.086,0.000,277.000,36.000,10.000,0.000,0.000,0.000,0.395,0.419,0.308,0.086,0.000,277.000,36.000,10.000,0.000,0.000,0.000:
00000000
00000000
00000000
00000000
,
00000000
00000000
00000000
00000000
,
00000000
00000000
00000000
00000000
,
00000000
00000000
00000000
00000000
,
00000000
00000000
00000000
00000000
,
00000001
00000000
00000100
00000000
00000010
00000000
00010000
00001000
,
00100000
00000000
00010000
00000000
10000000
00000000
00100000
01000000
,
00010000
00100000
01000000
00010000
,
00022000
00000000
00000000
00033000
,
00000100
00000000
00000100
00000000
00000001
00001000
00000100
00000000
,
00000010
00000000
00000001
00000000
00000100
00000000
00001000
00010000
,
00001000
00000000
01000000
00000000
00100000
10000000
01000000
00000000
,
00100000
00000000
00001000
00000000
00010000
00000000
01000000
00100000
,
00010000
00000000
10000000
00000000
00100000
01000000
00001000
00000000
,
00010000
00000000
00001000
00000000
00000100
00000000
00000001
00001000
,
00000100
00000000
00000010
00000000
00000001
00001000
00000010
00000000
,
00000100
00000000
00000000
00000000
00000010
00000100
00000010
00000000
,
00010000
00000000
00001000
00000000
00100000
01000000
00100000
00000000
,
00010000
00000000
10000000
00000000
00100000
00000000
01000000
00010000
,
00100000
00000000
01000000
00000000
00010000
00001000
00000010
00000000
,
00000001
00000000
00000000
00000000
00001000
00000001
00001000
00000000
,
00000010
00000000
00000100
00000000
00000001
00001000
00000100
00000000
,
00000010
00001000
00010000
01000000
,
00100000
00010000
01000000
00000000
00100000
10000000
01000000
00000000
,
00110000
11000000
01010000
00000000
,
00100000
00000000
00010000
00000000
00001000
00000100
00000010
00000000
,
00001000
00000001
00000010
00000100
,
00010000
00001000
00000100
00000000
00000010
00001000
00000100
00000000
,
00010000
00001000
00010000
00011000
,
00100000
10000000
00100000
00000000
01000000
00010000
01000000
00020000
,
00000000
00000000
00000000
10030000
,
10100000
00000000
01010000
00000000
00100000
10000000
01000000
00000000
,
01010000
00000000
00011000
00000000
00100000
00001000
00010000
00000000
,
00001010
00000000
00000101
00000000
00000010
00000001
00000100
00000000
,
00000001
00000000
00000010
00000000
00001000
00000000
00010000
00001000
,
00011000
00000000
00110000
00000000
01000000
00100000
00010000
00000000
,
10010000
00000000
01100000
00000000
00010000
10000000
01000000
00000000
,
01010000
00000000
11000000
00000000
00100000
00010000
00001000
00000000
,
00000100
00000001
00001001
00000000
,
00000100
00000100
00001000
00001000
,
00000010
00000010
00000001
00001000
,
00010000
00010000
10000000
10000000
,
00100000
00000000
00100000
00000000
00010000
10000000
01000000
00000000
,
00010000
00001000
00000010
00000001
,
00001000
00000001
00000100
00001000
,
00010000
00100000
00010000
00001000
,
00000100
00001000
00010000
01000000
,
10000000
00010000
01000000
00000000
00010000
10000000
01000000
00000000
,
10010000
00000000
00000000
00000000
,
01100000
00010000
00000000
00010000
,
00000000
00000000
00001000
00000000
00000000
00000000
00001000
00000010
,
00000100
00000010
00000000
00000010
,
00000001
00000000
00001000
00001001
,
00000010
00000000
00000010
00000000
00000100
00001000
00000100
00000000
,
00010000
00000000
00010000
00000000
01000000
00100000
01000000
00000000
,
10000000
00100000
01000000
00000000
00001000
00010000
00000010
00000000
,
00001000
00000000
00000001
00000000
00000010
00000000
00000100
00001000
,
00000020
00000000
00000130
00001001
,
00000011
00000000
00001100
00000000
00000010
00000001
00000100
00000000
,
00001100
00000000
00011000
00000000
00000010
00010000
00001000
00000000
,
00110000
00000000
11000000
00000000
00100000
10000000
01000000
00000000
,
10000000
00000000
00100000
00000000
00010000
00000000
00001000
00010000
,
00011000
00000000
00001010
00000000
00000100
00000010
00001000
00000000
,
00001001
00000000
00000110
00000000
00001000
00000001
00000100
00000000
,
00001100
00000000
00000101
00000000
00000010
00001000
00010000
00000000
,
01000000
10000000
10010000
00000000
,
00200000
00000000
02000000
00300000
,
00002000
00000000
00000000
03003000
,
00020000
00000000
00000200
00030000
,
00000020
00000000
00000000
00000330
,
00001001
00000000
00000000
00000000
;

//---------------dance-double - ----------------
#NOTES:
     dance-double:
     :
     Hard:
     12:
     0.458,0.419,0.086,0.043,0.265,360.000,10.000,5.000,0.000,0.000,0.000,0.458,0.419,0.086,0.043,0.265,360.000,10.000,5.000,0.000,0.000,0.000:
00000000
00000000
00000000
00000000
,
00000000
00000000
00000000
00000000
,
00000000
00000000
00000000
00000000
,
00000000
00000000
00000000
00000000
,
00000000
00000000
00000000
00000000
,
01000000
00000000
10000000
00000000
00100000
00000000
00010000
00001000
,
00010000
00000000
00000100
00000000
00000010
00000000
00000001
00001000
,
00000100
00001000
00000010
00010000
00001000
00100000
00010000
10000000
,
00100000
00000000
00000000
01000000
00000000
00000000
00100000
00000000
00000000
10000000
00000000
00000000
01000000
00000000
00100000
00000000
,
00010000
00000000
10000000
00000000
01000000
00010000
00001000
00000000
,
00000010
00000000
00000001
00001000
00000010
00001000
00000100
00000000
,
00000010
00000000
00000001
00000000
00000100
00001000
00010000
00000000
,
00100000
00000000
10000000
00010000
00100000
00010000
01000000
00000000
,
00100000
00000000
00000000
01000000
00000000
00000000
00010000
00000000
00000000
00000000
01000000
00000000
00100000
00000000
00000000
00000000
,
10000000
01000000
00010000
00000000
01000000
00100000
00001000
00010000
,
00000010
00000000
00000000
00001000
00000000
00000000
00000001
00000000
00000000
00000000
00000010
00000000
00000100
00000000
00000000
00000000
,
00001000
00000000
00000000
00000000
00000001
00000100
00001000
00000100
,
00000001
00000000
00000000
00001000
00000000
00000000
00000100
00000000
00000000
00000000
00000010
00000000
00001000
00000000
00000000
00000000
,
00010000
01000000
00100000
00000000
00001000
00010000
00100000
01000000
,
00010000
00000000
00000000
10000000
00000000
00000000
01000000
00000000
00000000
00000000
00100000
00000000
01000000
00000000
00000000
00000000
,
00100000
00000000
00000000
00000000
00001000
00010000
00001000
00000000
,
00010000
00000000
00000010
00000000
00000100
00000000
00000010
00010000
,
00001000
00000000
00000100
00000000
00000001
00001000
00000100
00000000
,
00000010
00000001
00000100
00000000
00000010
00001000
00000100
00000000
,
00010000
00000000
00000000
00001000
00000000
00000000
00100000
00000000
00010000
00000000
00000000
00000000
11000000
00000000
00000000
00000000
,
00001000
00000000
00100000
00000000
01000000
00000000
00100000
00001000
,
00010000
00000000
01000000
00000000
10000000
00010000
01000000
00000000
,
00100000
10000000
01000000
00000000
00100000
00010000
01000000
00000000
,
00001000
00000000
00000000
00010000
00000000
00000000
00000010
00000000
00001000
00000000
00000000
00000000
00000101
00000000
00000000
00000000
,
00000010
00000000
00000000
00000100
00000000
00000000
00010000
00000000
00001000
00000000
00100000
00000000
00010000
00000000
20000000
00000000
,
00000000
00000000
00000000
30010000
,
00100000
00000000
00000000
10000000
00000000
00000000
00100000
00000000
00000000
01000000
00010000
00000000
10000000
00000000
01000000
00000000
,
00010000
00000000
00000000
00001000
00000000
00000000
00000010
00000000
00000000
00000100
00001000
00000000
00000001
00000000
00000100
00000000
,
00000010
00000000
00000000
00001000
00000000
00000000
00000100
00000000
00000000
00000010
00001000
00000000
00010000
00000000
00001000
00000000
,
00100000
00000000
01000000
00000000
10000000
00010000
01000000
00100000
,
10000000
00000000
00000000
01000000
00000000
00000000
00010000
00000000
00000000
00001000
00010000
00000000
00001000
00000000
00000100
00000000
,
00000010
00000000
00000000
00001000
00000000
00000000
00000100
00000000
00000000
00000010
00000001
00000000
00000100
00000000
00000010
00000000
,
00010000
00000000
00000000
00001000
00000000
00000000
00100000
00000000
00000000
01000000
00100000
00000000
00010000
00000000
01000000
00000000
,
00100000
00000000
00000000
10000000
00000000
00000000
00010000
00000000
20020000
00000000
00000000
00000000
30030000
00000000
00000000
00000000
,
00100000
00000000
00000000
00100000
00000000
00000000
00100000
00000000
10000000
00000000
00000000
10000000
00000000
00000000
10000000
00000000
,
01000000
00000000
00000000
01000000
00000000
00000000
01000000
00000000
00010000
00000000
00000000
00010000
00000000
00000000
00010000
00000000
,
00001000
00000000
00000000
00001000
00000000
00000000
00001000
00000000
00000100
00000000
00000000
00000100
00000000
00000000
00000100
00000000
,
00000001
00000000
00000000
00000001
00000000
00000000
00000001
00000000
00000010
00000000
00000000
00000010
00000000
00000000
00000010
00000000
,
00000100
00000000
00000000
00000010
00000000
00000000
00000100
00000000
00010000
00000000
00000000
00001000
00000000
00000000
00010000
00000000
,
01000000
00000000
00000000
10000000
00000000
00000000
01000000
00000000
00100000
00000000
00000000
00010000
00000000
00000000
01000000
00000000
,
00100000
00000000
00000000
10000000
00000000
00000000
01000000
00000000
00010000
00000000
00000000
00001000
00000000
00000000
00010000
00000000
,
00000010
00000000
00000000
00001000
00000000
00000000
00000001
00000000
00000010
00000000
00000000
00000001
00000000
00000000
00000100
00000000
,
00000010
00000000
00000000
00000000
00000000
00000000
00000100
00000000
00000000
00000000
00000000
00000000
00000000
00000000
00000000
00001001
,
00000000
00000000
00000000
00000000
,
00000110
00001000
00000000
00001000
,
00000000
00000000
00010000
00000000
00000000
00000000
00010000
00100000
,
01000000
00100000
00000000
00100000
,
10000000
00000000
00010000
10010000
,
00100000
10000000
00100000
00000000
01000000
00010000
01000000
00000000
,
00001000
00010000
00001000
00000000
00000100
00000010
00000100
00000000
,
00000001
00000010
00000100
00010000
00001000
00100000
00010000
10000000
,
00100000
00000000
00000000
10000000
00000000
00000000
01000000
00000000
00000000
00010000
00000000
00000000
00001000
00000000
00010000
00000000
,
00011000
00000000
00000010
00001001
,
00000010
00000000
00000000
00000001
00000000
00000000
00000010
00000000
00000000
00000100
00001000
00000000
00000001
00000000
00000100
00000000
,
00001000
00000000
00000000
00010000
00000000
00000000
00100000
00000000
00000000
01000000
00010000
00000000
10000000
00000000
01000000
00000000
,
00100000
00000000
00000000
00010000
00000000
00000000
01000000
00000000
00000000
00100000
00010000
00000000
00001000
00000000
00010000
00000000
,
00000010
00000000
00000100
00000000
00000001
00001000
00000100
00000010
,
00000001
00000000
00000000
00000100
00000000
00000000
00001000
00000000
00000000
00010000
00001000
00000000
00010000
00000000
01000000
00000000
,
00100000
00000000
00000000
00010000
00000000
00000000
01000000
00000000
00000000
00100000
10000000
00000000
01000000
00000000
00100000
00000000
,
00001000
00000000
00000000
00010000
00000000
00000000
00000010
00000000
00000000
00000100
00000010
00000000
00001000
00000000
00000100
00000000
,
00000010
00000000
00000000
00000001
00000000
00000000
00001000
00000000
00002002
00000000
00000000
00000000
00003003
00000000
00000000
00000000
,
00000010
00000000
00000000
00000100
00000000
00000000
00000010
00000000
00000000
00010000
00000000
00000000
00001000
00000000
00010000
00000000
,
01000000
00000000
00000000
00100000
00000000
00000000
01000000
00000000
00000000
10000000
00000000
00000000
00010000
00000000
01000000
00000000
,
00100000
00000000
00000000
01000000
00000000
00000000
00100000
00000000
00000000
00010000
00000000
00000000
00001000
00000000
00010000
00000000
,
00000100
00000000
00000000
00000010
00000000
00000000
00000100
00000000
00000000
00001000
00000000
00000000
00000001
00000000
00000100
00000000
,
00000110
00000000
00000000
00000000
;

//---------------dance-single - ----------------
#NOTES:
     dance-single:
     :
     Challenge:
     13:
     0.546,0.719,0.137,0.274,0.428,399.000,16.000,32.000,104.000,0.000,0.000,0.546,0.719,0.137,0.274,0.428,399.000,16.000,32.000,104.000,0.000,0.000:
0000
0000
0000
0000
,
0000
0000
0000
0000
,
0000
0000
0000
0000
,
0000
0000
0000
0000
,
0000
0000
0000
0000
,
0100
0000
1000
0000
0010
0000
0100
0001
,
0100
0000
0010
0000
1000
0000
0001
0010
,
0100
1000
0010
0001
1000
0100
0001
1000
,
0010
0000
0000
0010
0000
0000
0010
0000
0000
0010
1000
0000
0100
0000
0010
0000
,
0001
0000
MMMM
0000
0010
0100
0001
0000
,
0010
0000
0001
1000
0010
1000
0100
0000
,
0010
0000
MMMM
0000
0100
1000
0001
0000
,
0010
0000
1000
0001
0010
0001
0100
0000
,
0010
0000
0000
0100
0000
0000
0001
0000
0000
0000
MMMM
0000
0010
0000
0000
0000
,
1000
0100
0001
0000
0100
0010
0001
1000
,
0010
0000
0000
1000
0000
0000
0001
0000
0000
0000
MMMM
0000
0100
0000
0000
0000
,
1000
0000
0000
0000
0000
0000
0000
0000
0001
0000
0100
0000
0010
0100
0010
0100
,
0001
0000
0000
1000
0000
0000
0100
0000
0000
0000
MMMM
0000
0001
0000
0000
0000
,
1000
0010
0100
0000
0001
1000
0100
0010
,
0001
0000
0000
1000
0000
0000
0010
0000
0000
0000
MMMM
0000
0010
0000
0000
0000
,
1000
0000
0000
0000
0001
1000
0100
0010
,
0001
0000
0001
1000
0010
0100
0001
1000
,
0001
0000
0010
0000
0100
0000
0001
1000
,
0100
0001
0100
0000
0010
0001
1000
0001
,
0100
0000
0000
1000
0000
0000
0010
0000
0100
0000
0000
0000
MMMM
0000
0000
0000
,
1000
0000
0010
0001
0100
0001
0010
1000
,
0001
0000
0010
0000
0100
0000
1000
0010
,
0100
1000
0100
0000
0001
0010
0100
1000
,
0001
0000
0000
0001
0000
0000
0100
0010
0100
0000
0000
0000
MMMM
0000
0000
0000
,
0010
0000
0000
0100
0000
0000
1000
0001
1000
0000
0000
0000
0100
0000
0000
2002
,
0000
0000
3003
MMMM
,
0010
1000
0000
1000
0100
0000
0100
0010
0000
0010
0001
0000
MMMM
0000
0100
0000
,
0010
0001
0000
0001
0010
0000
0010
0100
0000
0100
1000
0000
MMMM
0000
0100
0000
,
0010
1000
0000
1000
0100
0000
0100
0010
0000
0010
0001
0000
MMMM
0000
0001
0000
,
0100
0000
0000
0000
0100
0000
0000
0010
1000
0000
0001
0000
0100
0010
0100
0010
,
1000
0100
0000
0100
0001
0000
0001
0100
0000
0100
1000
0000
MMMM
0000
0100
0000
,
0010
1000
0000
1000
0010
0000
0010
0001
0000
0001
0010
0000
MMMM
0000
0010
0000
,
1000
0001
0000
0001
0100
0000
0100
0010
0000
0010
1000
0000
MMMM
0000
1000
0000
,
0100
0000
0000
0010
0000
0000
0001
0000
2002
0000
0000
0000
3003
0000
0000
0000
,
0010
0000
0000
1000
0000
0000
1010
0000
1000
0000
0000
0100
0000
0000
1100
0000
,
0100
0000
0000
0001
0000
0000
0101
0000
0001
0000
0000
0010
0000
0000
0011
0000
,
0010
0000
0000
1000
0000
0000
1010
0000
1000
0000
0000
0100
0000
0000
1100
0000
,
0100
0000
0000
0001
0000
0000
0101
0000
0001
0000
0000
0010
0000
0000
0011
0000
,
0020
0000
0000
2030
0000
0000
3200
0000
0320
0000
0000
0032
0000
0000
0203
0000
,
0320
0000
0000
2030
0000
0000
3200
0000
0320
0000
0000
0032
0000
0000
0203
0000
,
0320
0000
0000
2030
0000
0000
3200
0000
0320
0000
0000
0230
0000
0000
0320
0000
,
0032
0000
0000
2003
0000
0000
3200
0000
2300
0000
0000
3020
0000
0000
0230
0000
,
0301
0000
0000
1000
0000
0000
0100
0000
0010
0000
0001
0000
0100
0010
0100
0010
,
0000
0000
0000
0000
,
0110
1000
MMMM
1000
,
MMMM
0000
0001
0000
MMMM
0000
0001
0010
,
0110
0010
MMMM
0010
,
1000
0000
0000
0000
0000
0000
0000
0000
0001
0000
0000
1000
0001
0000
1000
0000
,
0010
1000
0010
0000
0100
0001
0100
0000
,
0001
0010
0001
0000
1000
0100
1000
0000
,
0001
0010
0100
1000
0010
0100
0001
1000
,
0010
0000
0000
1000
0000
0000
0100
0000
0000
0001
0000
0000
0010
0000
0001
0000
,
2002
3003
0110
MMMM
,
0010
0001
0000
0001
0100
0000
0100
0010
0000
0010
1000
0000
MMMM
0000
0100
0000
,
0010
1000
0000
1000
0010
0000
0010
0100
0000
0100
0001
0000
MMMM
0000
0100
0000
,
0010
0001
0000
0001
0100
0000
0100
0010
0000
0010
1000
0000
MMMM
0000
1000
0000
,
0100
0000
0000
0000
0100
0000
0000
0010
0001
0000
1000
0000
0100
0010
0100
0010
,
0001
0100
0000
0100
1000
0000
1000
0100
0000
0100
0001
0000
MMMM
0000
0100
0000
,
0010
0001
0000
0001
0010
0000
0010
1000
0000
1000
0010
0000
MMMM
0000
0010
0000
,
0001
1000
0000
1000
0100
0000
0100
0010
0000
0010
0001
0000
MMMM
0000
0001
0000
,
0100
0000
0000
0010
0000
0000
1000
0000
2002
0000
0000
0000
3003
0000
0000
0000
,
0010
0000
0000
0100
0000
0000
0010
0000
0000
0001
0000
0000
1000
0000
0001
0000
,
0100
0000
0000
0010
0000
0000
0100
0000
0000
0001
0000
0000
1000
0000
0100
0000
,
0010
0000
0000
0100
0000
0000
1000
0000
0000
0010
0000
0000
0100
0000
0001
0000
,
0010
0000
0000
0100
0000
0000
0010
0000
0000
0001
0000
0000
1000
0000
0010
0000
,
0110
0000
0000
0000
;

//---------------dance-double - ----------------
#NOTES:
     dance-double:
     :
     Challenge:
     13:
     0.427,0.449,0.051,0.017,0.163,341.000,6.000,2.000,312.000,0.000,0.000,0.427,0.449,0.051,0.017,0.163,341.000,6.000,2.000,312.000,0.000,0.000:
00000000
00000000
00000000
00000000
,
00000000
00000000
00000000
00000000
,
00000000
00000000
00000000
00000000
,
00000000
00000000
00000000
00000000
,
00000000
00000000
00000000
00000000
,
00000010
00000000
00000001
00000000
00001000
00000000
00000010
00000100
,
00000001
00000000
00001000
00000000
00000100
00000000
00000010
00001000
,
00010000
01000000
10000000
00010000
01000000
00100000
00010000
00001000
,
00000100
00000000
00000000
00000100
00000000
00000000
00000010
00000000
00000000
00001000
00000000
00000000
00000001
00000000
00000010
00000000
,
00000100
00000000
MMMMMMMM
00000000
00000010
00000001
00000100
00000000
,
00000010
00000000
00010000
00001000
00100000
00010000
10000000
00100000
,
01000000
00000000
MMMMMMMM
00000000
00100000
10000000
00010000
00000000
,
00100000
00000000
01000000
00010000
00000100
00001000
00000001
00000100
,
00000010
00000000
MMMMMMMM
00000000
00000010
00010000
00001000
00000000
,
00100000
00000000
01000000
00100000
00010000
01000000
00100000
10000000
,
00010000
00000000
MMMMMMMM
00000000
00000100
00001000
00000001
00000000
,
00000100
00000000
00000000
00000000
00000010
00010000
00001000
00100000
,
01000000
00000000
MMMMMMMM
00000000
00100000
00010000
01000000
00000000
,
00100000
00000000
10000000
00100000
01000000
00100000
00010000
00001000
,
00000100
00000000
MMMMMMMM
00000000
00001000
00000100
00000010
00000000
,
00000001
00000000
00000000
00000000
00000100
00000010
00000100
00000000
,
MMMMMMMM
00000010
MMMMMMMM
01000000
,
MMMMMMMM
00100000
MMMMMMMM
00000100
,
MMMMMMMM
00010000
MMMMMMMM
00000001
,
00000100
00000000
00000000
00001000
00000000
00000000
00010000
00000000
00001000
00000000
00000000
00000000
00011000
00000000
00000000
00000000
,
MMMMMMMM
00100000
MMMMMMMM
00000100
,
MMMMMMMM
00000010
MMMMMMMM
01000000
,
MMMMMMMM
00001000
MMMMMMMM
10000000
,
01000000
00000000
00000000
00010000
00000000
00000000
00001000
00000000
00010000
00000000
00000000
00000000
00011000
00000000
00000000
00000000
,
00001000
00000000
00000000
00000100
00000000
00000000
00000001
00000000
00000010
00000000
00000100
00000000
00001000
00000000
00000000
00000002
,
00000000
00000000
00000003
MMMMMMMM
,
00000010
00000001
00000100
00000001
00001000
00000100
MMMMMMMM
00001000
,
01000000
00100000
10000000
00100000
01000000
00001000
MMMMMMMM
00000100
,
00000010
00000001
00001000
00000001
00000100
00001000
MMMMMMMM
00100000
,
01000000
00000000
00000000
00000000
01000000
00000000
00000000
00010000
10000000
00000000
01000000
00000000
00100000
00000000
00010000
00000000
,
00100000
00001000
01000000
00001000
00010000
00001000
MMMMMMMM
00000001
,
00001000
00000100
00000010
00000100
00010000
00001000
MMMMMMMM
00010000
,
10000000
00100000
01000000
00100000
10000000
01000000
MMMMMMMM
00001000
,
00010000
00000000
00000000
00000010
00000000
00000000
00000100
00000000
00000001
00000000
00000000
00000000
00001001
00000000
00000000
00000000
,
00000010
00000000
00000000
00000001
00000000
00000000
00000100
00000000
00000010
00000000
00000000
00001000
00000000
00000000
00000100
00000000
,
00000010
00000000
00000000
00001000
00000000
00000000
00010000
00000000
01000000
00000000
00000000
10000000
00000000
00000000
00010000
00000000
,
01000000
00000000
00000000
00100000
00000000
00000000
10000000
00000000
01000000
00000000
00000000
00010000
00000000
00000000
00001000
00000000
,
00000010
00000000
00000000
00000100
00000000
00000000
00000010
00000000
00000001
00000000
00000000
00001000
00000000
00000000
00000010
00000000
,
00000010
00000000
00000000
00010000
00000000
00000000
00000010
00000000
00000010
00000000
00000000
00000100
00000000
00000000
00000010
00000000
,
00000010
00000000
00000000
00010000
00000000
00000000
00100000
00000000
00100000
00000000
00000000
01000000
00000000
00000000
00010000
00000000
,
00010000
00000000
00000000
10000000
00000000
00000000
01000000
00000000
00100000
00000000
00000000
00010000
00000000
00000000
00001000
00000000
,
00000100
00000000
00000000
00000010
00000000
00000000
00000001
00000000
00000100
00000000
00000000
00000010
00000000
00000000
00001000
00000000
,
00000001
00000000
00001000
00000000
00000010
00000000
00000000
00000000
00001000
00000000
00000001
00000000
00000010
00000100
00000010
00000100
,
00000000
00000000
00000000
00000000
,
MMMMMMMM
00000010
MMMMMMMM
00100000
,
MMMMMMMM
00000100
MMMMMMMM
01000000
,
MMMMMMMM
00000001
MMMMMMMM
00010000
,
MMMMMMMM
10000000
MMMMMMMM
00001000
,
00000100
00000000
00000100
00000000
00000010
00001000
00000010
00000100
,
00000001
00000000
00000001
00000000
00000010
00001000
00010000
01000000
,
00100000
00001000
00010000
00100000
10000000
00010000
00100000
01000000
,
00100000
00000000
00000000
00001000
00000000
00000000
00000010
00000000
00000000
00001000
00000000
00000000
00100000
00000000
00001000
00000000
,
00020000
00000000
01030000
10010000
,
00100000
10000000
01000000
10000000
00010000
01000000
MMMMMMMM
00010000
,
00000100
00000010
00000001
00000010
00000100
00010000
MMMMMMMM
01000000
,
00100000
10000000
00010000
10000000
01000000
00010000
MMMMMMMM
00000010
,
00000100
00000000
00000000
00000000
00000100
00000000
00000000
00001000
00000001
00000000
00000100
00000000
00000010
00000000
00001000
00000000
,
00000010
00010000
00000100
00010000
00001000
00010000
MMMMMMMM
10000000
,
00010000
01000000
00100000
01000000
00001000
00010000
MMMMMMMM
00001000
,
00000001
00000010
00000100
00000010
00000001
00000100
MMMMMMMM
00010000
,
00001000
00000000
00000000
00100000
00000000
00000000
01000000
00000000
10000000
00000000
00000000
00000000
10010000
00000000
00000000
00000000
,
00100000
00000000
00000000
01000000
00000000
00000000
00100000
00000000
00000000
00010000
00000000
00000000
10000000
00000000
00010000
00000000
,
00100000
00000000
00000000
01000000
00000000
00000000
00100000
00000000
00000000
00000010
00000000
00000000
00000100
00000000
00000010
00000000
,
00000010
00000000
00000000
00000100
00000000
00000000
00000010
00000000
00000000
00001000
00000000
00000000
00000001
00000000
00001000
00000000
,
00000010
00000000
00000000
00000100
00000000
00000000
00000010
00000000
00000000
00100000
00000000
00000000
01000000
00000000
00100000
00000000
,
10010000
00000000
00000000
00000000
;

//---------------dance-single - AlstroemeriaS----------------
#NOTES:
     dance-single:
     AlstroemeriaS:
     Edit:
     16:
     0.789,0.727,0.599,0.188,0.899,553.000,70.000,22.000,0.000,0.000,0.000,0.789,0.727,0.599,0.188,0.899,553.000,70.000,22.000,0.000,0.000,0.000:
0000
0000
0000
0000
,
0000
0000
0000
0000
,
0000
0000
0000
0000
,
0000
0000
0000
0000
,
0000
0000
0000
0000
,
1000
0000
0010
0000
1000
0000
0001
0000
0010
0000
0100
0001
0000
0101
0000
1100
,
0000
0000
0001
0000
0010
0000
0100
0000
1000
0000
0010
0001
0000
1100
0000
0011
,
0000
1000
0010
0001
1000
0100
0010
0001
,
1000
0001
0000
1000
0001
0000
1000
0001
0000
1000
0001
0000
0100
0000
0010
0000
,
0001
1000
0000
0010
0100
0000
1000
0010
0000
0001
0100
0000
0001
0000
0100
0000
,
0000
0000
0011
0000
0000
1010
0000
0000
0101
0000
0000
0110
0000
0000
1001
0000
,
0010
0001
0000
0100
0010
0000
0100
0001
0000
1000
0100
0000
0001
0000
0100
0000
,
0000
0000
1100
0000
0000
0101
0000
0000
0011
0000
0000
0110
0000
0000
1100
0000
,
0010
0001
0000
0100
0010
0000
0001
1000
0000
0010
0100
0000
0010
0000
0001
0000
,
1000
0000
0100
0001
0000
0101
0000
0000
1100
0000
0000
0101
0000
0000
0010
0001
,
0100
0010
0000
1000
0010
0000
0001
0100
0000
0010
1000
0100
1000
0000
0010
0100
,
0010
0000
0000
0000
1000
0000
0000
0000
0100
0000
0001
0000
1000
0001
0010
0100
,
1000
0001
0000
0010
1000
0000
0100
0010
0000
0100
0010
0000
0001
0000
0010
0000
,
0100
0000
1000
0010
0000
0100
0001
0000
0010
0100
0000
0001
1000
0000
0010
0000
,
0100
0001
0000
1000
0100
0000
0010
0001
0000
0100
0010
0000
0001
0000
0010
0100
,
1000
0000
0010
0000
0001
0000
0010
0000
0001
0000
0100
0010
1000
0001
0010
0100
,
1000
0000
0000
0000
0001
0000
0010
0000
0100
0000
1000
0000
0010
0000
0100
0001
,
0000
0000
0000
0000
1010
0000
0000
0000
0011
0000
0000
0000
0001
1000
0000
0220
,
0000
0000
0000
0330
0010
0001
1000
0001
,
0200
0000
0000
1000
0000
0000
0310
0001
0010
0000
1000
0000
0010
0001
0100
0010
,
1000
0000
0000
1000
0010
0000
0100
0000
0001
0000
1000
0000
0010
0000
0001
0100
,
0000
0000
0000
0000
1100
0000
0000
0000
0101
0000
0000
0000
1000
0010
0000
0202
,
0000
0000
0000
0000
0000
0000
0303
0000
0001
0010
0001
0100
0010
1000
0100
0010
,
0001
0000
0000
1001
0000
0000
0100
0020
0200
0000
0000
0000
0330
0000
0000
0000
,
0101
0000
0000
1010
0000
0000
0001
1000
0100
0000
0000
0000
0100
0010
0000
2002
,
0000
0000
3003
1001
,
0001
0010
0000
0100
1000
0000
0010
0100
0000
1000
0100
0000
0001
0000
0010
0000
,
1000
0001
0000
0100
1000
0000
0010
0100
0000
0010
0100
0000
0001
0000
0100
0000
,
0001
0010
0000
1000
0010
0000
0100
1000
0000
0100
0010
0000
1000
0000
0001
0000
,
1100
0000
0000
0110
0000
0000
0011
0000
0000
0000
0001
0000
0001
0010
0100
1000
,
0001
0010
0000
1000
0010
0000
0001
1000
0000
0100
0010
0000
0001
0000
0100
0010
,
1000
0100
0000
0010
0001
0000
0100
0010
0000
0001
1000
0000
0100
0000
0010
1000
,
0100
0010
0000
0100
0010
0000
0001
0010
0000
1000
0100
0000
0001
0000
1000
0000
,
0100
0001
0100
0010
1000
0100
0010
0002
2000
0000
0000
0000
3003
0000
0000
0000
,
0101
0000
0000
1010
0000
0000
0011
0000
1001
0000
0000
0110
0000
0000
1100
0000
,
0101
0000
0000
0011
0000
0000
0110
0000
0011
0000
0000
1100
0000
0000
0110
0000
,
0101
0000
0000
1010
0000
0000
1001
0000
0011
0000
0000
1001
0000
0000
1100
0000
,
0110
0000
0000
1100
0000
0000
0101
0000
1001
0000
0000
0011
0000
0000
1010
0000
,
0001
0010
0000
1000
0010
0000
0100
0000
0010
1000
0000
0001
0100
0000
0010
0000
,
1000
0100
0000
0010
0001
0000
0100
0000
0010
1000
0000
0001
0010
0000
0100
0000
,
0001
0010
0000
0100
1000
0000
0001
0000
1000
0010
0000
0100
1000
0000
0001
0000
,
1000
0100
0000
0010
0100
0000
0001
0000
0010
1000
0000
0100
0010
0000
0100
0000
,
1001
0000
0000
1010
0000
0000
0101
0000
0010
0000
0001
0000
1000
0100
0010
0001
,
0000
0000
0000
0110
,
0001
0010
0000
0010
0100
0000
0100
1000
0000
1000
0001
0000
0001
0000
0100
0000
,
0100
0010
0000
0010
0001
0000
0001
1000
0000
1000
0100
0000
0100
0000
0010
0000
,
0010
1000
0000
1000
0100
0000
0100
0010
0000
0010
0001
0000
0001
0000
1000
0000
,
1100
0000
0000
1010
0000
0000
2002
0000
0000
0000
3003
0000
0001
0000
0100
0000
,
1000
0010
0000
0010
1000
0000
1000
0001
0000
0001
0100
0000
0100
0000
0010
0000
,
0010
0001
0000
0001
1000
0000
1000
0100
0000
0100
0010
0000
0010
0000
0001
0000
,
0001
1000
0000
1000
0010
0000
0010
0001
0000
0001
0100
0000
0100
0000
0010
0000
,
0010
1000
0000
0010
0100
0000
0001
0100
0000
0001
0010
0000
0100
0000
1000
0000
,
0001
0010
0001
0000
0010
0100
0010
0000
0100
1000
0100
0000
1000
0001
1000
0000
,
0010
0001
0000
0100
0010
0000
1000
0100
0000
0010
0001
0000
0010
0000
0100
0000
,
0001
0010
0000
0100
1000
0000
0010
0100
0000
0001
1000
0000
0010
0000
0100
0000
,
0010
0001
0000
0100
0010
0000
1000
0100
0000
0010
0001
0000
0010
0000
1000
0000
,
0011
0000
0000
0101
0000
0000
2002
0000
0000
0000
3003
0000
0100
0010
0100
0010
,
0001
1000
0000
0100
0010
0000
1000
0100
0000
0010
0001
0000
1000
0000
0001
0000
,
0100
0010
0000
0001
1000
0000
0100
0001
0000
0100
0010
0000
0001
0000
0100
0000
,
1000
0100
0000
0100
0010
0000
1000
0010
0000
0100
0001
0000
1000
0000
0010
0000
,
0101
0000
0000
0110
0000
0000
1010
0000
2002
0000
0000
0000
3003
0000
0000
0000
,
0002
0000
0000
0010
0000
0000
0100
0000
0000
1000
0000
0000
0013
0000
0100
0000
,
0020
0000
0000
0100
0000
0000
0001
0000
0000
1000
0000
0000
0031
0000
1000
0000
,
0200
0000
0000
0001
0000
0000
1000
0000
0000
0010
0000
0000
1300
0000
0001
0000
,
1000
0100
1000
0100
0010
0001
0010
0001
1000
0010
0100
0001
1000
0100
0010
0001
,
2002
0000
0000
3003
;

//---------------dance-double - AlstroemeriaD----------------
#NOTES:
     dance-double:
     AlstroemeriaD:
     Edit:
     17:
     0.798,0.787,0.762,0.205,0.847,540.000,89.000,24.000,0.000,0.000,0.000,0.798,0.787,0.762,0.205,0.847,540.000,89.000,24.000,0.000,0.000,0.000: // measure 0
00000000
00000000
00000000
00000000
,  // measure 1
00000000
00000000
00000000
00000000
,  // measure 2
00000000
00000000
00000000
00000000
,  // measure 3
00000000
00000000
00000000
00000000
,  // measure 4
00000000
00000000
00000000
00000000
,  // measure 5
00000001
00000000
00000010
00000000
00001000
00000000
00000001
00001000
00000100
00000000
00000010
00000000
00000000
00000101
00000000
00001100
,  // measure 6
00000000
00000000
00010000
00000000
10000000
00000000
00100000
00010000
01000000
00000000
00010000
00000000
00000000
10100000
00000000
00110000
,  // measure 7
00000000
00000000
00001000
00000000
00000010
00000000
00000100
00001000
00000001
00000000
00000010
00000000
00000100
00000000
00001000
00000000
,  // measure 8
00010000
00100000
00000000
10000000
01000000
00000000
00010000
00100000
00000000
00010000
01000000
00000000
00100000
00000000
10000000
00000000
,  // measure 9
01010000
00000000
00000000
00110000
00000000
00000000
10010000
00000000
00000000
00000000
00001000
00000000
00000100
00000000
00001000
00000000
,  // measure 10
00000000
00000000
00001001
00000000
00000000
00001010
00000000
00000000
00010010
00000000
00000000
00011000
00000000
00000000
10010000
00000000
,  // measure 11
10100000
00000000
00000000
00110000
00000000
00000000
01100000
00000000
00000000
00000000
00010000
00000000
10000000
00000000
00010000
00000000
,  // measure 12
00000000
00000000
00001100
00000000
00000000
00100100
00000000
00000000
00011000
00000000
00000000
00001010
00000000
00000000
00000011
00000000
,  // measure 13
00000101
00000000
00000000
00000110
00000000
00000000
00010100
00000000
00000000
00000000
00001000
00000000
00100000
00000000
00010000
00000000
,  // measure 14
10000000
00000000
00010000
00100000
00000000
10100000
00000000
00000000
01100000
00000000
00000000
01010000
00000000
00000000
00100000
00001000
,  // measure 15
00000100
00000000
00000000
00011000
00000000
00000000
00010100
00000000
00000110
00000000
00000001
00001000
00000100
00000000
00000010
00000001
,  // measure 16
00000100
00000000
00001000
00000000
00011000
00000000
00000000
00000000
00101000
00000000
00001000
00000000
00010000
00001000
00100000
00010000
,  // measure 17
00200000
00000000
00000000
10000000
00000000
00000000
00310000
00000000
00000000
00000000
00100000
00000000
00010000
00000000
00000100
00001000
,  // measure 18
00100000
00000000
00010000
00001000
00000000
00000100
00001000
00000000
00000100
00010000
00000000
00000010
00001000
00000000
00000100
00000000
,  // measure 19
00000002
00000000
00000000
00001000
00000000
00000000
00000103
00000000
00000000
00000000
00001000
00000000
00010000
00000000
00100000
01000000
,  // measure 20
00010000
00000000
10000000
00000000
01000000
00000000
00100000
00000000
00010000
00000000
00001000
00100000
00010000
00100000
00001000
00100000
,  // measure 21
00010000
00000000
00000000
00000000
00000010
00000000
00001000
00000000
00010000
00000000
00001000
00000000
00000010
00000000
00000100
00000001
,  // measure 22
00000000
00000000
00000000
00000000
00110000
00000000
00000000
00000000
11000000
00000000
00000000
00000000
00100000
00010000
00000000
02020000
,  // measure 23
00000000
00000000
00000000
03030000
00100000
00010000
10000000
00010000
,  // measure 24
00100000
00000000
00000000
00011000
00000000
00000000
00001000
00000100
00000001
00000000
00000100
00000000
00001000
00000010
00000100
00000001
,  // measure 25
00000010
00000000
00000000
00000000
00000100
00000000
00010000
00000000
00100000
00000000
00010000
00000000
00000100
00000000
00001000
00010000
,  // measure 26
00000000
00000000
00000000
00000000
01100000
00000000
00000000
00000000
10010000
00000000
00000000
00000000
00010000
00100000
00000000
20200000
,  // measure 27
00000000
00000000
00000000
00000000
00000000
00000000
30300000
00000000
00001000
00000100
00000010
00000001
00000100
00000010
00001000
00000001
,  // measure 28
00000010
00000000
00000000
00001100
00000000
00000000
00001000
00200000
00020000
00000000
00000000
00000000
00330000
00000000
00000000
00000000
,  // measure 29
11000000
00000000
00000000
00110000
00000000
00000000
01000000
10000000
00010000
00000000
00000000
00000000
00001000
00100000
00000000
00022000
,  // measure 30
00000000
00000000
00033000
00001001
,  // measure 31
00000001
00000100
00000000
00001000
00000100
00000000
00000001
00000010
00000000
00001000
00000010
00000000
00000100
00000000
00001000
00000000
,  // measure 32
00010000
01000000
00000000
00100000
01000000
00000000
10000000
00100000
00000000
01000000
00100000
00000000
00010000
00000000
00100000
00000000
,  // measure 33
00001000
00000010
00000000
00000100
00000001
00000000
00000010
00000100
00000000
00001000
00000001
00000000
00000100
00000000
00001000
00000000
,  // measure 34
00101000
00000000
00000000
01010000
00000000
00000000
20200000
00000000
00000000
00000000
30300000
00000000
00010000
00100000
01000000
00100000
,  // measure 35
00001000
00000100
00000000
00000001
00000100
00000000
00000010
00001000
00000000
00000010
00000001
00000000
00000100
00000000
00000010
00001000
,  // measure 36
00010000
00100000
00000000
01000000
00100000
00000000
00010000
10000000
00000000
01000000
00100000
00000000
00010000
00000000
00100000
00010000
,  // measure 37
00000100
00001000
00000000
00000100
00000001
00000000
00000010
00000100
00000000
00001000
00000100
00000000
00000001
00000000
00001000
00000000
,  // measure 38
00100000
00010000
10000000
01000000
00100000
01000000
00100000
00020000
20000000
00000000
00000000
00000000
30030000
00000000
00000000
00000000
,  // measure 39
00011000
00000000
00000000
00001001
00000000
00000000
00001100
00000000
00000011
00000000
00000000
00000101
00000000
00000000
00001010
00000000
,  // measure 40
00010010
00000000
00000000
00011000
00000000
00000000
01100000
00000000
10010000
00000000
00000000
10100000
00000000
00000000
00110000
00000000
,  // measure 41
00101000
00000000
00000000
00001100
00000000
00000000
00010100
00000000
00011000
00000000
00000000
00001010
00000000
00000000
00000011
00000000
,  // measure 42
00001001
00000000
00000000
00001010
00000000
00000000
00000011
00000000
00001100
00000000
00000000
00100100
00000000
00000000
00110000
00000000
,  // measure 43
10000000
00010000
00000000
00100000
01000000
00000000
00010000
00000000
00001000
00000100
00000000
00000010
00000001
00000000
00001000
00000000
,  // measure 44
00010000
00100000
00000000
01000000
10000000
00000000
00010000
00000000
00001000
00000100
00000000
00000001
00000010
00000000
00001000
00000000
,  // measure 45
00010000
00100000
00000000
01000000
10000000
00000000
00100000
00000000
00001000
00000010
00000000
00000100
00000001
00000000
00000010
00000000
,  // measure 46
00010000
00100000
00000000
10000000
01000000
00000000
00100000
00000000
00001000
00000010
00000000
00000001
00000100
00000000
00001000
00000000
,  // measure 47
10010000
00000000
00000000
10100000
00000000
00000000
01010000
00000000
00100000
00000000
01000000
00000000
00001000
00000100
00020000
00002000
,  // measure 48
00000000
00000000
00033000
00000011
,  // measure 49
00000001
00000010
00000000
00000010
00000100
00000000
00000100
00001000
00000000
00001000
00000001
00000000
00000001
00000000
00001000
00000000
,  // measure 50
00001000
00100000
00000000
00100000
10000000
00000000
10000000
01000000
00000000
01000000
00010000
00000000
00010000
00000000
00100000
00000000
,  // measure 51
00100000
00001000
00000000
00001000
00000100
00000000
00000100
00000001
00000000
00000001
00000010
00000000
00000010
00000000
00001000
00000000
,  // measure 52
00201000
00000000
00000000
00001000
00000000
00000000
00002000
00000000
00000000
00000000
00303000
00000000
00010000
00000000
01000000
00000000
,  // measure 53
01000000
00100000
00000000
00100000
00010000
00000000
00010000
00100000
00000000
00100000
10000000
00000000
10000000
00000000
00010000
00000000
,  // measure 54
00010000
00001000
00000000
00001000
00000100
00000000
00000100
00000001
00000000
00000001
00000010
00000000
00000010
00000000
00001000
00000000
,  // measure 55
00001000
00100000
00000000
00100000
10000000
00000000
10000000
01000000
00000000
01000000
00010000
00000000
00010000
00000000
00001000
00000000
,  // measure 56
00001010
00000000
00000000
00001100
00000000
00000000
00001001
00000000
00000000
00000110
00000000
00000000
00000001
00000000
00000100
00000000
,  // measure 57
00001000
00100000
00010000
00000000
00010000
01000000
00100000
00000000
00100000
10000000
01000000
00000000
01000000
00010000
10000000
00000000
,  // measure 58
00100000
00010000
00000000
00100000
01000000
00000000
10000000
01000000
00000000
00010000
00100000
00000000
10000000
00000000
00010000
00000000
,  // measure 59
00001000
00000100
00000000
00000010
00001000
00000000
00000001
00000010
00000000
00000100
00001000
00000000
00000001
00000000
00001000
00000000
,  // measure 60
00010000
00100000
00000000
10000000
01000000
00000000
00100000
10000000
00000000
00010000
01000000
00000000
00010000
00000000
00100000
00000000
,  // measure 61
00021000
00000000
00000000
00001000
00000000
00000000
00002000
00000000
00000000
00000000
00033000
00000000
00000100
00010000
00000100
00010000
,  // measure 62
00001000
00000100
00000000
00000001
00000010
00000000
00001000
00000100
00000000
00001000
00000010
00000000
00000101
00000000
00001100
00000000
,  // measure 63
00010000
00100000
00000000
10000000
01000000
00000000
10000000
01000000
00000000
00100000
00010000
00000000
01100000
00000000
00101000
00000000
,  // measure 64
00001000
00000100
00000000
00000010
00001000
00000000
00000001
00000100
00000000
00001000
00000010
00000000
00000101
00000000
00001100
00000000
,  // measure 65
00101000
00000000
00000000
00110000
00000000
00000000
00100000
20000000
00020000
00000000
00000000
00000000
30030000
00000000
00000000
00000000
,  // measure 66
00000010
00001000
00000000
00000001
00000010
00000000
00001000
00000100
00000000
00000010
00001000
00000000
00000001
00000000
00000100
00000000
,  // measure 67
00010000
00100000
00000000
01000000
00010000
00000000
10000000
01000000
00000000
00010000
00100000
00000000
01000000
00000000
00010000
00000000
,  // measure 68
00001000
00000010
00000000
00000001
00000100
00000000
00000010
00001000
00000000
00000001
00000010
00000000
00001000
00000000
00000100
00000000
,  // measure 69
00000001
00000010
00000100
00001000
00000001
00000100
00000010
00001000
00010000
00100000
00010000
01000000
00100000
10000000
01000000
00100000
,  // measure 70
20020000
00000000
00000000
30030000
;
