#TITLE:Afronova (B4 ZA BEAT Mix);
#SUBTITLE:;
#ARTIST:Re-Venge;
#TITLETRANSLIT:;
#SUBTITLETRANSLIT:;
#ARTISTTRANSLIT:;
#GENRE:Techno;
#CREDIT:;
#BANNER:Afronova (B4 ZA BEAT Mix).png;
#BACKGROUND:Afronova (B4 ZA BEAT Mix)-bg.png;
#LYRICSPATH:;
#CDTITLE:./CDTITLES/DDRMAX2 -Dance Dance Revolution 7thMIX-.PNG;
#MUSIC:Afronova (B4 ZA BEAT Mix).mp3;
#OFFSET:-0.051;
#SAMPLESTART:21.620;
#SAMPLELENGTH:15.000;
#SELECTABLE:YES;
#DISPLAYBPM:200.000;
#BPMS:0.000=200.000
;
#STOPS:
;
#BGCHANGES:;
#KEYSOUNDS:;
#ATTACKS:;

//---------------dance-single - ----------------
#NOTES:
     dance-single:
     :
     Beginner:
     2:
     0.254,0.240,0.054,0.000,0.000,159.000,5.000,0.000,0.000,0.000,0.000,0.254,0.240,0.054,0.000,0.000,159.000,5.000,0.000,0.000,0.000,0.000:
0000
0000
0000
0000
,
0000
0000
0000
0000
,
1000
1000
0000
0001
,
0000
1000
0000
0001
,
0000
0010
0000
0001
,
0000
1000
1000
1000
,
0000
0010
0000
0100
,
0000
0010
0000
0100
,
0000
0001
0000
0100
,
0000
0010
0010
0000
,
0010
0000
0100
0000
,
0010
0000
0100
0000
,
1000
0000
1000
0000
,
0010
0000
0010
0000
,
0010
0000
0001
0001
,
0000
0100
0000
0100
,
0100
0000
0001
0001
,
0000
0001
0000
1000
,
0000
0010
0000
1000
,
0000
0010
0010
0010
,
0000
0100
0000
0001
,
0000
1000
1000
1000
,
0000
0010
0000
0100
,
0000
0001
0001
0001
,
0000
1000
0000
0001
,
0001
0001
0001
0001
,
0000
0000
0001
0000
,
0010
0000
1001
0000
,
1000
0000
0001
0000
,
0010
0000
0001
0000
,
1001
0000
0010
0000
,
0001
0000
1001
0000
,
1000
0000
0001
0000
,
1000
0000
0001
0000
,
0010
0010
0000
0001
,
0000
0010
0000
0001
,
0000
0100
0000
0001
,
0000
1000
1000
1000
,
0000
0001
0000
1000
,
0000
0010
0000
1000
,
0000
0100
0100
0100
,
0000
1000
1000
0000
,
0010
0010
0000
1000
,
0000
0100
0000
0010
,
0000
0001
0000
0100
,
0000
0001
0000
1000
,
0000
0010
0000
0001
,
0000
1000
0000
0010
,
0000
0001
0000
0100
,
0000
0010
0010
0000
,
0010
0000
0001
0001
,
0000
0100
0000
0000
,
1000
0000
0001
0001
,
0000
0100
0000
0000
,
1000
0000
0010
0010
,
0000
0001
0000
0000
,
0010
0000
1000
1000
,
0000
0010
0000
0000
,
1001
0000
0000
0001
,
0000
0100
0000
1000
,
0000
0001
0000
1000
,
0000
0100
0000
0000
,
0001
0000
0000
0100
,
0000
0100
0000
0001
,
0000
0001
0000
0010
,
0000
1000
0000
0000
,
0010
0010
0000
0001
,
0000
1000
0000
0001
,
0000
0010
0000
0100
,
0100
0100
0000
1001
,
0000
0010
0010
0010
,
0000
0100
0000
0001
,
0000
1000
1000
1000
,
0000
0100
0100
0100
;

//---------------dance-single - ----------------
#NOTES:
     dance-single:
     :
     Challenge:
     8:
     0.631,0.617,0.369,0.195,0.000,355.000,34.000,18.000,0.000,0.000,0.000,0.631,0.617,0.369,0.195,0.000,355.000,34.000,18.000,0.000,0.000,0.000:
0000
0000
0000
0000
,
0000
0000
0000
0000
,
1000
1000
0001
0001
,
1000
1000
0001
0001
,
0010
1000
0010
0000
0001
0100
0001
0000
,
1000
0001
1000
0001
1000
0001
1000
0000
,
0010
0010
0100
0100
,
0010
0010
0100
0100
,
0001
0010
0001
0000
0100
1000
0100
0000
,
0010
0100
0010
0100
0010
0000
0110
0000
,
0010
1000
0100
1001
,
0010
0001
0100
1001
,
1000
0001
1000
1001
,
0010
0100
0010
0110
,
0010
1000
0001
0101
,
1000
0100
0010
0011
,
0100
1000
0001
0101
,
0010
0001
1001
1100
,
0010
1000
0010
0000
1000
0001
1000
0000
,
0010
1000
0010
1000
0010
1000
0010
0000
,
0100
0010
0100
0000
0001
0100
0001
0000
,
1000
0100
1000
0100
1000
0100
1000
0000
,
0010
0001
0010
0000
0100
1000
0100
0000
,
0001
0100
0001
0100
0001
0100
0001
0000
,
1000
0010
1000
0000
0001
0010
0001
0000
,
0001
1000
0001
1000
0001
1000
0001
0000
,
0220
0330
0001
1000
,
0010
1001
2002
3003
,
2200
3300
0001
0100
,
0010
0101
0202
0303
,
2002
3003
0010
0100
,
0001
1000
2002
3003
,
2200
3300
0001
0100
,
1000
0100
0202
0303
,
0010
0001
0010
0000
0001
0100
0001
0000
,
0010
1000
0010
1000
0001
1000
0001
0000
,
0100
0010
0100
0000
0001
1000
0001
0000
,
1000
0100
1000
0100
1000
0001
1000
0000
,
0001
0100
0001
0000
1000
0100
1000
0000
,
0010
0001
0010
0001
1000
0001
1000
0000
,
0100
1000
0100
0000
0100
0010
0100
0000
,
1000
0001
1000
0001
1000
0000
0101
0000
,
0010
0010
1000
1000
,
0100
0100
0010
0010
,
0001
0001
0100
0100
,
0001
0001
1000
1000
,
0010
1000
0010
0000
0001
0100
0001
0000
,
1000
0100
1000
0000
0010
0001
0010
0000
,
0001
1000
0001
0000
0100
0001
0100
0000
,
0010
1000
0010
1000
0010
0000
1001
0000
,
0010
0100
0000
0000
0001
1000
0001
0000
,
0100
0001
0100
0000
1001
0000
0000
0000
,
1000
0100
0000
0000
0001
1000
0001
0000
,
0100
0010
0100
0000
0101
0000
0000
0000
,
1000
0001
0000
0000
0010
0100
0010
0000
,
0001
0100
0001
0000
1100
0000
0000
0000
,
0010
0100
0000
0000
1000
0100
1000
0000
,
0010
0001
0010
0000
1001
0000
0000
0000
,
1001
0000
0100
0010
0000
0000
0001
1000
,
0000
0010
0100
0000
0001
0000
1000
0000
,
0110
0001
0000
1000
,
0000
1000
0100
0000
0010
0000
0000
0000
,
0101
0000
0010
1000
0000
0000
0100
1000
,
0000
0010
0100
0000
0001
0000
0001
0000
,
1100
0001
0000
0010
,
0000
0100
1000
0000
0001
0000
0000
0000
,
0010
1000
0010
0000
0001
0100
0001
0000
,
1000
0100
1000
0000
0010
0000
0101
0000
,
0010
0100
0010
0000
0100
1000
0100
0000
,
0100
0001
0100
0000
0010
0000
1001
0000
,
0010
1000
0010
0000
0010
0001
0010
0000
,
0100
1000
0100
0000
0001
0000
0101
0000
,
1000
0001
1000
0001
1000
0001
1000
0010
,
0100
0010
0100
0010
0100
0010
0100
0000
,
2002
0000
0000
0000
,
0000
0000
0000
3003
;

//---------------dance-double - ----------------
#NOTES:
     dance-double:
     :
     Challenge:
     8:
     0.614,0.617,0.336,0.109,0.000,355.000,31.000,10.000,0.000,0.000,0.000,0.614,0.617,0.336,0.109,0.000,355.000,31.000,10.000,0.000,0.000,0.000:
00000000
00000000
00000000
00000000
,
00000000
00000000
00000000
00000000
,
00100000
00100000
00010000
00010000
,
00001000
00001000
00000100
00000100
,
00000001
00000010
00000001
00000000
00000100
00001000
00000100
00000000
,
00001000
00010000
00001000
00010000
00001000
00010000
00001000
00000000
,
00100000
00100000
10000000
10000000
,
01000000
01000000
00010000
00010000
,
00001000
00010000
00001000
00000000
00000010
00000100
00000010
00000000
,
00000001
00001000
00000001
00001000
00000001
00000000
00001001
00000000
,
00000100
00001000
00010000
00010100
,
00010000
00100000
01000000
10010000
,
01000000
00100000
00001000
00011000
,
00000100
00000001
00000010
00000110
,
00000001
00000100
00001000
00010100
,
00010000
00001000
00100000
00101000
,
00010000
10000000
00010000
01001000
,
00100000
00010000
00001000
00010100
,
00000010
00000001
00000010
00000000
00000100
00001000
00000100
00000000
,
00100000
00001000
00100000
00001000
00100000
00001000
00100000
00000000
,
00010000
01000000
00010000
00000000
01000000
00100000
01000000
00000000
,
10000000
01000000
10000000
01000000
10000000
01000000
10000000
00000000
,
00100000
00010000
00100000
00000000
00001000
00010000
00001000
00000000
,
00000010
00001000
00000010
00001000
00000010
00001000
00000010
00000000
,
00000001
00000100
00000001
00000000
00000010
00001000
00000010
00000000
,
00001000
01000000
00001000
01000000
00001000
01000000
00001000
00000000
,
01010000
00000000
10000000
01000000
,
00100000
00001000
00022000
00033000
,
00010010
00000000
00000100
00000001
,
00000010
00001000
02002000
03003000
,
10010000
00000000
00100000
01000000
,
00001000
00010000
02020000
03030000
,
00011000
00000000
00000100
00000001
,
00000010
00000100
00020200
00030300
,
00001000
00010000
00001000
00000000
00010000
01000000
00010000
00000000
,
00100000
10000000
00100000
10000000
00010000
10000000
00010000
00000000
,
01000000
00001000
01000000
00000000
00010000
00001000
00010000
00000000
,
00000010
00000100
00000010
00000100
00000001
00000100
00000001
00000000
,
00001000
00000100
00001000
00000000
00010000
00001000
00010000
00000000
,
00100000
00010000
00100000
00010000
10000000
00010000
10000000
00000000
,
01000000
10000000
01000000
00000000
00100000
00010000
00100000
00000000
,
00001000
00010000
00001000
00010000
00001000
00000000
00010010
00000000
,
00001000
00001000
00000010
00000010
,
00000001
00000001
00000100
00000100
,
00010000
00010000
00100000
00100000
,
10000000
10000000
01000000
01000000
,
00100000
10000000
00100000
00000000
00010000
01000000
00010000
00000000
,
00001000
00010000
00001000
00000000
00001000
00000100
00001000
00000000
,
00000010
00000001
00000010
00000000
00000001
00000100
00000001
00000000
,
00000010
00010000
00000010
00010000
00000010
00000000
00011000
00000000
,
00100000
01000000
00000000
00000000
00010000
00100000
00010000
00000000
,
00001000
00010000
00001000
00000000
00000110
00000000
00000000
00000000
,
00000001
00000100
00000000
00000000
00000010
00001000
00000010
00000000
,
00010000
00001000
00010000
00000000
01010000
00000000
00000000
00000000
,
10000000
00010000
00000000
00000000
00100000
01000000
00100000
00000000
,
00010000
01000000
00010000
00000000
00011000
00000000
00000000
00000000
,
00001000
00000010
00000000
00000000
00000001
00000100
00000001
00000000
,
00001000
00010000
00001000
00000000
00101000
00000000
00000000
00000000
,
01100000
00000000
00010000
00001000
00000000
00000000
00000010
00000100
,
00000000
00000001
00001000
00000000
00000100
00000000
00010000
00000000
,
00101000
00010000
00000000
10000000
,
00000000
01000000
00010000
00000000
00001000
00000000
00000000
00000000
,
00010010
00000000
00001000
00010000
00000000
00000100
00000010
00000000
,
00000000
00000001
00000100
00000000
00001000
00000000
00010000
00000000
,
01010000
00010000
00000000
00100000
,
00000000
00001000
00010000
00000000
00000100
00000000
00000000
00000000
,
00000010
00000001
00000010
00000000
00000100
00001000
00000100
00000000
,
00010000
00001000
00010000
00000000
01000000
00000000
11000000
00000000
,
00100000
01000000
00100000
00000000
00001000
00010000
00001000
00000000
,
00000010
00000100
00000010
00000000
00000001
00000000
00000101
00000000
,
00000010
00000100
00000010
00000000
00010000
00001000
00010000
00000000
,
00100000
01000000
00100000
00000000
00010000
00000000
01001000
00000000
,
00010000
00001000
00010000
00001000
00010000
00001000
00010000
00000100
,
00000010
00000100
00000010
00000100
00000010
00000100
00000010
00000000
,
00002002
00000000
00000000
00000000
,
00000000
00000000
00000000
00003003
;

//---------------dance-single - ----------------
#NOTES:
     dance-single:
     :
     Hard:
     9:
     0.843,0.699,0.336,0.195,0.000,495.000,31.000,18.000,0.000,0.000,0.000,0.843,0.699,0.336,0.195,0.000,495.000,31.000,18.000,0.000,0.000,0.000: // measure 0
0000
0000
0000
0000
,  // measure 1
0000
0000
0000
0000
,  // measure 2
0001
0010
1000
0100
0010
1000
0001
0100
,  // measure 3
0001
0100
1000
0100
0010
1000
0001
0000
,  // measure 4
1000
0100
0001
0100
1000
0010
1000
0010
,  // measure 5
0100
0010
0001
1000
0100
0001
0100
0000
,  // measure 6
0010
0001
0010
1000
0100
0010
0100
0001
,  // measure 7
0010
1000
0010
1000
0100
0010
0100
0000
,  // measure 8
1100
0110
0011
1001
,  // measure 9
0000
1001
0000
0110
0000
1001
0000
0010
,  // measure 10
1000
0000
1000
0001
0100
0010
1000
0000
,  // measure 11
0010
0100
1000
0010
0100
1000
0100
0010
,  // measure 12
0001
1000
0001
0010
1000
0010
1000
0100
,  // measure 13
0010
0001
1000
0110
0000
0011
0000
0000
,  // measure 14
1000
0001
1000
0010
0001
1000
0100
0001
,  // measure 15
0100
1000
0100
0010
0100
0001
0100
1000
,  // measure 16
0100
0000
1000
0001
0100
0001
1000
0001
,  // measure 17
0010
0100
0010
0100
0010
0100
0010
0100
,  // measure 18
1000
0001
0100
1000
0010
0100
0010
0000
,  // measure 19
0100
0010
0001
0010
1000
0001
0100
0000
,  // measure 20
0010
0010
0001
0010
1000
0100
0001
0000
,  // measure 21
0100
0001
1000
0100
0001
0000
0110
0000
,  // measure 22
1000
0001
0010
0100
1000
0010
0100
0000
,  // measure 23
0001
0010
0100
1000
0100
0010
0010
0000
,  // measure 24
0001
0010
0100
1000
0100
0001
0100
0000
,  // measure 25
0010
1000
0010
0100
0010
0001
0010
1000
,  // measure 26
0100
0010
0000
0010
1000
0100
0010
0001
,  // measure 27
0100
0010
1001
0000
0220
0000
0330
0000
,  // measure 28
1000
0100
0000
0010
0001
0010
0100
0001
,  // measure 29
1000
0010
0101
0000
0202
0000
0303
0000
,  // measure 30
1000
0010
0000
0001
1000
0010
0100
0010
,  // measure 31
0001
0100
1010
0000
0022
0000
0033
0000
,  // measure 32
0001
1000
0000
0010
0001
0100
1000
0010
,  // measure 33
1000
0001
1100
0000
0202
0000
0303
0000
,  // measure 34
1000
0010
0100
0010
0001
0100
1000
0000
,  // measure 35
0001
0100
0010
1000
0100
0010
0001
0000
,  // measure 36
0010
0100
0001
1000
0010
0100
0010
0000
,  // measure 37
1000
0010
0001
0100
0010
1000
0001
1000
,  // measure 38
0001
0100
1000
0010
1000
0100
0001
1000
,  // measure 39
0010
0100
0010
1000
0010
0001
0010
0000
,  // measure 40
0100
0001
0100
0010
0001
0010
1000
0000
,  // measure 41
0010
0001
1000
0001
0010
0100
1000
0100
,  // measure 42
0001
0010
1000
0000
0010
0100
1000
0000
,  // measure 43
0001
0100
0010
0000
1000
0010
0100
0000
,  // measure 44
0001
1000
0010
0000
0100
0010
0001
0000
,  // measure 45
1000
0100
0010
0000
0001
0010
0001
0001
,  // measure 46
0001
0100
0010
1000
0100
0100
0010
0001
,  // measure 47
1000
0100
0010
0010
1000
0100
0010
0001
,  // measure 48
1000
0001
0010
1000
0100
0001
0010
1000
,  // measure 49
0100
0110
0110
0110
,  // measure 50
0010
1000
0000
0001
0100
0001
0010
0001
,  // measure 51
1000
0001
1001
0000
0220
0000
0330
0000
,  // measure 52
0001
1000
0000
0010
0001
1000
0001
0010
,  // measure 53
0100
0010
0011
0000
0220
0000
0330
0000
,  // measure 54
1000
0001
0000
1000
0010
0100
0010
0001
,  // measure 55
1000
0100
0011
0000
2200
0000
3300
0000
,  // measure 56
1000
0100
0000
0001
0010
0100
1000
0100
,  // measure 57
0001
0010
1100
0000
2200
0000
3300
0000
,  // measure 58
0011
0100
1000
0100
0001
0100
0010
0001
,  // measure 59
0010
1000
0010
0100
0001
1000
1000
0001
,  // measure 60
0100
1000
0001
0010
0100
0001
1000
0100
,  // measure 61
0010
0001
0010
0001
0100
1000
0100
0010
,  // measure 62
0001
0100
0010
0100
1000
0001
0010
1000
,  // measure 63
0010
0001
0100
0001
0100
0001
0010
1000
,  // measure 64
0010
0001
1000
0100
0010
0001
0010
1000
,  // measure 65
0001
0100
0001
0010
1000
0100
0010
0001
,  // measure 66
1000
0100
0010
0001
0010
0100
1000
0010
,  // measure 67
0100
0001
1000
0100
0010
0001
0100
0001
,  // measure 68
1000
0100
0010
0010
0001
0010
0010
0100
,  // measure 69
1000
0001
0100
1000
0010
1000
0001
0010
,  // measure 70
0100
0001
1000
0010
0100
0001
0010
1000
,  // measure 71
0100
0010
0100
0010
1000
0100
0010
1000
,  // measure 72
0010
0001
0010
0100
0010
0001
0010
0001
,  // measure 73
1000
0100
0010
0001
0010
0100
1000
0000
,  // measure 74
2002
0000
0000
0000
,  // measure 75
0000
0000
0000
3003
;

//---------------dance-single - ----------------
#NOTES:
     dance-single:
     :
     Medium:
     7:
     0.633,0.660,0.879,0.380,0.000,292.000,81.000,35.000,0.000,0.000,0.000,0.633,0.660,0.879,0.380,0.000,292.000,81.000,35.000,0.000,0.000,0.000:
0000
0000
0000
0000
,
0000
0000
0000
0000
,
0010
0010
0010
0010
,
0100
0100
0100
0100
,
1000
1000
1000
1000
,
0001
0001
0001
0001
,
1000
1000
1000
1000
,
0010
0010
0010
0010
,
0220
0000
0000
0330
,
2002
0000
0000
3003
,
0100
0010
0001
1000
,
0001
0100
0020
0000
,
1030
0010
0001
0010
,
1000
0100
0010
0002
0000
0000
0000
0000
,
1003
1000
0010
0100
,
0001
0010
0001
0010
,
1000
0100
0020
0000
,
2030
0000
0000
3000
,
0001
1000
1000
0001
,
0001
0100
0010
0000
0010
1000
0100
0000
,
0100
0010
0010
1000
,
1000
0100
0010
0000
0010
0100
1000
0000
,
0001
0001
0010
0010
,
1000
0100
1000
0000
0010
0001
0100
0000
,
1000
0001
1000
0001
,
0010
0010
0010
1000
,
1001
0110
1100
0101
,
0110
0011
2020
3030
,
0110
1100
0101
0011
,
1010
1001
2002
3003
,
1010
0101
1010
0110
,
1100
0011
2002
3003
,
0011
1001
1001
1100
,
0110
0101
2020
3030
,
0010
0101
0020
0100
,
0100
1030
0001
1000
,
0100
0110
0011
1010
,
1000
0001
1000
0002
0000
0000
0000
0000
,
1003
1000
1000
1000
,
0001
0001
0001
0001
,
0010
0100
0010
0100
0010
0000
1001
0000
,
0010
2000
0001
0000
3010
0002
1000
0000
,
0013
0010
1000
1000
,
0001
0010
0100
0000
0001
0010
1000
0000
,
0001
0010
0010
0001
,
0001
0010
0100
0000
0001
0100
1000
0000
,
0001
1000
0001
0100
,
0001
0010
0100
0000
0010
0100
0001
0000
,
1000
0001
0001
1000
,
1000
1000
1000
1000
,
1100
1100
0110
0110
,
0011
0011
2002
3003
,
1010
1010
0110
0110
,
0101
0101
2002
3003
,
0011
0011
0110
0110
,
1100
1100
2002
3003
,
0101
0101
0110
0110
,
1010
1010
2002
3003
,
0010
0010
1000
1000
,
0001
0020
0100
0130
,
1000
0001
0010
0001
,
1000
0100
0010
0002
0000
0000
0000
0000
,
1003
0010
0001
0001
,
0001
1000
1000
0010
,
1000
0001
1000
0000
1000
0001
1000
0000
,
0100
0010
0100
0000
0100
0010
0100
0000
,
1000
0110
0101
0110
,
1000
0110
1001
0012
,
1003
1100
0110
0101
,
1000
0101
0001
1010
,
0110
0001
0120
0100
,
1030
0000
0001
0000
0010
1000
0010
0000
,
0010
0001
0020
0000
0100
0000
0130
0000
,
1100
1010
0101
0011
,
2002
0000
0000
0000
,
0000
0000
0000
0000
,
3003
0000
0000
0000
;

//---------------dance-single - ----------------
#NOTES:
     dance-single:
     :
     Easy:
     4:
     0.372,0.326,0.391,0.130,0.000,192.000,36.000,12.000,0.000,0.000,0.000,0.372,0.326,0.391,0.130,0.000,192.000,36.000,12.000,0.000,0.000,0.000:
0000
0000
0000
0000
,
0000
0000
0000
0000
,
0010
0010
0010
0000
,
1000
1000
1000
0000
,
0001
0001
0001
0000
,
1000
1000
1000
0000
,
0001
0001
0001
0000
,
0010
0010
0010
0000
,
2000
0000
0000
3000
,
0002
0000
0000
0003
,
0110
0000
1000
0000
,
0001
0000
1000
0000
,
0010
0000
0010
0000
,
1000
0010
0010
0010
,
0001
0001
0001
0000
,
1000
1000
1000
0010
,
0001
0000
1001
0000
,
0010
0010
0010
0010
,
1000
0000
1000
0100
,
0001
0000
0001
0100
,
1000
0000
0001
0010
,
1000
0000
0020
0000
,
1030
0000
1000
0000
,
0010
0010
0010
0000
,
0001
0100
1000
0100
,
0020
0000
0000
0030
,
0011
0000
0110
0000
,
1100
0000
1001
0000
,
0101
0000
0110
0000
,
1010
0000
1001
0000
,
1010
0000
0110
0000
,
0101
0000
1001
0000
,
1100
0000
0110
0000
,
0011
0000
1001
0000
,
1000
1000
1000
0000
,
0010
0010
0010
0000
,
0100
0100
0100
0000
,
0001
0010
0100
0100
,
1000
0100
0001
0000
,
1000
0001
0010
0000
,
0020
0030
2000
3000
,
0001
0001
0001
0001
,
1000
1000
0001
0001
,
1000
1000
0001
0001
,
1000
1000
0001
0001
,
1000
1000
0002
0003
,
1000
0100
0010
0000
,
0001
0010
1000
0000
,
1000
0001
1000
0000
,
0020
0000
0000
0030
,
1100
0000
0110
0000
,
0011
0000
1001
0000
,
0101
0000
0110
0000
,
1010
0000
1001
0000
,
1001
0000
1010
0000
,
0110
0000
0101
0000
,
1001
0000
1100
0000
,
0110
0000
0011
0000
,
1000
2000
0000
0010
,
0010
3010
0001
0000
,
1000
1000
0000
0001
,
1000
0010
0120
0000
,
1030
1000
1000
0000
,
0100
0100
0100
0000
,
0010
0010
0010
0000
,
0001
0001
0001
0000
,
1000
0000
1000
1000
,
1000
0000
0001
0001
,
0001
0000
0010
0010
,
0010
1000
0010
1000
,
0001
0000
0001
0000
,
1000
0000
0100
0000
,
0100
0000
0010
0000
,
1000
0000
0010
0000
,
2002
0000
0000
0000
,
3003
0000
0000
0000
;
