#TITLE:A Geisha's Dream (Ruffage Remix);
#SUBTITLE:;
#ARTIST:NAOKI feat. SMiLE.dk;
#TITLETRANSLIT:;
#SUBTITLETRANSLIT:;
#ARTISTTRANSLIT:;
#GENRE:;
#CREDIT:;
#MENUCOLOR:white;
#METERTYPE:DDR X;
#BANNER:A Geisha's Dream (Ruffage Remix).png;
#BACKGROUND:A Geisha's Dream (Ruffage Remix)-bg.png;
#LYRICSPATH:;
#CDTITLE:./CDTITLES/DanceDanceRevolution 2010.png;
#MUSIC:A Geisha's Dream (Ruffage Remix).mp3;
#OFFSET:1.659;
#SAMPLESTART:15.460;
#SAMPLELENGTH:15.000;
#SELECTABLE:YES;
#LISTSORT:;
#BPMS:0.000=140.000;
#STOPS:;
#BGCHANGES:;
#ATTACKS:;

//---------------dance-single - ----------------
#NOTES:
     dance-single:
     :
     Hard:
     13:
     0.631,0.577,0.188,0.469,0.197: // measure 1
0000
0000
0000
0000
,  // measure 2
0000
0000
0000
0000
,  // measure 3
0000
0000
0000
0000
,  // measure 4
0000
0000
0000
0000
,  // measure 5
0000
0000
0000
0000
,  // measure 6
0000
0000
0000
0000
,  // measure 7
1000
0000
0000
0000
0010
0000
0001
0000
1000
0000
0001
0010
0100
0000
0001
0000
,  // measure 8
1000
0000
0000
0000
0010
0000
0100
0000
1000
0000
0001
0010
0100
0000
0001
0000
,  // measure 9
1000
0000
0000
0000
0010
0000
0001
0000
0100
0000
0010
0100
1000
0000
0010
0000
,  // measure 10
0100
0000
0000
0000
0001
0000
0010
0000
0100
0000
1000
0001
0010
0000
0001
0000
,  // measure 11
0200
0000
0000
0000
2300
0000
0000
0000
3001
0000
0010
0000
0100
0000
0010
1000
,  // measure 12
0200
0000
0000
0000
0302
0000
0000
0000
1003
0000
0010
0000
0100
0000
0010
1000
,  // measure 13
0200
0000
0000
0000
0320
0000
0000
0000
0031
0000
0100
0000
1000
0000
0001
0010
,  // measure 14
2000
0000
0000
0000
3200
0000
0000
0000
0301
0000
0010
0000
0100
0000
0001
1000
,  // measure 15
0020
0000
0000
0000
0230
0000
0000
0000
1300
0000
0001
0000
0010
0000
0100
0010
,  // measure 16
2000
0000
0000
0000
3020
0000
0000
0000
0130
0000
1000
0000
0001
0000
0100
0010
,  // measure 17
2000
0000
0000
0000
3200
0000
0000
0000
0301
0000
0010
0000
1000
0000
0001
0010
,  // measure 18
0200
0000
0000
0000
0320
0000
0000
0000
0031
0000
0100
0000
1000
0000
0001
0100
,  // measure 19
0001
0000
0010
0000
0100
0000
1000
0000
0100
0000
0010
0000
1000
0000
0001
0010
,  // measure 20
0100
1000
0001
0100
1000
0010
0100
0001
,  // measure 21
0220
0000
0000
0000
0330
0000
0001
0000
1100
0000
0000
0000
0100
0000
0010
1000
,  // measure 22
0100
0000
0001
0000
0010
0000
0001
0000
1100
0000
0000
0000
0010
0000
0100
1000
,  // measure 23
0010
0000
0001
0000
0100
0000
1000
0000
0010
0000
0100
0000
1000
0000
0001
0010
,  // measure 24
0100
1000
0010
0100
1000
0010
0100
0001
,  // measure 25
2200
0000
0000
0000
3300
0000
0010
0000
0101
0000
0000
0000
1000
0000
0001
0100
,  // measure 26
0010
1000
0100
0010
0202
0000
0303
0000
,  // measure 27
2001
0010
0100
3001
,  // measure 28
0201
1000
0010
0301
,  // measure 29
1002
0100
1000
0013
,  // measure 30
1200
0010
0001
0310
,  // measure 31
1000
0000
0000
0000
0010
0000
0001
0000
0100
0000
0010
0100
1000
0000
0001
0000
,  // measure 32
0100
0000
0000
0000
0010
0000
0001
0000
1000
0000
0001
0010
0100
0000
1000
0000
,  // measure 33
0100
0000
0000
0000
0010
0000
0001
0000
1000
0000
0010
0100
1000
0000
0001
0000
,  // measure 34
0010
0000
0000
0000
0100
0000
0001
0000
1000
0000
0001
0010
1000
0000
0001
0000
,  // measure 35
0100
0000
0000
0000
0010
0000
0001
0000
1000
0000
0001
0010
0100
0000
1000
0000
,  // measure 36
0010
0000
0000
0000
0001
0000
1000
0000
0100
0000
0001
1000
0010
0000
0100
0000
,  // measure 37
0010
0000
0000
0000
1000
0000
0001
0000
0100
0000
0001
0010
1000
0000
0001
0000
,  // measure 38
0100
0000
0000
0000
0010
0000
1000
0000
0100
0000
0001
0010
1000
0000
0100
0000
,  // measure 39
0020
0000
0000
0000
0230
0000
0000
0000
0301
0000
1000
0000
0100
0000
0010
0100
,  // measure 40
2000
0000
0000
0000
3200
0000
0000
0000
0301
0000
0010
0000
1000
0000
0100
0010
,  // measure 41
0002
0000
0000
0000
0023
0000
0000
0000
0030
0000
1000
0000
0100
0000
0001
0010
,  // measure 42
0200
0000
0000
0000
0320
0000
0000
0000
1030
0000
0100
0000
0010
0000
0001
0100
,  // measure 43
2000
0000
0000
0000
3020
0000
0000
0000
0130
0000
1000
0000
0010
0000
0100
0001
,  // measure 44
2000
0000
0000
0000
3020
0000
0000
0000
0130
0000
1000
0000
0100
0000
0010
1000
,  // measure 45
0200
0000
0000
0000
0302
0000
0000
0000
0013
0000
1000
0000
0100
0000
0010
1000
,  // measure 46
0200
0000
0000
0000
0320
0000
0000
0000
0130
0000
0001
0000
1000
0000
0001
0100
,  // measure 47
1000
0000
0010
0000
0100
0000
0010
0000
0001
0000
1000
0000
0010
0000
0100
0010
,  // measure 48
1000
0100
0001
1000
0100
0010
1000
0001
,  // measure 49
0202
0000
0000
0000
0303
0000
1000
0000
0011
0000
0000
0000
0100
0000
0010
1000
,  // measure 50
0100
0000
0001
0000
0010
0000
1000
0000
0001
0000
0000
0000
0100
0000
0001
1000
,  // measure 51
0010
0000
0001
0000
0100
0000
1000
0000
0010
0000
0100
0000
1000
0000
0010
0100
,  // measure 52
1000
0001
0010
0100
1000
0001
0100
0001
,  // measure 53
0220
0000
0000
0000
0330
0000
0001
0000
1010
0000
0000
0000
0100
0000
0010
1000
,  // measure 54
0100
0001
0010
1000
0101
0000
0010
0001
,  // measure 55
0100
0000
0001
0000
0010
0000
1000
0000
0100
0000
0001
0000
0010
0000
0001
1000
,  // measure 56
0100
0001
0010
1000
0100
0010
0100
0010
,  // measure 57
0202
0000
0000
0000
0303
0000
0010
0000
1100
0000
0000
0000
0100
0000
0001
1000
,  // measure 58
0010
0100
0010
1000
0101
0000
0010
0100
,  // measure 59
1000
0000
0001
0000
0100
0000
0010
0000
0100
0000
1000
0000
0100
0000
0001
0010
,  // measure 60
1000
0100
0010
1000
0100
0010
1000
0010
,  // measure 61
2002
0000
0000
0000
3003
0000
0010
0000
0101
0000
0000
0000
0100
0000
0010
0001
,  // measure 62
0100
1000
0100
0010
0001
0000
0000
0000
;

//---------------dance-single - ----------------
#NOTES:
     dance-single:
     :
     Beginner:
     4:
     0.142,0.202,0.028,0.000,0.000: // measure 1
0000
0000
0000
0000
,  // measure 2
0000
0000
0000
0000
,  // measure 3
0000
0000
0000
0000
,  // measure 4
0000
0000
0000
0000
,  // measure 5
0000
0000
0000
0000
,  // measure 6
0000
0000
0000
0000
,  // measure 7
1000
0000
0000
0000
,  // measure 8
0001
0000
0000
0000
,  // measure 9
1000
0000
1000
0000
,  // measure 10
0001
0000
0001
0000
,  // measure 11
0100
0100
0100
0000
,  // measure 12
0010
0010
0010
0000
,  // measure 13
1000
0000
0000
0000
,  // measure 14
0001
0000
0001
0000
,  // measure 15
0001
0000
0000
0000
,  // measure 16
1000
0000
1000
0000
,  // measure 17
1000
0000
0000
0000
,  // measure 18
0100
0100
0100
0000
,  // measure 19
0001
0000
0001
0000
,  // measure 20
1000
0000
1000
0000
,  // measure 21
0001
0000
0001
0000
,  // measure 22
0010
0010
0010
0000
,  // measure 23
1000
0000
0000
0000
,  // measure 24
0001
0000
0000
0000
,  // measure 25
1000
0000
0000
0000
,  // measure 26
1000
0000
0000
0000
,  // measure 27
0001
0000
0000
0000
,  // measure 28
1001
0000
0000
0000
,  // measure 29
1001
0000
0000
0000
,  // measure 30
0001
0000
0001
0000
,  // measure 31
0010
0000
0010
0000
,  // measure 32
0100
0000
0100
0000
,  // measure 33
1000
0000
1000
0000
,  // measure 34
0001
0000
0000
0000
,  // measure 35
1000
0000
0000
0000
,  // measure 36
0010
0000
0000
0000
,  // measure 37
0100
0000
0000
0000
,  // measure 38
1000
0000
1000
0000
,  // measure 39
0100
0100
0100
0000
,  // measure 40
0010
0010
0010
0000
,  // measure 41
0001
0000
0001
0000
,  // measure 42
1000
0000
0000
0000
,  // measure 43
0010
0000
0010
0000
,  // measure 44
0001
0000
0000
0000
,  // measure 45
0100
0000
0100
0000
,  // measure 46
1000
1000
1000
0000
,  // measure 47
0010
0000
0000
0000
,  // measure 48
0100
0000
0000
0000
,  // measure 49
0010
0000
0000
0000
,  // measure 50
0001
0001
0001
0000
,  // measure 51
0010
0000
0010
0000
,  // measure 52
0100
0000
0100
0000
,  // measure 53
0010
0000
0010
0000
,  // measure 54
1000
0000
1000
0000
,  // measure 55
0001
0001
0001
0000
,  // measure 56
1000
1000
1000
0000
,  // measure 57
0010
0000
0010
0000
,  // measure 58
0001
0000
0001
0000
,  // measure 59
1000
1000
1000
0000
,  // measure 60
0001
0001
0001
0000
,  // measure 61
0100
0000
0100
0000
,  // measure 62
0010
0000
1001
0000
;

//---------------dance-single - ----------------
#NOTES:
     dance-single:
     :
     Easy:
     4:
     0.217,0.231,0.028,0.281,0.000: // measure 1
0000
0000
0000
0000
,  // measure 2
0000
0000
0000
0000
,  // measure 3
0000
0000
0000
0000
,  // measure 4
0000
0000
0000
0000
,  // measure 5
0000
0000
0000
0000
,  // measure 6
0000
0000
0000
0000
,  // measure 7
0010
0000
0001
0000
,  // measure 8
1000
1000
0100
0000
,  // measure 9
0010
0000
1000
0000
,  // measure 10
0001
0001
0010
0000
,  // measure 11
2000
0000
3001
0000
,  // measure 12
2000
0000
3100
0000
,  // measure 13
1000
0000
0001
0000
,  // measure 14
1000
0001
1000
0000
,  // measure 15
0002
0000
0103
0000
,  // measure 16
0002
0000
1003
0000
,  // measure 17
0001
0000
1000
0000
,  // measure 18
1001
0000
0000
0000
,  // measure 19
0001
0001
1000
1000
,  // measure 20
0002
0000
0003
0000
,  // measure 21
0020
0030
0020
0030
,  // measure 22
0100
0010
0100
0000
,  // measure 23
0001
0001
1000
1000
,  // measure 24
0002
0000
0003
0000
,  // measure 25
0020
0030
0020
0030
,  // measure 26
0100
0100
0010
0000
,  // measure 27
2000
0000
0000
0000
,  // measure 28
3020
0000
0000
0000
,  // measure 29
0230
0000
0000
0000
,  // measure 30
0020
0000
0330
0000
,  // measure 31
0010
0000
0001
0000
,  // measure 32
1000
1000
0100
0000
,  // measure 33
0010
0000
1000
0000
,  // measure 34
0001
0010
0010
0000
,  // measure 35
0010
0000
1000
0000
,  // measure 36
0001
0001
0100
0000
,  // measure 37
0010
0000
0001
0000
,  // measure 38
1000
0010
0010
0000
,  // measure 39
0002
0000
1003
0000
,  // measure 40
0002
0000
0103
0000
,  // measure 41
0001
0000
1000
0000
,  // measure 42
0001
1000
0001
0000
,  // measure 43
2000
0000
3100
0000
,  // measure 44
2000
0000
3001
0000
,  // measure 45
1000
0000
0001
0000
,  // measure 46
1001
0000
0000
0000
,  // measure 47
0001
1000
0001
1000
,  // measure 48
0002
0000
0013
0000
,  // measure 49
0020
0030
0020
0030
,  // measure 50
0100
1000
0100
0000
,  // measure 51
0001
1000
0001
1000
,  // measure 52
0002
0000
0013
0000
,  // measure 53
0020
0030
0020
0030
,  // measure 54
0100
0100
0100
0000
,  // measure 55
1000
0001
1000
0001
,  // measure 56
2000
0000
3010
0000
,  // measure 57
0020
0030
0020
0030
,  // measure 58
0100
0001
0100
0000
,  // measure 59
1000
0001
1000
0001
,  // measure 60
2000
0000
3010
0000
,  // measure 61
0020
0030
0020
0030
,  // measure 62
0100
0000
1001
0000
;

//---------------dance-single - ----------------
#NOTES:
     dance-single:
     :
     Medium:
     8:
     0.395,0.405,0.375,0.075,0.005: // measure 1
0000
0000
0000
0000
,  // measure 2
0000
0000
0000
0000
,  // measure 3
0000
0000
0000
0000
,  // measure 4
0000
0000
0000
0000
,  // measure 5
0000
0000
0000
0000
,  // measure 6
0000
0000
0000
0000
,  // measure 7
1000
0000
0100
0000
0010
0000
0001
1000
,  // measure 8
0001
0000
0100
0000
0010
0000
1000
0001
,  // measure 9
1000
0000
0100
0000
0010
0000
0001
1000
,  // measure 10
0010
0000
0000
0000
1000
0000
0000
0000
0100
0000
0000
1000
0001
0000
1000
0000
,  // measure 11
0001
0000
0100
0000
1000
0000
0100
1000
,  // measure 12
0001
0000
0100
0000
0010
0000
1000
0001
,  // measure 13
1000
0000
0100
0000
0010
0000
0001
1000
,  // measure 14
0001
0000
0100
0000
1000
0000
0100
0100
,  // measure 15
1000
1010
0001
0101
,  // measure 16
1000
0000
0100
0000
0010
0000
0001
1000
,  // measure 17
0001
0000
1000
0000
0010
0000
0100
0001
,  // measure 18
1000
0000
0100
0000
0010
0000
0001
1000
,  // measure 19
0001
0011
1000
1100
,  // measure 20
0001
0010
0100
1000
,  // measure 21
1001
0100
0110
0010
,  // measure 22
1000
0100
0010
0001
1000
0000
0001
0000
,  // measure 23
1000
1100
0010
0011
,  // measure 24
1000
0100
0010
0001
,  // measure 25
1001
1000
0110
0100
,  // measure 26
1000
0001
0100
0001
1000
0000
0100
0000
,  // measure 27
2000
0000
0002
3000
,  // measure 28
0200
0003
0020
0300
,  // measure 29
2000
0030
0002
3000
,  // measure 30
2000
0003
0200
3300
,  // measure 31
1000
0000
0100
0000
0010
0000
0001
1000
,  // measure 32
0001
0000
0100
0000
0010
0000
1000
0001
,  // measure 33
0100
0000
0001
0000
1000
0000
0100
0010
,  // measure 34
0001
0000
0100
0000
0010
0000
1000
0001
,  // measure 35
1000
0001
0100
0001
,  // measure 36
1000
0100
1000
0001
,  // measure 37
0100
0000
0010
0000
1000
0000
0001
1000
,  // measure 38
0100
0000
0010
0000
0001
0000
1000
0001
,  // measure 39
1000
1001
1000
1100
,  // measure 40
0001
0101
0010
1010
,  // measure 41
0100
0010
0001
1000
,  // measure 42
0001
0000
0100
0000
0010
0000
1000
0001
,  // measure 43
1000
1100
0001
0011
,  // measure 44
1000
1001
0100
0110
,  // measure 45
1000
1010
0001
0101
,  // measure 46
1000
0100
0010
0001
1000
0000
0001
0000
,  // measure 47
1000
1100
0010
0011
,  // measure 48
1000
1001
0100
0110
,  // measure 49
1001
0100
0110
0010
,  // measure 50
1000
0100
0010
0001
1000
0000
0001
0000
,  // measure 51
1000
1100
0001
0011
,  // measure 52
0100
0110
1000
1001
,  // measure 53
1010
1000
1001
0100
,  // measure 54
1100
0001
0011
1000
,  // measure 55
0001
0100
0010
1000
,  // measure 56
0100
0010
0001
1000
,  // measure 57
1001
0100
0110
0010
,  // measure 58
1000
0100
0010
0001
1000
0000
0001
0000
,  // measure 59
0100
0110
1000
1001
,  // measure 60
1000
0100
0010
0001
,  // measure 61
1001
0100
0110
0010
,  // measure 62
1000
0100
0010
0001
1000
0000
0001
0000
;

//---------------dance-single - ----------------
#NOTES:
     dance-single:
     :
     Challenge:
     15:
     0.710,0.821,0.488,0.019,0.314:
0000
0000
0000
0000
,
0000
0000
0000
0000
0000
0000
1000
1000
,
0010
0000
0100
0100
0001
0010
0100
1000
,
0001
0100
0010
1000
0100
0000
0001
1000
,
0001
0000
1000
0001
1000
0000
0001
1000
,
0001
0000
0010
0000
0100
0000
1000
0000
0010
0000
0000
0001
0010
0000
1000
0000
,
0001
0100
1000
0100
0001
0010
0100
0010
,
1000
0001
0100
0010
1000
0100
0001
0100
,
1000
0001
0010
1000
0010
0001
1000
0010
,
0100
0000
0001
0000
1000
0000
0010
0000
0001
0010
0001
0010
0100
1000
0100
1000
,
0001
0010
1000
0100
0001
0010
0001
0010
,
1100
0000
0101
0000
0110
1000
0001
1000
,
0110
0000
0001
0100
1000
0010
0001
0010
,
1000
0000
0100
0000
0010
0000
0100
0000
0001
0000
0000
0010
0100
0000
1000
0000
,
0101
0000
0110
0000
1010
0001
0010
0100
,
1001
0000
0000
0000
0101
0000
0010
0000
1000
0000
0001
1000
0001
0000
0100
0000
,
1100
0000
0110
0000
0011
0000
0000
1000
,
0100
0000
0001
0000
0100
0000
0010
0000
0001
1000
0010
0100
0001
0000
0010
1000
,
0001
0101
0110
1010
,
1001
0000
1000
0100
0011
0000
0110
0000
,
1100
0000
0000
0001
1000
0000
0000
0001
,
0010
0000
1000
0000
0100
0000
0001
0000
1000
0000
0010
0100
0001
0000
1000
0000
,
0010
0110
0101
1001
,
0100
0000
0010
0100
0001
0000
0011
0000
,
1100
0000
0000
0010
0001
0000
0000
0100
,
0010
0000
1000
0000
0100
0000
1000
0001
1000
0000
0100
0000
0010
0001
0010
0000
,
1000
0000
0010
0001
0100
0000
0001
1000
0000
0010
1000
0000
0100
0000
0001
0000
,
1000
0000
0010
0100
0001
0000
0010
0100
0000
1000
0100
0000
0001
0000
0010
0000
,
1000
0000
0001
0010
0100
0000
1000
0001
0000
0100
0001
0000
0010
0000
0100
0000
,
0001
0000
0100
1000
0010
0000
0001
0010
0000
0100
0010
0000
1000
0000
0100
0000
,
0001
0000
1000
0100
0001
0000
1000
0010
,
0001
0000
0100
0000
0010
0000
1000
0000
0001
0000
0100
0010
1000
0000
0001
0000
,
1000
0001
0010
1000
0100
0001
0010
0100
,
0010
0000
0001
0000
1000
0000
0100
0000
0010
0000
0001
0100
1000
0000
0001
0000
,
1000
0001
0010
1000
0001
0100
1000
0001
,
0010
1000
0001
1000
0100
0010
0001
0010
,
1000
0100
0010
0100
1000
0000
1001
0000
,
0100
0000
0001
0000
1000
0000
0001
0000
0100
0010
0001
0010
1000
0100
1000
0000
,
1010
0000
0101
0000
1000
0001
0010
0100
,
1001
0000
1100
0000
0101
0000
1000
0100
,
0101
0000
1010
0000
1000
0001
0010
0100
,
1000
0001
1000
0001
1000
0000
0001
0010
,
1100
0000
0011
0000
1001
0000
0010
0100
,
1001
0000
0110
0101
1010
0000
1001
1010
,
1100
0000
0011
0000
1001
0000
0100
0001
,
1000
0000
0100
0000
0010
0000
0001
0000
1000
0100
1000
0010
0001
0000
1000
0100
,
0001
0010
0100
1000
0010
0100
0001
0010
,
0001
0010
0100
0010
0100
1000
0100
1000
,
1001
0000
0000
0110
0110
0000
0000
0010
,
0001
0000
0010
0000
0001
0000
1000
0000
0001
0000
0010
1000
0100
0000
0001
0000
,
1000
0010
0100
0001
0010
0100
0010
1000
,
0001
0010
1000
0010
0100
0001
0010
1000
,
1100
0000
0000
0110
0011
0000
0000
1001
,
0100
0000
0001
0000
0010
0000
1000
0000
0001
0010
0100
1000
0100
0010
0001
0000
,
1000
0000
0010
0000
0100
0000
0010
0001
0010
0000
0100
1000
0100
0000
0001
0000
,
0010
0001
1000
0010
0100
0000
0001
0010
1000
0000
0010
0000
1000
0000
0001
0000
,
1000
0010
0100
0010
1000
0000
0001
0000
1000
0100
0001
0000
1000
0010
0001
0000
,
0001
0010
0100
1000
0100
0000
0010
0000
0100
1000
0100
0001
0100
0000
1000
0000
,
0100
0010
0001
1000
0100
0000
0010
0001
0100
0000
1000
0000
0100
0001
0100
1000
,
0010
0001
1000
0010
0100
0001
0010
0001
1000
0000
0010
0000
0001
0010
0100
0001
,
1000
0100
0010
0100
0010
0001
1000
0100
1000
0001
0100
0001
0010
0000
0001
0000
,
1000
0100
0010
0001
2002
0000
0000
0000
,
0000
0000
3003
0000
;
