#TITLE:VINES;
#SUBTITLE:;
#ARTIST:XAGILAX vs. Exphilgm;
#TITLETRANSLIT:;
#SUBTITLETRANSLIT:;
#ARTISTTRANSLIT:;
#GENRE:;
#CREDIT:;
#BANNER:bn.png;
#BACKGROUND:bg.png;
#LYRICSPATH:;
#CDTITLE:;
#MUSIC:VINES.ogg;
#OFFSET:0.006;
#SAMPLESTART:23.077;
#SAMPLELENGTH:12.000;
#SELECTABLE:YES;
#BPMS:0.000=260.000,124.000=390.000,128.000=260.000,156.000=390.000,160.000=260.000,188.000=390.000,192.000=260.000,224.000=130.000,240.000=260.000,320.000=390.000,328.000=520.000,336.000=130.000,340.000=260.000,404.000=260.000,408.000=269.001,412.000=277.502,416.000=295.700,420.000=300.000,424.000=309.600,428.000=316.201,432.000=330.002,436.000=345.003,440.000=352.005,444.000=362.000,448.000=370.001,452.000=377.501,456.000=385.002,460.000=395.004,464.000=408.000;
#STOPS:124.000=0.038
,124.500=0.038
,125.000=0.038
,125.500=0.038
,126.000=0.038
,126.500=0.038
,127.000=0.038
,127.500=0.038
,156.000=0.077
,157.000=0.077
,158.000=0.077
,159.000=0.038
,159.500=0.038
,188.000=0.038
,188.500=0.038
,189.000=0.077
,190.000=0.077
,191.000=0.038
,191.500=0.038
,320.000=0.038
,320.500=0.038
,321.000=0.038
,321.500=0.038
,322.000=0.038
,322.500=0.038
,323.000=0.038
,323.500=0.038
,324.000=0.038
,324.500=0.038
,325.000=0.038
,325.500=0.038
,326.000=0.038
,326.500=0.038
,327.000=0.038
,327.500=0.038
,328.000=0.029
,328.250=0.029
,328.500=0.058
,329.000=0.029
,329.250=0.029
,329.500=0.058
,330.000=0.029
,330.250=0.029
,330.500=0.058
,331.000=0.029
,331.250=0.029
,331.500=0.058
,332.000=0.058
,332.500=0.019
,332.667=0.019
,332.833=0.019
,333.000=0.058
,333.500=0.019
,333.667=0.019
,333.833=0.019
,334.000=0.058
,334.500=0.019
,334.667=0.019
,334.833=0.019
,335.000=0.058
,335.500=0.019
,335.667=0.019
,335.833=0.019
;
#BGCHANGES:;
#KEYSOUNDS:;

//---------------dance-single - warpdr!ve----------------
#NOTES:
     dance-single:
     warpdr!ve:
     Challenge:
     14:
     1.000,1.000,0.818,0.234,0.759:
0000
0000
0000
0000
,
0000
0000
0000
0000
,
0000
0000
0000
0000
,
000M
M000
000M
0000
00M0
0000
0M00
0000
,
1000
0000
0100
0000
0001
0000
0100
0000
0010
0000
0100
0000
1000
0000
0010
0100
,
0001
0000
0100
0000
1000
0000
0100
0000
0010
0000
0100
0000
0001
0000
1000
0001
,
0010
0100
1000
0010
0100
0001
0100
0000
,
1001
0011
0110
1100
,
010M
0000
1000
0000
0010
0000
000M
0000
0010
0000
1M00
0000
0001
0010
0001
0010
,
M100
0000
0010
0000
0001
0000
0M00
0000
0001
0000
1000
0000
00M1
0100
0001
0100
,
M010
0000
0100
0000
0001
0000
M000
0000
0001
0000
10M0
0000
0100
0010
0100
0010
,
010M
1000
0010
0M00
0010
M100
0001
0000
,
00M1
0000
1000
0000
0100
0000
000M
0000
0100
0000
M010
0000
0001
0000
0001
1000
,
0M10
0000
1000
0000
0001
0000
00M0
0000
0001
0000
1000
0000
0M01
0000
0001
0010
,
M100
0010
0001
1M01
0000
1001
10M0
0000
,
0001
0100
0010
1000
0100
0010
0001
0000
0000
1001
0000
0000
,
1000
0000
0100
0000
0010
0000
0001
0000
1000
0000
0010
0000
0100
0010
0100
0000
,
0101
0000
0001
1001
0000
1000
1100
0000
,
0001
0000
1000
0000
0010
0000
1000
0000
0001
0000
0010
0000
0100
1000
0100
0000
,
0010
0011
0000
1001
0000
1010
0000
0110
,
0010
0000
1000
0000
0100
0000
0010
0000
0100
0000
1000
0000
0010
0100
0010
0000
,
0110
0000
0100
0101
0000
0001
1001
0000
,
1000
0000
0100
0000
1000
0000
0010
0000
0100
0000
0010
0000
0100
0001
0100
0000
,
0010
1010
0000
0101
0000
1001
0000
1100
,
1000
0100
1000
0000
0010
0100
0010
0000
0100
0000
0001
0000
0010
0000
0000
0000
,
0011
0000
0001
1001
0000
1000
1010
0000
,
0010
1000
0010
0000
1000
0001
1000
0000
0001
0000
0010
0000
0100
0000
0000
0000
,
1000
1010
0000
0110
0000
0101
0000
1001
,
0001
1000
0001
0000
0010
0100
0010
0000
0100
0000
1000
0000
0010
0000
0000
0000
,
0110
0000
0100
0101
0000
0001
1001
0000
,
1000
0100
1000
0000
0010
0100
0010
0000
1000
0000
0001
0000
0010
0000
0000
0000
,
0001
0100
1000
0100
0001
0010
1000
0010
,
0001
1000
0001
0000
1000
0010
1000
0000
0001
0010
0001
0000
0100
0010
0100
0000
,
0010
1000
0010
0000
1000
0001
1000
0000
0001
0010
0001
0000
0010
0100
0010
0000
,
0100
1000
0100
0000
1000
0001
1000
0000
0001
0100
0001
0000
0100
0010
0100
0000
,
0010
1000
0010
0000
1000
0001
1000
0000
0002
0000
0023
0000
0230
0000
2300
0000
,
3010
0100
0010
0000
0100
0001
0100
0000
0001
1000
0001
0000
1000
0100
1000
0000
,
0010
0100
0010
0000
1000
0001
1000
0000
0001
0010
0001
0000
0100
0010
0100
0000
,
0001
1000
0001
0000
1000
0100
1000
0000
0001
0100
0001
0000
1000
0010
1000
0000
,
0002
0000
0203
0000
0320
0000
1030
0001
,
0010
0001
0010
0000
0001
1000
0001
0000
1000
0000
0010
0000
0110
0000
0000
0000
,
0100
0000
0001
0000
0011
0000
0000
0000
0010
0100
0010
0000
0100
1000
0100
0000
,
1000
0001
1000
0000
0001
0100
0001
0000
0100
0000
0010
0000
0110
0000
0000
0000
,
0100
0001
1001
0000
2000
3020
0230
0320
,
1030
0001
1000
0000
0001
0010
0001
0000
0010
0000
0100
0000
0110
0000
0000
0000
,
0010
0000
0001
0000
1001
0000
0000
0000
1000
0010
1000
0000
0010
0100
0010
0000
,
0100
0001
0100
0000
0001
1000
0001
0000
1000
0000
0100
0000
0110
0000
0000
0000
,
0010
0100
2000
0000
3020
0000
0130
0001
,
1000
0000
0100
0000
0010
0000
0001
0000
0100
0000
0001
1000
0001
0000
0010
0000
,
0100
0000
0010
0000
0001
0010
0001
0000
0100
0000
0010
1000
0010
0000
0100
0000
,
0001
0000
0010
0001
0010
0000
0001
0000
1000
0000
0010
0100
0010
0000
1000
0000
,
0100
0010
0100
0000
1000
0000
0100
0010
0100
0010
0100
0000
1000
0000
0001
0000
,
0101
0000
0000
0000
0100
0000
0110
0000
0000
0000
0001
0100
0001
0000
1000
0000
,
1001
0000
0000
0000
0001
0010
0001
0000
0010
0000
0001
1000
0001
0000
0100
0000
,
0010
0000
1000
0001
1000
0000
0100
0000
0010
0000
0001
1000
0001
0000
0100
0000
,
0010
0100
0010
0000
1000
0000
0010
0100
0010
0000
1000
0001
1000
0001
0100
0000
,
M0M1
0100
0001
1001
0000
1000
1010
0000
0010
0100
0001
0100
,
0110
0000
0110
0000
0110
0000
0101
0001
0010
0200
0000
0000
,
0310
0001
0100
0101
0000
0001
0011
0000
0010
0100
1000
0010
,
0110
0000
0110
0000
0110
0000
1010
1000
0100
0010
0000
0000
,
MM11
0000
0000
0011
0000
0000
0011
0000
0000
0011
0000
0001
,
1000
0000
0010
0100
0010
0000
1000
0000
0000
0001
0000
0010
,
0100
0000
0000
1000
0000
0000
0010
0000
0100
0000
0001
1000
,
0001
0000
0000
0000
0000
0000
0010
0000
0000
0000
0001
1000
0002
0000
0000
0000
0000
0000
0100
0000
0000
0003
0000
0000
,
0110
0000
0000
0110
0000
0000
0110
0000
0000
0110
0000
0010
,
1000
0000
0100
0010
0100
0000
1000
0000
0000
0010
0000
0100
,
0010
0000
0000
1000
0000
0000
0001
0000
0100
0000
0001
1000
,
0010
0000
0000
0000
0000
0000
1000
0000
0000
0000
0100
0010
0100
0000
0000
0000
0000
0000
1000
0000
0000
0000
0000
0000
,
1001
0000
0000
1001
0000
0000
1001
0000
0000
1001
0000
0001
,
0100
0000
0010
1000
0100
0000
0010
0000
0000
0100
0000
1000
,
0010
0000
0000
0100
0000
0000
0001
0000
1000
0000
0100
0010
,
0100
0000
0000
0000
0000
0000
1000
0000
0000
0000
0010
0100
0010
0000
0000
0000
0000
0000
0100
0000
0000
0000
0000
0000
,
0101
0000
0000
0101
0000
0000
0101
0000
0000
0101
0000
0001
,
1000
0000
0100
0010
0100
0000
1000
0000
0000
0100
0000
0010
,
0001
0000
0000
0100
0000
0000
0010
0000
1000
0000
0100
0010
,
0100
0000
0000
0000
0000
0000
1000
0000
0000
0000
0010
0100
0010
0000
0000
0000
0000
0000
0100
0000
0000
0000
0000
0000
,
0001
0010
0020
0000
1030
0010
0020
0000
,
0031
0100
0200
0000
1300
0100
0200
0000
,
0301
0010
0020
0000
0031
0100
0200
0000
,
0310
1000
2000
0000
3100
0010
0020
0000
,
M031
0100
1000
0001
0010
1000
0001
1000
,
0001
0010
1000
0001
0100
1000
0001
1000
,
0001
0010
0001
0000
1000
0010
1000
0000
0001
0010
0001
0000
1000
0010
1000
0000
,
0001
0000
0000
0400
0040
0300
0030
0000
0000
4000
0004
3000
0003
0000
0000
4000
0400
3000
0300
0000
0000
0040
0004
0030
,
MM03
0000
0000
0000
0000
0000
0000
0000
20M0
00M0
00M0
00M0
00M0
00M0
00M0
00M0
,
30M1
1000
0001
0000
0100
0010
0100
0000
0001
0000
0010
0000
0100
0000
0000
0000
,
1100
0000
1000
1010
0000
0010
0110
0000
,
0100
0001
0100
0000
0001
1000
0001
0000
0100
0000
0010
0000
1000
0000
0000
0000
,
1100
0100
0000
0110
0000
0110
0000
0010
,
0100
0010
0100
0000
1000
0001
1000
0000
0001
0000
0100
0000
0010
0000
0000
0000
,
0110
0000
0100
0101
0000
0001
1001
0000
,
1000
0100
1000
0000
0010
0100
0010
0000
1000
0000
0010
0000
0100
0000
0000
0000
,
0101
0001
0000
0011
0000
0011
0000
0010
,
0001
1000
0010
0000
0100
0010
0100
0000
0001
0000
1000
0000
0100
0000
0000
0000
,
0110
0000
0010
0011
0000
0001
0101
0000
,
0100
0001
1000
0000
0010
1000
0010
0000
1000
0000
0100
0000
0010
0000
0000
0000
,
0110
0100
0000
1100
0000
1100
0000
1000
,
0001
0100
0010
0000
1000
0010
0100
0000
0001
0000
0100
0000
0010
0000
0000
0000
,
1010
0000
1000
1100
0000
0010
0110
0000
,
0100
0010
1000
0000
0100
0010
0001
0000
1000
0000
0001
0000
0010
0000
0001
0000
,
1000
0000
0000
0001
0000
0000
1000
0000
0000
0001
0000
0000
0010
0000
0000
0000
0100
0000
0000
0000
1000
0000
0000
0000
0001
0000
0000
0000
0000
0000
0100
0000
0000
0000
0000
0000
0010
0000
0000
0000
0000
0000
1000
0000
0000
0000
0000
0000
,
010M
0010
0001
0100
0010
0100
0001
1000
,
010M
0010
0100
1000
0010
0100
0010
0100
,
M001
0010
0100
0000
1000
0010
0100
0000
,
M001
0100
0010
0000
1000
0100
0010
0000
,
010M
1000
0010
0000
0100
0001
0010
0000
,
010M
1000
0001
0000
0100
0010
1000
0000
,
M001
0010
0100
0000
1000
0010
0100
0000
,
M010
0100
0001
0000
0010
0001
0010
0001
,
0M10
0001
0100
0010
,
100M
0100
0010
0001
,
M010
0100
1000
0010
,
010M
0010
1000
0001
,
10M0
0100
1000
0100
1000
0100
1000
0100
,
M010
0001
0010
0001
0010
0001
0010
0001
,
1M00
0010
1000
0010
1000
0010
1000
0010
,
M100
0001
0100
0001
0100
0001
0100
0001
,
2002
0000
0000
0000
,
0000
0000
0000
0000
,
0000
0000
0000
0000
,
3003
0000
0000
0000
;

//---------------dance-single - Blank----------------
#NOTES:
     dance-single:
     Blank:
     Hard:
     13:
     1.000,1.000,0.503,0.198,0.553:
0000
0000
0000
0000
,
0000
0000
0000
0000
,
0000
0000
0000
0000
,
0000
0000
0000
0000
,
1000
0100
0010
0001
0010
0100
1000
0000
,
0010
1000
0001
0010
0001
1000
0010
0000
,
0100
0010
1000
0100
0010
0001
0010
0000
,
0011
0011
1100
1100
,
0100
1000
0010
0100
0001
0100
0010
1000
,
0001
0010
0100
1000
0010
0100
0001
0010
,
0100
0010
0001
0000
1000
0010
0100
0000
,
0010
1000
0001
0000
0010
0100
1000
0000
,
0010
1000
0001
0000
0010
0100
0010
0000
,
0001
0100
0010
0000
1000
0100
0010
0000
,
0100
0010
0001
1001
0000
1001
1000
0000
,
0010
1000
0001
1000
0100
0010
0001
0000
0000
1001
0000
0000
,
1000
0010
1000
0100
1000
0001
1000
0000
,
1100
0000
0100
0010
0000
0010
0001
0000
,
0100
0010
0100
1000
0100
0001
0100
0000
,
0010
1000
0000
1001
0000
1001
0000
0001
,
0010
1000
0010
0100
0010
0001
0010
0000
,
0011
0000
0001
1000
0000
1000
0010
0000
,
0100
1000
0100
0001
0100
0010
0100
0000
,
0001
0010
0000
0110
0000
0110
0000
0100
,
1000
0001
1000
0100
1000
0010
1000
0000
,
1001
0000
0001
0100
0000
0100
0001
0000
,
0010
1000
0010
0100
0010
0001
0010
0000
,
0001
1000
0000
1010
0000
1010
0000
0010
,
0100
1000
0100
0001
0100
0010
0100
0000
,
0101
0000
0001
1000
0000
1000
0100
0000
,
0010
1000
0010
0001
0010
0100
0010
0000
,
0001
0100
1000
0100
0001
0010
1000
0010
,
0001
1000
0001
0000
1000
0010
1000
0000
0001
0010
0001
0000
1000
0100
1000
0000
,
0001
0100
0001
0000
0100
0010
0100
0000
0010
1000
0010
0000
1000
0001
1000
0000
,
0001
0010
0001
0000
0010
0100
0010
0000
0001
1000
0001
0000
1000
0010
1000
0000
,
0010
0100
0010
0000
0100
0001
0100
0000
0020
0000
2030
0000
3002
0000
0023
0000
,
0031
1000
0001
0000
1000
0010
1000
0000
0010
0100
0010
0000
0100
0001
0100
0000
,
0001
1000
0001
0000
1000
0100
1000
0000
0001
0100
0001
0000
0100
0010
0100
0000
,
0010
1000
0010
0000
1000
0001
1000
0000
0001
1000
0001
0000
0010
0100
0010
0000
,
0002
0000
0203
0000
0320
0000
1030
0001
,
0100
0010
0100
0000
0010
1000
0010
0000
1000
0000
0100
0000
0010
0000
0000
0000
,
0001
0010
0100
0000
1000
0000
1000
0000
,
0010
1000
0010
0000
0100
0001
0100
0000
0010
0000
1000
0000
0001
0000
0000
0000
,
0010
0100
0010
0000
0001
1000
0010
0100
,
0010
1000
0010
0000
1000
0001
1000
0000
0100
0000
0010
0000
0001
0000
0000
0000
,
1000
0010
0100
0000
0010
0000
0010
0000
,
1000
0100
1000
0000
0001
0100
0001
0000
0100
0000
0010
0000
1000
0000
0000
0000
,
0100
0010
0200
0000
2300
0000
3010
0100
,
0001
0000
0010
0000
0100
0000
1000
0000
0010
0000
1000
0001
1000
0000
0100
0000
,
0010
0000
0100
0000
1000
0100
1000
0000
0010
0000
0100
0001
0100
0000
0010
0000
,
1000
0000
0100
1000
0100
0000
1000
0000
0001
0000
0100
0010
0100
0000
0001
0000
,
0010
0100
0010
0000
0001
0000
0010
0100
0010
0100
0010
0000
0001
0000
1000
0000
,
0010
0000
0000
0000
0100
0000
0010
0000
0000
0000
1000
0010
1000
0000
0001
0000
,
1001
0000
0000
0000
1000
0100
1000
0000
0100
0000
1000
0001
1000
0000
0010
0000
,
0100
0000
0001
1000
0001
0000
0010
0000
0100
0000
1000
0001
1000
0000
0010
0000
,
0100
0010
0100
0000
0001
0000
0100
0010
0100
0000
0001
1000
0001
1000
0010
0000
,
1M0M
0010
1000
1001
0000
0001
0101
0000
0100
0010
1000
0010
,
0110
0000
0110
0000
0110
0000
1010
1000
0100
0020
0000
0000
,
0130
1000
0010
1010
0000
1000
1100
0000
0100
0010
0001
0100
,
0110
0000
0110
0000
0110
0000
0101
0001
0010
0100
0000
0000
,
11MM
0000
0000
1100
0000
0000
1100
0000
0000
1100
0000
1000
,
0001
0000
0100
0010
0100
0000
0001
0000
0000
1000
0000
0100
,
0010
0000
0000
0001
0000
0000
0100
0000
0010
0000
1000
0001
,
1000
0000
0000
0000
0000
0000
0100
0000
0000
0000
1000
0001
2000
0000
0000
0000
0000
0000
0010
0000
0000
3000
0000
0000
,
0110
0000
0000
0110
0000
0000
0110
0000
0000
0110
0000
0100
,
0001
0000
0010
0100
0010
0000
0001
0000
0000
0100
0000
0010
,
0100
0000
0000
0001
0000
0000
1000
0000
0010
0000
1000
0001
,
0100
0000
0000
0000
0000
0000
0001
0000
0000
0000
0010
0100
0010
0000
0000
0000
0000
0000
0001
0000
0000
0000
0000
0000
,
1001
0000
0000
1001
0000
0000
1001
0000
0000
1001
0000
1000
,
0010
0000
0100
0001
0010
0000
0100
0000
0000
0010
0000
0001
,
0100
0000
0000
0010
0000
0000
1000
0000
0001
0000
0010
0100
,
0010
0000
0000
0000
0000
0000
0001
0000
0000
0000
0100
0010
0100
0000
0000
0000
0000
0000
0010
0000
0000
0000
0000
0000
,
1010
0000
0000
1010
0000
0000
1010
0000
0000
1010
0000
1000
,
0001
0000
0010
0100
0010
0000
0001
0000
0000
0010
0000
0100
,
1000
0000
0000
0010
0000
0000
0100
0000
0001
0000
0010
0100
,
0010
0000
0000
0000
0000
0000
0001
0000
0000
0000
0100
0010
0100
0000
0000
0000
0000
0000
0010
0000
0000
0000
0000
0000
,
1000
1000
0200
0000
0310
0010
0002
0000
,
1003
1000
0020
0000
0130
0100
0002
0000
,
1003
1000
0200
0000
1300
1000
0020
0000
,
0130
0100
0002
0000
1003
1000
0002
0000
,
1003
0010
0001
0010
1000
0100
0001
0100
,
1000
0010
0001
0010
1000
0100
0001
0100
,
1000
0100
1000
0000
0001
0100
0001
0000
1000
0010
1000
0000
0001
0010
0001
0000
,
0010
0000
0000
0400
4000
0000
0300
3000
0000
0040
0400
0000
0030
0300
0000
0004
0000
4000
0003
0000
3000
0400
0040
0000
,
033M
0000
M200
0000
,
130M
0010
0100
0010
1000
0001
0010
0000
,
0011
0000
0001
1000
0000
1000
0010
0000
,
0100
0001
0100
0010
1000
0100
0010
0000
,
0001
1000
0000
1010
0000
1010
0000
0010
,
0100
0001
0010
0001
1000
0010
0100
0000
,
0110
0000
0010
1000
0000
1000
0001
0000
,
0010
0100
1000
0010
0100
0001
0010
0000
,
0001
1000
0000
1001
0000
1001
0000
0001
,
0100
1000
0100
0010
0100
0001
0100
0000
,
0110
0000
0010
1000
0000
0001
0010
0000
,
0100
0001
0100
0010
0100
1000
0100
0000
,
1000
0001
0000
1001
0000
1001
0000
1000
,
0010
0100
0010
0001
0010
1000
0010
0000
,
0110
0000
0100
0001
0000
1000
0100
0000
,
0010
1000
0010
0100
0010
0001
0100
0000
,
0010
0000
0000
1000
0000
0000
0010
0000
0000
1000
0000
0000
0001
0000
0000
0000
0010
0000
0000
0000
0100
0000
0000
0000
1000
0000
0000
0000
0000
0000
0010
0000
0000
0000
0000
0000
0100
0000
0000
0000
0000
0000
0010
0000
0000
0000
0000
0000
,
100M
0100
1000
0100
0010
0001
0010
0001
,
1M00
0010
1000
0010
0100
0001
0100
0001
,
10M0
0100
0010
0000
0100
0010
0001
0000
,
1M00
0010
0100
0000
0001
0100
0010
0000
,
100M
0100
1000
0000
0001
0100
0001
0000
,
1M00
0010
1000
0000
0001
0010
0001
0000
,
10M0
0001
1000
0000
0001
1000
0001
0000
,
M100
0010
0100
0000
0001
1000
0001
1000
,
00M1
0100
0010
1000
,
010M
0010
0100
1000
,
001M
0100
0010
1000
,
0M01
1000
0100
0010
,
0M01
1000
0001
1000
0001
1000
0001
1000
,
001M
0100
0010
0100
0010
0100
0010
0100
,
001M
1000
0010
1000
0010
1000
0010
1000
,
0M01
1000
0001
1000
0001
1000
0001
2000
,
0002
0000
0000
0000
,
0000
0000
0000
0000
,
0000
0000
0000
0000
,
3003
0000
0000
0000
;
