#TITLE:Hakurei Shrine Neighborhood Association Marching Song;
#SUBTITLE:;
#ARTIST:IOSYS;
#TITLETRANSLIT:;
#SUBTITLETRANSLIT:;
#ARTISTTRANSLIT:;
#GENRE:Arrange;
#CREDIT:;
#BANNER:bn.png;
#BACKGROUND:bg.png;
#LYRICSPATH:;
#CDTITLE:;
#MUSIC:Hakurei Shrine Neighborhood Association Marching Song.ogg;
#OFFSET:-1.405;
#SAMPLESTART:38.462;
#SAMPLELENGTH:12.000;
#SELECTABLE:YES;
#BPMS:0.000=156.000;
#STOPS:;
#BGCHANGES:;
#FGCHANGES:96.000=red1=1.000=0=0=1=====,
104.000=blue1=1.000=0=0=1=====,
112.000=green1=1.000=0=0=1=====,
120.000=blue1=1.000=0=0=1=====,
120.000=green1=1.000=0=0=1=====,
128.000=leftside=1.000=0=0=1=====,
136.000=rightside=1.000=0=0=1=====,
144.000=diamonds=1.000=0=0=1=====,
152.000=blue2=1.000=0=0=1=====,
152.000=green2=1.000=0=0=1=====,
152.000=fountain=1.000=0=0=1=====,
196.000=leftside=1.000=0=0=1=====,
196.000=rightside=1.000=0=0=1=====,
204.000=4way=1.000=0=0=1=====,
212.000=fountain=1.000=0=0=1=====,
212.000=leftfountain=1.000=0=0=1=====,
212.000=rightfountain=1.000=0=0=1=====,
220.000=triple=1.000=0=0=1=====,
228.000=leftdiamonds=1.000=0=0=1=====,
228.000=rightdiamonds=1.000=0=0=1=====,
236.000=leftside=1.000=0=0=1=====,
236.000=rightside=1.000=0=0=1=====,
236.000=diamonds=1.000=0=0=1=====,
244.000=vortex=1.000=0=0=1===== ,
;
#KEYSOUNDS:;

//---------------dance-single - Blank----------------
#NOTES:
     dance-single:
     Blank:
     Challenge:
     10:
     0.808,0.866,0.407,0.416,0.484:
0000
0000
0000
0000
,
0000
0000
0000
0000
,
0000
0000
0000
0000
,
0000
0000
0000
0000
,
1000
0100
0001
0100
0010
0001
0000
0202
,
0000
0000
0000
0303
0000
0000
0100
0000
0000
0000
0000
0000
0010
0000
0000
0000
0000
0000
1000
0000
0100
0000
1000
0000
0100
0000
0000
0000
0000
0000
0010
0000
0000
0000
0000
0000
0000
0000
0000
0000
0000
0000
MMM2
0000
0000
0000
0000
0000
,
0003
1000
0010
0001
0010
0100
0000
0220
,
0000
0000
0000
0330
0000
0000
0010
0000
0000
0000
0000
0000
1000
0000
0000
0000
0000
0000
0001
0000
0000
0000
0000
0000
0010
0000
0000
0000
0000
0000
0100
0000
1000
0000
0100
0000
1000
0000
0000
0000
0000
0000
0010
0000
0000
0000
0000
0000
,
1000
0100
0001
0100
1000
0010
0000
0220
,
0000
0000
0000
0330
0000
0000
0100
0000
0000
0000
0000
0000
0001
0000
0000
0000
0000
0000
0010
0000
0001
0000
0010
0000
0001
0000
0000
0000
0000
0000
1000
0000
0000
0000
0000
0000
0000
0000
0000
0000
0000
0000
MM2M
0000
0000
0000
0000
0000
,
0030
0100
0001
0010
1000
0010
0000
0022
,
0000
0000
0000
0033
0000
0000
0001
0000
0000
0000
0000
0000
1000
0000
0000
0000
0000
0000
0010
0000
0000
0000
0000
0000
0100
0000
0000
0000
0000
0000
0001
0000
0010
0000
0001
0000
0010
0000
0000
0000
0000
0000
0100
0000
0000
0000
0000
0000
,
1000
0000
0000
0000
0000
0000
0001
0000
0000
0010
0000
0000
M001
0000
0000
0000
0000
0000
M001
0000
0000
0000
0000
0000
0100
0000
0000
0000
0000
0000
0010
0000
1000
0000
0010
0000
100M
0000
0000
0000
0000
0000
0000
0000
0000
0000
0000
0000
,
0100
0000
0010
0001
M010
0000
M010
0000
0100
0000
1000
0000
0M10
0000
0000
0000
,
0100
0000
0001
1000
00M1
0000
0000
0000
0010
0000
0100
1000
010M
0000
0000
0000
,
1000
0000
0010
0100
M010
0000
0100
0000
0001
0000
M011
0000
0M11
0000
M010
0100
,
0010
0001
0010
0001
0010
1000
0010
1000
,
0010
0001
0010
0001
0100
1000
0100
1000
,
0100
0010
0100
0010
1000
0100
1000
0100
,
0001
0100
0001
0100
2000
3020
0230
0302
,
0013
1000
0010
1000
0010
0100
0010
0100
,
1000
0010
1000
0010
0001
0010
0001
0010
,
0100
0010
0100
0010
1000
0100
1000
0100
,
1000
0000
0000
0001
0000
0000
0100
0010
0100
0000
0000
0001
0000
0000
1000
0000
,
0001
0100
1000
0100
0010
1000
0000
2200
,
0000
0000
0000
3300
0000
0000
0100
0000
0000
0000
0000
0000
0010
0000
0000
0000
0000
0000
0001
0000
1000
0000
0001
0000
1000
0000
0000
0000
0000
0000
0010
0000
0000
0000
0000
0000
0000
0000
0000
0000
0000
0000
2MMM
0000
0000
0000
0000
0000
,
3000
0001
0010
1000
0010
0100
0000
0220
,
0000
0000
0000
0330
0000
0000
0010
0000
0000
0000
0000
0000
0001
0000
0000
0000
0000
0000
0100
0000
0000
0000
0000
0000
0010
0000
0000
0000
0000
0000
1000
0000
0010
0000
1000
0000
0010
0000
0000
0000
0000
0000
0100
0000
0000
0000
0000
0000
,
0001
1000
0100
0001
0100
1000
0000
2002
,
0000
0000
0000
3003
0000
0000
0001
0000
0000
0000
0000
0000
0100
0000
0000
0000
0000
0000
0010
0000
1000
0000
0010
0000
1000
0000
0000
0000
0000
0000
0100
0000
0000
0000
0000
0000
0000
0000
0000
0000
0000
0000
MM2M
0000
0000
0000
0000
0000
,
0030
0001
0100
1000
0100
0010
0000
2020
,
0000
0000
0000
3030
0000
0000
1000
0000
0000
0000
0000
0000
0001
0000
0000
0000
0000
0000
0010
0000
0000
0000
0000
0000
0100
0000
0000
0000
0000
0000
1000
0000
0010
0000
1000
0000
0010
0000
0000
0000
0000
0000
0100
0000
0000
0000
0000
0000
,
0001
0000
0010
0000
0100
0000
0000
0000
1000
0000
0000
0010
0000
0000
0100
0001
,
0010
0000
0001
0000
0100
0000
0000
0000
0010
0000
0000
1000
0000
0000
0100
0000
,
0010
0000
0001
0000
0100
0000
0000
0000
0010
0000
0000
1000
0000
0000
0001
0010
,
0100
1000
0010
0000
0200
0302
0203
0302
,
1003
0000
0100
0000
0010
0000
0000
0000
0001
0000
0000
1000
0000
0000
0010
0100
,
0001
0000
0010
0000
0100
0000
0000
0000
1000
0000
0000
0001
0000
0000
0100
0010
,
1000
0000
0100
0000
0010
0000
0000
0000
0001
0000
0000
1000
0000
0000
0010
0100
,
0010
0000
0000
0000
0000
0000
0000
0000
0000
1000
0000
0000
0000
0000
0000
0000
0000
0000
0100
0000
0000
0010
0000
0000
0100
0000
0000
0010
0000
0000
0001
0000
0000
1000
0000
0000
0001
0000
0000
1000
0000
0000
0010
0000
0100
0000
0010
0000
,
0100
0100
0001
0001
1000
0100
0010
0002
,
0000
0103
0020
0000
1030
1001
1001
0002
,
0000
0013
0100
0100
1000
1000
0010
0200
,
0000
0301
0020
0000
0031
1001
1001
0000
,
1000
0010
1000
1000
0100
0010
0001
0200
,
0000
0310
2000
0000
3001
1001
1001
2000
,
0000
3010
0100
0100
0001
0010
0100
0020
,
0000
0000
0031
0000
0200
0000
0000
0000
0310
0000
0110
0000
0110
0000
0100
0001
,
0100
0010
0100
0001
1000
0100
0010
0001
0010
0100
1000
0010
0100
0001
0100
0010
,
1000
0000
2000
0000
0000
3000
1001
0000
0000
0000
0001
0000
0100
0000
0100
0000
,
0010
1000
0001
0010
0001
0000
0001
0010
0000
0010
0100
0000
1000
0000
0010
0000
,
0200
0000
0000
0000
0000
0300
0101
0000
0000
0000
0001
0000
1000
0000
1000
0000
,
0100
0010
0001
1000
0100
0000
0100
1000
0000
1000
0010
0000
0100
0000
0001
0000
,
0010
0000
0020
0000
0000
0030
0110
0000
0000
0000
0100
0000
1000
0000
1000
0000
,
0010
0100
0001
0010
0100
0000
0100
0010
0000
0010
0001
0000
0100
0000
0010
0000
,
2000
0000
0000
0000
0000
3000
2200
0000
0000
3300
0100
0000
0010
0000
0010
0000
,
0001
0100
0010
1000
0100
0010
0100
1000
0010
0100
0001
0100
0010
1000
0100
0010
,
0001
0000
0000
0000
1001
0000
0000
0000
1000
0000
0000
1010
0000
0000
0010
0000
,
0100
0001
0010
0100
1000
0000
1000
0100
0000
0100
1000
0001
0010
0000
0100
0000
,
0010
0000
0000
0000
0011
0000
0000
0000
0001
0000
0000
1001
0000
0000
1000
0000
,
0010
0100
0001
1000
0100
0000
0100
1000
0000
1000
0010
0000
0100
0000
0001
0000
,
0010
0000
0000
0000
1001
0000
0000
0000
1000
0000
0000
0110
0000
0000
0010
0000
,
1000
0100
0010
0001
1000
0000
1000
0010
0000
0010
0100
0000
0001
0000
0010
0000
,
0100
0000
0000
0000
1100
0000
0000
0000
1000
0000
0000
0101
0000
0000
0001
0000
,
0100
0010
0100
0010
1000
0100
1000
0010
0100
0001
0010
0100
1000
0100
0010
0001
,
0100
0110
0000
1010
1010
0000
0101
0101
,
0000
1001
1001
0000
0002
0000
0010
0000
,
1000
0000
0000
0003
0101
0000
0000
0000
0101
0000
0000
0000
0101
0000
0000
0000
,
0100
0100
0010
0010
1001
1001
0000
1001
,
1000
0000
0100
0010
0100
0000
1000
0000
0001
0000
0100
0010
0100
0000
0001
0000
,
1001
0000
0000
1001
0000
0000
1000
0000
0000
0010
0100
0010
0100
0010
0100
0010
0100
0010
0200
0000
0000
0000
0000
0000
,
0300
0000
0000
0000
;

//---------------dance-single - Blank----------------
#NOTES:
     dance-single:
     Blank:
     Medium:
     7:
     0.479,0.448,0.127,0.524,0.032:
0000
0000
0000
0000
,
0000
0000
0000
0000
,
0000
0000
0000
0000
,
0000
0000
0000
0000
,
1000
0001
1000
0000
0010
0100
0000
0002
,
0000
0013
0100
0000
1000
0001
0000
2000
,
0000
3010
0100
0000
0001
1000
0000
0200
,
0000
0310
0001
0010
0002
0000
2003
0000
,
3010
0100
0001
0000
1000
0100
0000
0020
,
0000
0130
1000
0000
0010
0100
0000
0002
,
0000
0013
0100
0000
1000
0010
0000
0200
,
0000
0301
1000
0001
2000
0000
3200
0000
,
0310
0000
0011
0001
0000
1000
1001
0000
,
0010
0000
0110
0100
0000
0001
1001
0000
,
1000
1100
0001
0101
,
0100
0000
0110
0000
0010
1000
0010
1000
,
0002
0000
0000
0000
0000
2003
3200
2300
,
3200
0000
0000
2300
0000
0000
3020
0000
,
0230
0000
0000
0302
0000
0000
0023
0000
,
0032
0000
2003
3020
,
0230
0000
0000
0320
0000
0000
2030
0000
,
3002
0000
0023
0032
,
2003
0000
0000
3020
0000
0000
0000
0000
,
2030
0000
3002
0000
,
1003
0100
1000
0000
0010
0100
0000
0002
,
0000
0013
0100
0000
1000
0001
0000
0200
,
0000
0310
1000
0000
0100
0010
0000
0200
,
0000
1300
0001
1000
0200
0000
0320
0000
,
0031
0100
0010
0000
0100
0001
0000
2000
,
0000
3100
0010
0000
0100
1000
0000
0020
,
0000
0130
0001
0000
0010
0001
0000
2000
,
0000
3010
0100
0001
0020
0000
0230
0000
,
1300
0010
1000
0000
0001
0000
0010
0000
,
0100
1000
0010
0000
0100
0000
0001
0000
,
1000
0100
1000
0000
0010
0000
0100
0000
,
0101
0000
0000
0000
0001
1000
0001
0000
,
1000
0100
0010
0000
0100
0000
1000
0000
,
0010
0100
0001
0000
0010
0000
0001
0000
,
0100
0010
1000
0000
0100
0000
1000
0000
,
1001
0000
0110
0000
,
0001
0100
0001
0000
1000
0100
1000
0000
,
2002
0000
0000
3003
,
0001
0100
0010
0000
1000
0100
0010
0000
,
0022
0000
0000
0033
,
0001
1000
0100
0000
0010
0001
0100
0000
,
0220
0000
0000
0330
,
0010
1000
0001
0000
0010
0100
1000
0000
,
2002
0000
0000
3003
,
0001
0100
0010
1000
,
0001
0000
0000
0000
0100
0000
0000
0000
0010
0000
0000
1000
0000
0000
0100
0000
,
0010
0000
0001
0000
0100
0010
0100
0000
,
0010
0000
0000
0000
1000
0000
0000
0000
0100
0000
0000
1000
0000
0000
0010
0000
,
0100
0000
0001
0000
0010
0100
0010
0000
,
0001
0000
0000
0000
1000
0000
0000
0000
0010
0000
0000
0100
0000
0000
0001
0000
,
1000
0000
0100
0000
0010
0000
0001
1000
,
0010
0000
0000
0200
0000
0301
1000
0001
,
2000
0000
3100
0100
,
0010
0000
0000
0000
0001
0000
0000
0000
1000
0000
0000
0010
0000
0000
0001
0000
,
0010
0000
1000
0000
0001
0010
0001
0000
,
1000
0000
0000
0000
0001
0000
0000
0000
0010
0000
0000
1000
0000
0000
0010
0000
,
0001
0000
0100
0000
0010
1000
0100
0000
,
1000
0000
0000
0000
0001
0000
0000
0000
0100
0000
0000
1000
0000
0000
0100
0000
,
0010
1000
0100
1000
,
0010
0000
0000
0000
1000
0000
0000
0000
0100
0000
0000
0001
0000
0000
0100
0000
,
0020
0000
0001
0030
0200
0000
0010
0300
,
0010
1000
0000
0001
0010
0000
0100
1000
,
0000
0001
0100
0000
0020
0000
1000
0000
,
0100
1030
1000
1000
,
0100
0010
0100
0000
1000
0001
0000
0200
,
0000
0010
1000
0301
,
0100
0010
0100
0020
0000
0000
1030
0000
;

//---------------dance-single - Blank----------------
#NOTES:
     dance-single:
     Blank:
     Easy:
     4:
     0.275,0.320,0.018,0.027,0.000:
0000
0000
0000
0000
,
0000
0000
0000
0000
,
0000
0000
0000
0000
,
0000
0000
0000
0000
,
1000
0010
0100
0000
,
0001
0010
0100
0000
,
1000
0001
0100
0000
,
0001
1000
0100
0100
,
1000
0010
0100
0000
,
0001
0010
0100
0000
,
0010
0001
1000
0000
,
0010
0100
0001
0001
,
1000
0000
0010
0000
,
0001
0000
0010
0000
,
1000
0000
0100
0000
,
0001
0000
0100
0000
,
1000
0010
1000
0010
,
0100
0000
0001
0000
,
0010
0100
0010
0100
,
1000
0000
0001
0000
,
0100
0010
0100
0010
,
1000
0000
0100
0000
,
0010
0001
0010
0001
,
0100
0000
0010
0000
,
1000
0001
1000
0000
,
0100
0010
0100
0000
,
1000
0001
0100
0000
,
0001
1000
0010
0010
,
1000
0100
1000
0000
,
0001
0100
0010
0000
,
0100
0001
0010
0000
,
0100
1000
0001
0001
,
0100
0010
1000
0000
,
0001
0010
0100
0000
,
0010
0001
0100
0000
,
0010
0000
1000
0001
,
1000
0100
0010
0000
,
0001
1000
0010
0000
,
0100
0001
1000
0000
,
0001
0100
1000
0100
,
0001
0000
0001
0000
0001
0000
0000
1000
,
0000
0010
0000
0000
,
0100
0000
0100
0000
0100
0000
0000
0010
,
0000
1000
0000
0000
,
0100
0000
0100
0000
0100
0000
0000
0010
,
0000
0100
0000
0000
,
1000
0000
1000
0000
1000
0000
0000
0010
,
0000
0100
0000
0000
,
0001
1000
0001
1000
,
0100
0010
0100
0000
,
1000
0001
0100
0001
,
0010
0100
1000
0000
,
0010
0100
0001
1000
,
0100
0010
0100
0000
,
1000
0010
0100
0010
,
1000
0001
0010
0000
,
0100
0010
0001
1000
,
0001
0100
0010
0000
,
1000
0100
0010
0001
,
1000
0001
0100
0000
,
0010
1000
0001
0010
,
0100
0010
0001
0000
,
1000
0010
0100
0010
,
1000
0001
0010
0000
,
0100
0010
0001
0100
,
0010
1000
0000
0010
1000
0000
0001
0010
,
0000
0001
0010
0000
0002
0000
0000
0000
,
0000
1003
1000
1000
,
0100
0000
0010
0000
0001
0000
0000
2002
,
0000
0000
0000
0000
0000
0000
0000
3003
,
0010
0000
0000
0100
0000
0000
0110
0000
;

//---------------dance-single - Blank----------------
#NOTES:
     dance-single:
     Blank:
     Hard:
     9:
     0.646,0.640,0.136,0.560,0.235:
0000
0000
0000
0000
,
0000
0000
0000
0000
,
0000
0000
0000
0000
,
0000
0000
0000
0000
,
1000
0100
0010
0001
1000
0100
0000
2000
,
0000
0000
3001
0000
0100
0000
0010
0100
0010
0000
1000
0000
0000
0000
0002
0000
,
0000
0103
0001
1000
0100
0010
0000
0002
,
0000
0000
0103
0000
0010
0000
1000
0000
0100
0000
1000
0001
1000
0000
0001
0000
,
0100
0010
1000
0100
0010
0001
0000
0200
,
0000
0000
0310
0000
1000
0000
0001
0010
0001
0000
0010
0000
0000
0000
0200
0000
,
0000
1300
0001
0100
0001
1000
0000
0200
,
0000
0000
0310
0000
0001
0000
1000
0000
0010
0000
0100
0001
0100
0000
0001
0000
,
1000
0000
0000
0100
0010
0000
0001
0000
0100
0000
0010
0000
1010
0000
0000
0000
,
1000
0000
0000
0100
0010
0000
0100
0000
1000
0000
0001
0000
0101
0000
0000
0000
,
0100
0010
1010
0000
1000
0100
0110
0000
,
0010
0000
0000
0001
0010
0000
0001
0000
0100
0000
0010
0000
0010
0000
0010
0000
,
2000
0000
0000
0000
0000
3002
0203
0320
,
2030
0000
0000
3200
0000
0000
0320
0000
,
0032
0000
0000
0203
0000
0000
0320
0000
,
0230
0000
0000
0000
0301
1000
0001
1000
,
0200
0000
0000
0320
0000
0000
0032
0000
,
0203
0000
0000
0000
0000
0000
0000
0000
0320
0000
0000
2030
0000
0000
3200
0000
,
0320
0000
0000
0032
0000
0000
0000
0000
,
2003
0000
0000
3020
0000
0000
0230
0000
0302
0000
0003
0002
0000
0003
0002
0000
,
1003
0010
0100
0010
1000
0001
0000
0020
,
0000
0000
0130
0000
1000
0000
0001
0100
0001
0000
0100
0000
0000
0000
0020
0000
,
0000
1030
0001
1000
0100
0010
0000
0200
,
0000
0000
1300
0000
0010
0000
0100
0000
0001
0000
0010
0100
0010
0000
0001
0000
,
0100
0010
1000
0100
0010
0100
0000
2000
,
0000
0000
3001
0000
0100
0000
0010
1000
0010
0000
1000
0000
0000
0000
0200
0000
,
0000
0310
0001
1000
0010
0100
0000
0002
,
0000
0000
0013
0000
0100
0000
1000
0000
0001
0000
0100
0010
0100
0000
0001
0000
,
0010
0000
0100
0000
0100
0000
0000
0000
1000
0000
0000
0001
0000
0000
0100
0000
,
0001
0000
0010
0000
0010
0000
0000
0000
0100
0000
0000
1000
0000
0000
0010
0000
,
0100
0000
0001
0000
0001
0000
0000
0000
0010
0000
0000
0100
0000
0000
1000
0000
,
0010
0100
0100
0000
0001
1000
0001
1000
,
0100
0000
0010
0000
0010
0000
0000
0000
0001
0000
0000
0100
0000
0000
0010
0000
,
1000
0000
0100
0000
0100
0000
0000
0000
1000
0000
0000
0010
0000
0000
0100
0000
,
0001
0000
0010
0000
0010
0000
0000
0000
0100
0000
0000
1000
0000
0000
0001
0000
,
0200
0000
0000
0010
0000
0000
0310
0000
2000
0000
0000
0100
0000
0000
3100
0000
,
0010
0001
0010
0001
0010
0100
1000
0020
,
0000
0130
0220
0000
0000
0000
0330
0010
,
0000
1000
0100
0010
0100
1000
0010
0200
,
0000
0301
0202
0000
0000
0000
0303
0000
,
0100
0010
1000
0100
0010
0100
1000
0020
,
0000
0130
0202
0000
0000
0000
0303
0001
,
0000
0010
0100
0010
0001
1000
0001
2000
,
0000
3010
2020
0000
0000
0000
3030
0000
,
1000
0000
0100
0000
0010
0001
0000
0100
0000
0010
1000
0000
0100
0000
0000
0000
,
1000
0000
0000
0000
0100
0000
0000
0000
0001
0000
0000
0100
0000
0000
1000
0000
,
0010
0000
0100
0000
0010
0000
1000
0001
0000
0010
0001
0000
0010
0000
0100
0000
,
1000
0000
0000
0000
0010
0000
0000
0000
0001
0000
0000
0010
0000
0000
1000
0000
,
0100
0000
0010
0000
0001
0000
1000
0010
0000
0100
0001
0000
0010
0000
0001
0000
,
0100
0000
0000
0000
0001
0000
0000
0000
0010
0000
0000
1000
0000
0000
0010
0000
,
0100
0000
1000
0000
0010
0000
0100
0001
0000
0100
0010
0000
1000
0000
0100
0000
,
1000
0000
0000
0000
0001
0000
0000
0000
0100
0000
0000
1000
0000
0000
0100
0000
,
0010
0000
1000
0001
1000
0000
0001
0010
0001
0000
1000
0010
0100
0000
0010
0000
,
1000
0000
0200
0000
0000
0300
0110
0000
0000
0000
0010
0000
0001
0000
1000
0000
,
0010
0100
0010
0000
0100
0000
0001
1000
0000
0100
0010
0000
0100
0000
1000
0000
,
0020
0000
0000
0230
0000
0301
0010
0100
,
1000
0001
0100
0000
0010
0000
1000
0100
0000
0010
0100
0000
1000
0000
0010
0000
,
0100
0000
0002
0000
0000
0003
0011
0000
0000
0000
0010
0000
0100
0000
1000
0000
,
0010
0100
0001
0000
0010
0000
0100
1000
0000
0010
0100
0000
0001
0000
0010
0000
,
0002
0000
0000
0203
0000
0310
1000
0100
,
0010
0000
0001
1000
0001
0000
1000
0010
0100
0000
0001
0010
0001
0000
0010
0000
,
0100
1100
0000
1000
1001
0000
0001
0101
,
0000
0100
0110
0000
0020
0000
1000
0000
,
0001
1030
1000
1000
,
0100
0010
0001
1000
0100
0100
0000
2000
,
0000
0000
3010
0100
0010
0000
0100
0000
0001
0000
1000
0001
1000
0000
0100
0000
,
0010
0001
2000
0002
0000
3003
1001
0000
;
