#TITLE:Gangnam Style;
#SUBTITLE:(Sensibilty Violation);
#ARTIST:PSY;
#TITLETRANSLIT:;
#SUBTITLETRANSLIT:;
#ARTISTTRANSLIT:;
#GENRE:;
#CREDIT:;
#BANNER:bn.png;
#BACKGROUND:bg.png;
#LYRICSPATH:;
#CDTITLE:;
#MUSIC:Gangnam Style.ogg;
#OFFSET:0.050;
#SAMPLESTART:45.451;
#SAMPLELENGTH:12.000;
#SELECTABLE:YES;
#BPMS:0.000=132.000,99.000=264.000,99.333=66.000,99.500=132.000,107.000=264.000,107.333=66.000,107.500=132.000,115.000=264.000,115.333=66.000,115.500=132.000,279.000=264.000,279.333=66.000,279.500=132.000,287.000=264.000,287.333=66.000,287.500=132.000,295.000=264.000,295.333=66.000,295.500=132.000,464.000=264.000,464.667=66.000,465.000=132.000;
#STOPS:;
#BGCHANGES:;
#KEYSOUNDS:;

//---------------dance-single - Blank----------------
#NOTES:
     dance-single:
     Blank:
     Challenge:
     14:
     1.000,1.000,0.438,0.348,1.000:
0000
0000
0000
0000
,
0000
0000
0000
0000
,
0000
0000
0000
0000
,
0000
0000
00M0
00M0
M000
M000
000M
0000
,
0220
0000
0000
0000
,
0000
0000
0000
0000
033M
000M
M000
0000
,
0000
0000
0000
0000
,
M000
0000
0000
000M
0000
0000
M000
0000
00M0
0000
0000
0M00
000M
0000
00M0
0000
,
1000
1000
0010
0100
0000
0010
1000
0001
,
0010
0010
0001
0001
0200
0320
0030
1000
,
0100
0000
0100
0000
1000
0000
0010
0000
0100
0000
0010
1000
0001
0000
0001
0000
,
0010
0100
1000
1000
0020
0230
0300
0010
,
2000
0000
3001
0000
0000
0000
0010
0000
0100
0000
0000
1000
0010
0000
0100
0000
,
0010
0010
1000
1000
0002
0023
0130
1000
,
1100
0000
0011
0000
0001
0001
1000
1000
,
1010
0000
0000
1010
0000
0000
1010
0000
0101
0000
0000
0001
0100
0000
0010
0000
,
1000
0100
0020
0000
0030
0001
1000
1000
,
0010
0010
1000
0001
0010
0010
0100
1000
,
0010
0100
0020
0000
0030
1000
0001
0001
,
0010
0000
0010
0000
0100
0000
0010
0000
0001
0000
0001
0000
0100
0000
0010
1000
,
0001
0010
0200
0000
0300
1000
0010
0010
,
1000
0000
1000
0000
0001
0000
0010
0000
0100
0000
0100
0000
0010
0000
0001
0100
,
0010
1000
0200
0000
0310
0010
0001
0001
,
0101
0000
0000
0101
0000
0000
0101
0000
1010
0000
0000
1000
0100
0000
0010
0000
,
0100
0000
0000
0100
0000
0000
1000
0000
0000
1000
0000
0000
0020
0000
0030
0000
,
0100
0000
0000
0100
0000
0000
0001
0000
0000
0001
0000
0000
0010
0000
0010
0000
,
0100
0000
0000
0100
0000
0000
100M
0000
0000
1000
0000
0000
0020
0000
0030
0000
,
0100
0000
0000
0100
0000
0000
00M1
0000
1000
0000
0100
0000
0010
0000
0001
0000
,
0100
0000
0000
0100
0000
0000
0010
0000
0000
0010
0000
0000
2000
0000
3000
0000
,
0100
0000
0000
0100
0000
0000
1000
0000
0000
1000
0000
0000
0010
0000
0100
0000
,
0001
0000
0000
0001
0000
0000
M010
0000
0000
0010
0000
0000
0100
0000
0000
0000
,
0010
0000
0000
0010
0000
0000
0M01
0000
0000
0001
0000
0000
1000
0000
0010
0000
,
0100
0100
0001
0001
1000
1000
0100
0100
,
1100
1000
1001
0001
0101
0100
0110
0010
,
1000
0100
0010
0001
1000
0010
0100
0001
1000
0100
0010
0001
1000
0010
0100
0001
,
2000
0000
0000
0000
,
3000
0000
0010
0010
1000
1000
0001
0000
,
1000
0100
1000
0100
0010
0001
0010
0001
1000
0010
1000
0010
0100
0001
0100
0001
1000
0001
1000
0001
1000
0001
1000
0001
,
0100
0010
0100
0010
0100
0001
0100
0001
0100
0001
1000
0001
1000
0000
0000
1000
0000
0000
0100
0000
0000
0000
0000
0000
,
0010
0001
0010
0001
1000
0010
1000
0010
0100
0001
0100
0001
0010
0100
0010
0100
1000
0100
1000
0010
0100
0010
0100
0001
,
0100
0010
0100
0010
1000
0100
0010
0001
1000
0100
0010
0001
1000
0000
0000
1000
0000
0000
0010
0000
0000
0000
0000
0000
,
0100
0001
0100
0001
0010
0100
0010
0100
1000
0100
1000
0010
0100
0010
0100
0001
1000
0001
1000
0001
0010
0100
1000
0010
,
0100
0001
0010
0100
1000
0010
0100
0001
0010
0001
0100
0010
1000
0000
0000
1000
0000
0000
0010
0000
0000
0000
0000
0000
,
0100
0001
0100
0001
0010
0001
0010
0001
1000
0001
1000
0010
1000
0010
0100
0010
0100
0001
0100
0001
0100
0010
1000
0100
,
0010
0000
0000
0010
0000
0000
0001
0000
1000
0000
0000
0010
1000
0000
0010
0000
,
0100
0001
0100
0001
0100
0001
0100
0001
0100
0001
0100
0001
0100
0001
0100
0001
0100
0001
0100
0001
0100
0001
0100
0001
,
0100
0000
0010
0010
1000
0000
0001
0000
,
0010
0100
0010
0100
1000
0001
1000
0001
0100
0001
0100
0010
1000
0100
0010
0001
1000
0100
1000
0010
0100
0010
0100
0001
,
0010
0001
0010
0100
1000
0100
1000
0010
0100
0010
0100
0001
0010
0000
0000
0010
0000
0000
0001
0000
0000
0000
0000
0000
,
1000
0010
1000
0010
1000
0010
1000
0010
1000
0010
1000
0010
1000
0010
1000
0010
1000
0010
1000
0010
1000
0010
1000
0010
,
1000
0000
0100
0100
0010
0000
0001
0000
,
1000
0010
1000
0010
0100
0001
0100
0001
0010
0100
1000
0010
0100
0001
0010
0001
0100
0010
0100
0010
0100
0001
1000
0001
,
1000
0000
0000
1000
0000
0000
0001
0000
0100
0000
0000
0100
0001
0000
0010
0000
,
0100
0000
0000
1000
0000
0000
0010
0000
0100
0000
0100
0000
0001
0000
0001
0000
,
0010
0010
0001
0001
2000
3020
0030
0100
,
0001
0001
0010
0010
0100
0100
1000
0010
,
0100
0010
1000
0001
0020
0230
0300
1000
,
0010
0100
0010
1000
0001
0001
1000
0100
,
0010
0100
1000
1000
0010
0100
0010
0010
,
1010
0000
0101
0000
0100
0100
0010
0010
,
1001
0000
0000
1001
0000
0000
1001
0000
1100
0000
0000
1000
0010
0000
0100
0000
,
0001
0010
0200
0000
0300
1000
0010
0010
,
0100
0100
0001
0010
0001
0001
0100
0010
,
1000
0100
0020
0000
0031
0001
0100
0100
,
0101
0000
0001
1000
0100
0100
1000
0010
,
0100
0010
0200
0000
0310
0010
1000
1000
,
0001
0001
0010
0010
0001
0001
0010
0001
,
1000
0010
0200
0000
0310
0010
0100
0100
,
0101
0000
0000
0101
0000
0000
0101
0000
1010
0000
0000
0010
1000
0000
0100
0000
,
1000
0000
0000
1000
0000
0000
0001
0000
0000
0001
0000
0000
0020
0000
0030
0000
,
0100
0000
0000
0100
0000
0000
1000
0000
0000
1000
0000
0000
0010
0000
0010
0000
,
0100
0000
0000
0100
0000
0000
M001
0000
0000
0001
0000
0000
0200
0000
0300
0000
,
0010
0000
0000
0010
0000
0000
10M0
0000
0100
0000
1000
0000
0010
0000
0100
0000
,
0001
0000
0000
0001
0000
0000
0010
0000
0000
0010
0000
0000
0002
0000
0003
0000
,
0010
0000
0000
0010
0000
0000
0001
0000
0000
0001
0000
0000
0100
0000
0010
0000
,
0100
0000
0000
0100
0000
0000
M010
0000
0000
0010
0000
0000
0100
0000
0000
0000
,
0010
0000
0000
0010
0000
0000
1M00
0000
0000
1000
0000
0000
0010
0000
0100
0000
,
0001
0001
0010
0010
0100
0100
1000
1000
,
1001
0001
1001
1000
1010
0010
0110
0100
,
0001
0010
0100
1000
0010
0100
0001
0010
0100
1000
0010
0100
0001
0010
0100
1000
,
0020
0000
0000
0000
,
0030
0000
1000
1000
0001
0001
0010
0000
,
0001
1000
0001
1000
0010
1000
0010
1000
0001
0100
0001
0100
0010
1000
0010
1000
0100
1000
0100
0010
0001
0010
0001
0010
,
0001
1000
0001
1000
0010
1000
0010
1000
0010
0100
0001
0100
0001
0000
0000
0001
0000
0000
0010
0000
0000
0000
0000
0000
,
0100
0010
0100
0010
0001
1000
0001
1000
0010
0100
0010
0100
0001
0010
0100
0010
0001
0010
0001
1000
0010
1000
0010
1000
,
0010
0100
0010
0100
0001
0010
0100
1000
0001
0010
0100
1000
0001
0000
0000
0001
0000
0000
0100
0000
0000
0000
0000
0000
,
0010
1000
0010
1000
0100
0010
0100
0010
0100
1000
0010
0100
0010
0100
0010
0100
0001
0100
0001
1000
0100
0010
0100
1000
,
0010
1000
0100
0010
0001
0100
0001
0100
0010
1000
0010
0100
0001
0000
0000
0001
0000
0000
0100
0000
0000
0000
0000
0000
,
0010
1000
0010
1000
0100
1000
0100
0010
0100
0010
0001
1000
0001
1000
0010
0100
0010
0100
0010
1000
0010
0100
0001
0010
,
0001
0000
0000
0001
0000
0000
1000
0000
0100
0000
0000
0010
0001
0000
0100
0000
,
0001
1000
0001
1000
0001
1000
0001
1000
0001
1000
0001
1000
0001
1000
0001
1000
0001
1000
0001
1000
0001
1000
0001
1000
,
0001
0000
0100
0100
0001
0000
1000
0000
,
0100
0010
0100
0010
0100
1000
0100
1000
0010
1000
0010
0100
0010
1000
0001
1000
0001
0010
0100
0010
0001
1000
0001
1000
,
0010
1000
0010
0100
0001
0100
0001
0010
0100
0010
0100
1000
0100
0000
0000
0100
0000
0000
1000
0000
0000
0000
0000
0000
,
0001
0100
0001
0100
0001
0100
0001
0100
0001
0100
0001
0100
0001
0100
0001
0100
0001
0100
0001
0100
0001
0100
0001
0100
,
0001
0000
0010
0010
0001
0000
1000
0000
,
0001
0100
0001
0100
0010
1000
0010
1000
0001
0010
0001
1000
0100
1000
0100
1000
0010
0100
0010
0100
0001
0010
0001
0010
,
0001
0000
0000
0001
0000
0000
1000
0000
0010
0000
0000
0010
1000
0000
0001
0000
,
0010
0010
0100
0000
0000
0010
0001
0001
,
1000
1000
0010
0000
0000
0000
0100
0100
,
0001
0001
0010
0010
0110
0000
1100
0000
,
1000
0010
0100
0000
0000
0000
0000
0000
,
0010
0010
0100
0000
0000
0010
1000
1000
,
0100
0100
0010
0000
0000
0000
0001
0001
,
0100
0100
0010
0010
0110
0000
0101
0000
,
0100
0001
1000
0100
0010
0001
1000
0000
,
0020
0000
0130
0100
0001
0001
0010
0000
,
0011
0000
0000
0011
0000
0000
0011
0000
1100
0000
0000
0100
1000
0000
0010
0000
,
0100
0001
0100
0001
0100
0001
0100
0001
0100
0001
0100
0001
0100
0001
0100
0001
0100
0001
0100
0001
0100
0001
0100
0001
,
0100
0000
0010
0010
1000
0000
0100
0000
,
0010
0001
0010
0001
1000
0010
1000
0010
0100
0001
0100
0001
1000
0001
1000
0001
1000
0100
0010
0001
1000
0100
1000
0010
,
0100
0010
0100
0001
0100
0010
1000
0100
0010
0001
1000
0100
1000
0000
0000
1000
0000
0000
0010
0000
0000
0000
0000
0000
,
1000
0001
1000
0001
1000
0001
1000
0001
1000
0001
1000
0001
1000
0001
1000
0001
1000
0001
1000
0001
1000
0001
1000
0001
,
1000
0000
0100
0100
1000
0000
0010
0000
,
0100
0001
0100
0001
1000
0001
1000
0001
0010
0100
1000
0010
0100
0001
0010
0100
1000
0010
0100
0001
0010
0001
0100
0010
,
0100
0000
0000
0100
0000
0000
0001
0000
0010
0000
0000
0010
0100
0000
1000
0000
,
0020
0000
0130
0100
0010
0010
1000
0000
,
1111
0000
0000
0000
,
0000
0000
0000
0000
,
0000
0000
0000
0000
,
MMMM
0000
0000
0000
;
