#TITLE:Triple Journey -TAG EDITION-;
#SUBTITLE:;
#ARTIST:Triumvirate;
#TITLETRANSLIT:;
#SUBTITLETRANSLIT:;
#ARTISTTRANSLIT:;
#GENRE:;
#CREDIT:;
#MUSIC:Triple Journey -TAG EDITION-.ogg;
#BANNER:Triple Journey -TAG EDITION-.png;
#BACKGROUND:Triple Journey -TAG EDITION--bg.png;
#CDTITLE:;
#SAMPLESTART:61.875;
#SAMPLELENGTH:15.000;
#SELECTABLE:YES;
#OFFSET:0.000;
#BPMS:0.000=96.000
,20.000=192.000
;
#STOPS:;
#ORIGIN:;
#PREVIEWVID:;
#JACKET:Triple Journey -TAG EDITION--jacket.png;
#CDIMAGE:;
#DISCIMAGE:;
#BGCHANGES:;
#FGCHANGES:;

//--------------- dance-single - ----------------
#NOTES:
     dance-single:
     :
     Hard:
     16:
     0.878853,1.178493,0.380927,0.18094,0.661861,646,606,40,19,0,0,0,0,0,0.878853,1.178493,0.380927,0.18094,0.661861,646,606,40,19,0,0,0,0,0:
0000
0000
0000
0000
,
1001
0000
0000
0100
0010
0000
0000
0011
0000
0001
0100
0000
0110
0000
0000
0000
,
1010
0000
0000
0000
0000
0000
0100
0000
0010
0000
0000
0000
0000
0000
0011
0000
0000
0000
1000
0100
1000
0000
0001
0000
0010
0000
0100
0000
0000
0000
0100
0000
,
0110
0000
0000
1000
0010
0000
0000
0101
0000
1000
0001
0000
0100
0000
0010
0000
,
1000
0000
0000
0010
0000
0000
0001
0000
0100
0000
0000
2000
0000
0000
0002
0000
0000
0000
0000
0000
0000
0000
3003
0000
0000
0000
0110
0000
0000
0000
0000
0000
,
0011
0100
0010
0001
0100
0010
1000
0100
,
0010
0000
0010
0000
0100
0000
0010
0000
0001
1000
0010
0000
0100
0000
0010
0000
,
1010
0100
0010
1000
0100
0010
0001
0100
,
0010
0000
0010
0000
0100
0010
0100
0000
0010
1000
0100
0010
0001
0000
0011
0000
,
0000
0001
1000
0100
0010
0001
1000
1010
,
0000
0100
0010
0101
0000
0010
1000
1100
,
0000
0000
0001
0000
0010
0000
0100
0000
1000
0001
0100
0001
1000
0100
2000
0000
,
0000
0001
0001
3001
,
0010
1000
0100
1000
0001
0100
0010
1000
,
0001
0000
1000
0000
0100
0000
0010
0001
0100
0000
0010
0000
1000
0000
1000
0001
,
0100
0010
0100
1000
0100
0001
1000
0100
,
0010
0000
0001
0000
1000
0000
0001
0100
0010
0000
1000
0000
0100
0010
0001
0100
,
0010
0100
0010
1000
0010
0001
1000
0100
,
0001
0000
0010
0000
0100
0000
1000
0000
0001
0000
0100
0000
0010
1000
0001
1000
,
0200
0000
1000
1300
0000
0010
0100
0010
,
0000
0000
0010
0000
0100
0001
0010
0000
0100
0000
1000
0000
0010
0000
1000
0000
,
0010
0000
1000
0010
1000
0000
0001
0000
0010
0001
0010
0000
0100
0000
0010
0100
,
0010
0000
0001
0000
1000
0001
1000
0000
0001
0000
0100
0000
0010
0000
0100
0000
,
0010
0000
0100
0010
0100
0000
0001
0000
1000
0100
1000
0000
0100
0000
0010
0001
,
0000
0000
0001
1000
0000
0000
0100
1000
0010
0000
1000
0000
0001
0100
0001
0100
,
0010
0000
1000
0001
0010
0000
0001
0000
1000
0001
0100
0000
0001
0000
1000
0001
,
0010
0000
0100
0000
1000
0001
0100
0000
0010
0100
0010
0000
1000
0100
0010
0000
,
0001
0100
0001
0100
0010
1000
0100
0010
,
0000
0000
0010
0000
0001
0010
0100
0000
1100
0000
0000
0000
1001
0000
0000
0000
,
1000
0001
0100
2000
0000
3100
0001
1000
,
0000
0000
0100
0000
0010
0000
0000
0000
0001
1000
0000
1000
0001
0000
0010
0000
,
0001
1000
0100
0002
0000
0103
1000
0001
,
0000
0100
0010
1000
0000
1000
0010
0000
,
0110
0000
1000
0200
0000
0310
0001
0100
,
0000
0100
1000
0100
0010
0100
0001
0100
,
1010
0000
0001
0011
0000
0100
0101
0000
,
1000
1010
0000
0010
1001
0000
1001
0000
,
1000
0001
0010
2000
0000
3010
0001
2000
,
0000
0000
3010
0000
0100
0000
0000
0000
0001
1000
0000
1000
0001
0000
0100
0000
,
0001
1000
0010
0002
0000
0013
1000
0001
,
0000
0001
0010
0100
0000
0100
1000
0000
,
0110
0000
0001
1001
0000
0100
0110
0000
,
0010
1010
0000
0001
0011
0000
1100
0000
,
0001
0000
0100
0000
0010
0000
0100
0000
0001
0010
0100
1000
0001
0100
0010
0000
,
0000
0000
0100
0000
0110
0000
0000
0000
1000
0100
0010
0000
0001
0000
1000
0000
,
0010
0000
1000
0010
0100
0000
0001
0010
0000
0000
0010
0001
0000
0000
0100
0010
,
0000
0000
1000
0100
0000
0000
0100
0010
0000
0000
0010
0100
2000
0000
0000
0000
,
3001
0000
0001
0010
0100
0000
0010
0001
0000
0000
0100
0010
0000
0000
1000
0001
,
0000
0000
0001
0010
0000
0000
0100
1000
0000
0000
0001
1000
0200
0000
0000
0000
,
1300
0000
0100
1000
0001
0000
0010
0001
0000
0000
1000
0010
0000
0000
0001
1000
,
0000
0000
0100
0001
0000
0000
0001
1000
0000
0000
0100
0000
0100
1000
0100
0000
,
0010
0001
0100
0000
0010
0000
1000
0000
0100
0010
0001
0000
0100
0000
0010
0000
,
1000
0100
0010
0000
0001
0000
0001
0000
0100
0000
0010
0000
1000
0100
1000
0100
,
1000
0000
0001
0100
0010
0000
1000
0001
0000
0000
0001
1000
0000
0000
0010
0100
,
0000
0000
0001
0010
0000
0000
0010
0100
0000
0000
0100
1000
0002
0000
0000
0000
,
0013
0000
0010
0100
0010
0000
0100
1000
0000
0000
0010
0100
0000
0000
0001
1000
,
0000
0000
1000
0100
0000
0000
0010
0001
0000
0000
1000
0001
0020
0000
0000
0000
,
0031
0000
0010
0001
1000
0000
0100
0010
0000
0000
1001
0000
0000
0000
2002
0000
,
0000
0000
3003
0000
,
0010
0000
0001
1000
0001
0000
0010
0000
0010
0000
1000
0001
1000
0000
0010
0000
,
0010
0000
0001
1000
0001
0000
0010
0000
0010
0000
1000
0001
1000
0000
0010
0000
,
2010
0001
0000
0001
0000
0001
3000
0001
,
0012
1000
0000
1000
0000
1000
0003
1000
,
1100
0000
0000
0000
0001
0100
0001
0100
0010
0000
0000
0000
1000
0100
1000
0100
,
0010
0001
0010
0000
0001
0100
0001
0000
1000
0010
0100
0001
0010
0100
1000
0000
,
1010
0100
0010
1000
0100
0010
0001
0100
,
0010
0000
0010
0000
0100
0000
0010
0000
1000
0001
0010
0000
0100
0000
0010
0000
,
0011
0100
0010
0001
0100
0010
1000
0100
,
0010
0001
0010
0000
0100
0010
0100
0000
1000
0100
0010
0001
1000
0000
1010
0000
,
0000
1000
0001
0100
0010
1000
0001
0011
,
0000
0100
0010
1100
0000
0010
0001
0101
,
0000
0000
1000
0000
0010
0000
0100
0000
0001
1000
0100
1000
0001
0100
0002
0000
,
0000
0100
0100
0103
,
1000
0010
1000
0010
1000
0000
0001
0010
0001
0010
0001
0000
0100
0010
0100
0010
,
0100
0000
0010
0100
0010
0100
0010
0000
1000
0010
1000
0001
0010
0001
1000
0001
,
1000
0000
0000
0000
;
