#TITLE:Never See You Again;
#SUBTITLE:;
#ARTIST:BEMANI Sound Team "U1 overground";
#TITLETRANSLIT:;
#SUBTITLETRANSLIT:;
#ARTISTTRANSLIT:;
#GENRE:;
#CREDIT:;
#MUSIC:Never See You Again.ogg;
#BANNER:Never See You Again.png;
#BACKGROUND:Never See You Again-bg.png;
#CDTITLE:;
#SAMPLESTART:26.647;
#SAMPLELENGTH:12.000;
#SELECTABLE:YES;
#OFFSET:-1.174;
#BPMS:0.000=160.000
,68.000=80.000
,84.000=160.000
;
#STOPS:;
#BGCHANGES:;
#FGCHANGES:;

//--------------- dance-single - ----------------
#NOTES:
     dance-single:
     :
     Hard:
     15:
     0.665731,1.006919,0.118881,0.372493,0.752911,588,573,15,47,0,0,0.665731,1.006919,0.118881,0.372493,0.752911,588,573,15,47,0,0:
0000
0000
0000
0000
,
0000
0000
0000
0000
,
0000
0000
0000
0000
,
0000
0000
0000
0000
,
0000
0000
0000
0000
,
0001
0100
0010
1000
0100
0010
0001
0000
,
1000
0100
0010
0100
1000
0010
0100
0001
,
0020
0000
0000
0000
,
0030
0000
0000
0000
,
0001
0000
0100
0000
0010
1000
0000
0010
1000
0000
0100
0000
0010
0000
0000
0000
,
0100
1000
0020
0000
0130
0001
0010
0001
,
1000
0000
0100
0000
0010
0001
0000
0010
0001
0000
0100
0000
0010
0000
0000
0000
,
0100
0001
0010
0000
0200
0000
2300
0000
,
3001
0000
0000
0000
0000
0000
0100
0000
0000
0000
0000
0000
0010
0000
0000
1000
0000
0000
0000
0000
0000
0010
0000
0000
1000
0000
0000
0000
0100
0000
0000
0000
1000
0000
0000
0000
0001
0000
0000
0000
0100
0000
0000
0000
0001
0000
0000
0000
,
0010
0100
0020
0000
0031
0100
0010
0000
,
1000
0100
0010
0000
0100
0010
0001
0000
1000
0000
0010
0000
0100
0000
0001
0000
,
1000
0100
1000
0010
0100
0010
1000
0100
0010
0001
0000
0000
,
2000
0000
0000
0000
0000
0000
0000
0000
0000
0010
0000
0000
3000
0000
0000
0000
0000
0000
0000
0000
0000
0000
0000
0000
0001
0000
0000
0000
1000
0000
0000
0000
0001
0000
0000
0000
0010
0000
0000
0000
0100
0000
0000
0000
1000
0000
0000
0000
0001
0000
0000
0000
0000
0000
0100
0000
0000
0000
0000
0000
1000
0000
0000
0000
0000
0000
0000
0000
0000
0000
0000
0000
0100
0000
0000
0000
0000
0000
0010
0000
0000
0000
0000
0000
1000
0000
0000
0001
0000
0000
0000
0000
0000
0000
0000
0000
,
0100
0000
0000
0000
0000
0000
0010
0000
0000
0000
0000
0000
0001
0000
0000
0000
0000
0000
0000
0000
0000
0000
0000
0000
0011
0000
0000
0000
0000
0000
0000
0000
0000
0001
0000
0000
1000
0000
0000
0000
0000
0000
0010
0000
0000
0000
0000
0000
0100
0000
0000
0000
0000
0000
0001
0000
0000
0000
0000
0000
0001
0000
0000
0000
0000
0000
0001
0000
0000
0000
0000
0000
1000
0000
0000
0000
0100
0000
0000
0000
0010
0000
0000
0000
0001
0000
0000
0000
0000
0000
0000
0000
0000
0000
0000
0000
,
0001
0010
0200
0000
2300
0000
3001
0100
0001
0000
0100
0001
0011
0000
1010
0000
,
1000
0000
0000
0100
0001
0000
0010
0000
0100
0000
0000
0000
1000
0000
0010
0000
2000
0000
0000
0000
3001
0000
0100
0000
1000
0000
0100
0000
0001
0000
0010
0000
,
0100
0000
0110
0000
0001
0100
1000
0100
,
0002
0000
0000
0000
0023
0000
0000
0000
0031
0000
1000
0000
0010
0100
0001
0000
,
1000
0100
0021
0000
0130
1000
0010
1000
,
0100
0000
0000
0010
0000
0000
0010
0000
0000
0010
0000
0000
0001
0000
0100
0000
0010
0000
1000
0000
0000
0100
0000
0000
,
1000
0010
1020
0000
0230
0000
0301
1000
,
0100
0000
0010
0000
0001
0100
0001
0000
0000
0000
1000
0100
1000
0000
0010
0000
,
0100
0010
1020
0000
0130
0001
1000
0001
,
0020
0000
0000
0000
0130
0000
1000
0000
0010
0100
0010
0000
1000
0000
0100
0000
,
0010
0000
0000
0000
0000
0000
0010
0000
0000
0001
0000
0000
2000
0000
0000
0000
0000
0000
0000
0000
0000
0000
0000
0000
3010
0000
0000
0100
0000
0000
0010
0000
0000
0000
0000
0000
1000
0000
0000
0000
0100
0000
0000
0000
1000
0000
0000
0000
,
0010
0000
0000
0000
0000
0000
0010
0000
0000
0100
0000
0000
0002
0000
0000
0000
0000
0000
0000
0000
0000
0000
0000
0000
1003
0000
0000
0000
0100
0000
0000
0000
1000
0000
0000
0000
0010
0000
0000
0000
0000
0000
0010
0000
0000
0000
0000
0000
,
0100
0001
1000
0001
0020
0000
0130
1000
,
0001
0000
0000
1000
0000
0000
0010
0000
0000
1000
0000
0000
0100
0000
0010
0000
0001
0000
1000
0000
0010
0000
0100
0000
,
0001
0000
0000
0000
0000
0000
0001
0000
0000
1000
0000
0000
0020
0000
0000
0000
0000
0000
0000
0000
0000
0000
0000
0000
0130
0000
0000
0001
0000
0000
0100
0000
0000
0000
0000
0000
0001
0000
0000
0000
0010
0000
0000
0000
0100
0000
0000
0000
,
1000
0000
1000
0100
0010
0000
0010
0000
0001
0100
0001
0100
0010
0000
1000
0000
,
0100
0010
0001
0010
2000
0000
3001
0100
,
1000
0000
0000
1000
0000
0000
0010
0000
0000
0010
0000
0000
0100
0000
0001
0000
1000
0000
0100
0000
0010
0000
0001
0000
,
0100
0000
0000
0000
0101
0000
0000
0000
0010
0000
0000
0110
0000
0010
1000
0000
,
0001
0000
0000
0000
0011
0000
0000
0000
1000
0000
0000
1001
0000
1000
0100
0000
,
0001
0000
0000
0000
0101
0000
0000
0000
0010
0000
0000
0110
0000
0010
0001
0000
,
0001
0000
0000
0000
0101
0000
0000
0000
0010
0000
0000
0110
0000
0010
1000
0000
,
0001
0000
0100
0000
0001
0000
1000
0000
0010
1000
0000
1000
0000
0010
0100
0000
,
1000
0000
0001
0000
0100
0000
0100
0000
0010
1000
0000
1000
0000
0100
0010
0000
,
0001
0010
1000
0010
0001
0100
1000
0100
,
0001
0000
0010
0001
2000
0000
0000
0000
3010
0000
0100
0000
0100
0000
0010
0000
,
0200
0000
0000
0000
,
0320
0000
0000
0000
,
2030
0000
0000
0000
,
3002
0000
0000
0000
,
0023
0100
0100
0100
,
0032
1000
1000
1000
,
0203
0010
0010
0010
,
0302
1000
1000
1000
,
0013
0000
0001
0000
0100
0010
1000
0010
0100
0000
0001
0000
0010
0000
0100
1000
,
0002
0000
0013
0100
1000
0000
1000
0000
,
1000
0000
0100
0000
0010
0001
1000
0001
0010
0000
0100
0000
1000
0000
0010
0100
,
0002
0000
1003
0100
0020
0000
0031
0000
,
0001
0000
0100
0000
0010
1000
0001
1000
0010
0000
0100
0000
0001
0000
0010
0000
,
0200
0000
0000
0000
1300
0000
0010
0000
1000
0000
0100
0000
0010
0000
0001
1000
,
0001
0000
0100
0000
0010
1000
0001
1000
0010
0000
0100
0000
0001
0000
0010
0100
,
2000
0000
0000
0000
0000
0000
0000
3000
,
0001
1000
0010
1000
0001
0100
0010
0100
0001
1000
0100
1000
,
0020
0000
0230
0000
0302
0000
0023
0000
0230
0000
2300
0000
,
3001
0100
0010
0100
0001
0010
0100
0010
0001
1000
0010
0100
,
0001
1000
0100
1000
0001
0100
0020
0000
2030
0000
3200
0000
,
0310
0001
0010
0100
1000
0001
1000
0010
0100
0001
1000
0001
,
0010
0100
1000
0001
0100
0001
1000
0100
0010
0100
1000
0001
,
0100
0010
1000
0010
0100
0010
1000
0001
0010
0001
1000
0001
,
0010
0100
1000
0100
0010
0001
1000
0010
0100
0001
0000
0000
,
1000
0100
0010
0001
1000
0000
0001
0010
0100
1000
0001
0000
1000
0001
0000
0000
,
0020
0000
0000
0000
0031
0000
0000
0000
0000
0100
0010
1000
0002
0000
0000
0000
,
1003
0100
0010
0001
0100
0010
1000
0001
1000
0100
0010
0001
0100
0010
1000
0001
,
1000
0010
0000
0100
0000
0100
0000
0001
1000
0000
0001
0000
0000
0000
0000
0001
,
1000
0000
0010
1000
0000
0001
1000
0000
0100
1000
0000
0001
1000
0000
0010
0100
,
0001
0100
0010
0000
1000
0010
0000
1000
0001
0000
1000
0100
0000
0000
0000
0000
,
0001
0010
0100
1000
0010
0100
0001
1000
0100
0001
0100
1000
0010
0100
0001
0100
,
0020
0000
0000
0000
,
0030
0000
0000
0000
;
