#TITLE:紅焔;
#SUBTITLE:;
#ARTIST:PON;
#TITLETRANSLIT:Kouen;
#SUBTITLETRANSLIT:;
#ARTISTTRANSLIT:;
#GENRE:;
#CREDIT:;
#BANNER:Kouen.png;
#BACKGROUND:Kouen-bg.png;
#LYRICSPATH:;
#CDTITLE:;
#MUSIC:Kouen.ogg;
#OFFSET:0.000000;
#SAMPLESTART:51.790001;
#SAMPLELENGTH:15.000000;
#SELECTABLE:YES;
#DISPLAYBPM:175.000000;
#BPMS:0.000000=175.610001
,4.000000=174.992996
;
#STOPS:
;
#BGCHANGES:;
#KEYSOUNDS:;
#ATTACKS:;

//---------------dance-single - ----------------
#NOTES:
     dance-single:
     :
     Challenge:
     15:
     0.784874,0.971993,0.593719,0.283567,0.620303,620.000000,553.000000,67.000000,32.000000,0.000000,0.000000,0.784874,0.971993,0.593719,0.283567,0.620303,620.000000,553.000000,67.000000,32.000000,0.000000,0.000000:
// measure 0
0000
0000
0000
0000
,  // measure 1
0000
0000
0000
0000
,  // measure 2
0000
0000
0000
0000
,  // measure 3
0001
0100
0001
0100
0000
0010
0100
0000
0001
0100
0001
0100
0000
0010
0100
0000
,  // measure 4
0001
0100
0001
0100
0000
0010
0100
0000
0110
0000
0000
0000
0001
0000
0010
0000
,  // measure 5
0100
1010
0100
0011
,  // measure 6
1000
0000
0110
0000
0002
0000
1003
0100
,  // measure 7
0010
0101
0010
1100
,  // measure 8
2002
0000
0000
0000
3003
0000
0010
0100
,  // measure 9
1000
0101
1000
0011
,  // measure 10
1100
0000
1010
0000
2001
0000
3100
0010
,  // measure 11
0001
0000
0000
0000
0011
0000
0000
0000
0101
0000
0000
2002
0000
0000
3003
0000
,  // measure 12
1000
0000
0000
1010
0000
0000
0010
0000
1000
0000
0000
1001
0000
0000
0100
0000
,  // measure 13
0100
0000
0000
1010
0000
0000
0100
0000
0010
0000
1000
0000
0100
0000
0010
0000
,  // measure 14
0001
0000
0000
0011
0000
0000
0010
0000
0010
0000
0000
1001
0000
0000
0100
0000
,  // measure 15
0100
0000
0000
0011
0000
0000
0100
0000
0010
0000
0001
0000
0010
0000
0100
0000
,  // measure 16
1000
0000
0000
1001
0000
0000
1000
0000
0100
0000
0000
1100
0000
0000
0001
0000
,  // measure 17
0100
0000
0000
0110
0000
0000
0100
0000
0001
0000
0010
0000
0010
0000
0100
0000
,  // measure 18
1000
0100
1000
0100
0000
0010
0100
0000
1000
0100
1000
0100
0000
0010
0100
0000
,  // measure 19
1000
0100
1000
0100
0000
0010
0100
0000
1000
0100
1000
0001
0100
0001
0100
0010
,  // measure 20
0100
0000
0010
1000
0010
1000
0100
1000
,  // measure 21
0010
0001
0010
0000
1000
1000
0010
0000
,  // measure 22
0001
0000
0000
0100
0000
0000
0001
0000
1000
0000
0000
0010
0000
0000
0100
0000
,  // measure 23
0010
0000
0000
0001
0000
0000
0010
0000
1000
0010
1000
0000
0100
0000
1000
0000
,  // measure 24
1100
0000
1000
0010
0001
0010
0100
0010
,  // measure 25
1000
0100
0001
0100
0010
0100
1000
0100
,  // measure 26
1000
0000
0000
0010
0000
0000
1000
0000
0001
0000
0000
0100
0000
0000
0010
0000
,  // measure 27
0100
0000
0000
1000
0000
0000
0100
0000
0001
0100
0001
0000
0010
0000
0001
0000
,  // measure 28
1001
0000
0000
0001
0000
0000
0100
0000
0010
0000
1000
0000
0100
0000
0010
0000
,  // measure 29
0001
0000
0000
0010
0000
0000
0010
0000
0000
0000
0000
0000
0010
0000
0100
0000
,  // measure 30
0200
0000
0000
0300
0010
1000
0100
0010
,  // measure 31
0001
0000
0000
1000
0000
0000
0010
0000
0001
0100
0010
0000
1000
0100
0010
0000
,  // measure 32
0001
0001
0100
0010
1000
0100
1000
1000
,  // measure 33
0010
0000
0000
0001
0000
0000
0010
0000
0000
0000
0000
0000
0100
0000
0010
0000
,  // measure 34
0001
0000
0110
0000
0000
0000
0001
0000
1000
0000
0110
0000
0000
0000
1000
0100
,  // measure 35
0010
0000
0000
1100
0000
0000
0012
0000
0000
0000
0000
0000
0103
0000
0000
0000
,  // measure 36
1000
0100
0010
0001
0100
0010
0001
0010
,  // measure 37
0100
0000
0000
0100
0000
0000
0010
0000
1001
0000
0110
0000
1000
0000
0010
0000
,  // measure 38
2002
0000
0000
0000
3003
0000
0000
0000
1000
0000
0000
0001
0000
0000
0010
0000
,  // measure 39
0100
0010
0100
0000
0020
0000
0000
0000
0030
0000
0000
0000
0010
0000
0100
0000
,  // measure 40
1000
0000
0010
0000
0001
0000
0010
0000
0100
0000
0000
0001
0000
0001
1000
0000
,  // measure 41
0100
0010
0012
0000
0003
0000
0100
0010
,  // measure 42
2010
0000
0000
0000
3000
0000
0000
0000
0010
0000
0000
0001
0000
0001
0100
0000
,  // measure 43
0010
0100
0020
0000
0030
0000
0001
1000
,  // measure 44
1100
0000
0011
0000
0001
1000
0010
0001
,  // measure 45
0010
0100
0010
0100
0000
0001
0100
0000
0001
0000
1000
0010
0100
0001
1000
0000
,  // measure 46
0010
1000
0001
0000
0000
0000
0000
0000
0101
0000
0000
1001
0000
0000
1100
0000
,  // measure 47
0010
0100
0020
0000
0030
0000
0001
0100
,  // measure 48
0010
0000
1000
0000
0100
0000
0010
0000
1001
0000
0000
1001
0000
0000
0101
0000
,  // measure 49
0110
0000
0000
0110
0000
0000
1010
0000
1001
0000
0000
0000
0001
0000
0100
0000
,  // measure 50
1020
0000
0000
0000
0030
0000
0000
0000
0001
0000
0000
1000
0000
1000
0001
0000
,  // measure 51
0010
0100
0021
0000
0030
0000
1000
0100
,  // measure 52
0001
0000
0010
0000
0001
0000
0100
0000
0010
0000
0000
0101
0000
0000
0000
0000
,  // measure 53
0001
0000
0010
0000
1000
0000
0100
0000
1000
0000
0000
1010
0000
0000
0000
0000
,  // measure 54
0001
1000
0001
1000
0000
0001
0010
0000
0001
0000
0100
0000
0010
0000
1000
0000
,  // measure 55
0001
0000
0010
0000
0001
0000
0000
0010
0001
0100
0010
0000
1000
0000
0000
0000
,  // measure 56
0001
0010
0001
0010
0000
0001
1000
0000
0010
0000
0100
0000
0001
0000
1000
0000
,  // measure 57
0010
0000
0000
0000
0000
0000
0000
0000
0000
0000
0000
0000
0100
0000
0000
0000
0000
0000
0000
0000
0000
0000
0000
0000
0001
0000
0000
0000
0000
0000
0000
0000
0000
0000
0000
0000
0000
0000
0000
0000
0000
0000
0000
0000
0000
0000
0000
0000
1000
0000
0000
0000
0000
0000
0000
0000
0000
0000
0000
0000
0100
0000
0000
0000
0000
0000
0000
0000
0000
0000
0000
0000
1000
0000
0000
0000
0000
0000
0000
0000
0000
0000
0000
0000
0000
0000
0000
0000
0000
0000
0000
0000
0000
0000
0000
0000
0010
0000
0000
0000
0000
0000
0000
0000
0000
0000
0000
0000
0100
0000
0000
0000
0000
0000
0000
0000
0000
0000
0000
0000
0001
0000
0000
0000
0000
0000
0000
0000
0000
0000
0000
0000
0100
0000
0000
0000
0000
0000
0000
0000
0000
0000
0000
0000
0020
0000
0000
0000
0000
0000
0000
0000
0000
0000
0000
0000
0000
0000
0000
0000
0000
0000
0000
0000
0000
0000
0000
0000
0000
0000
0000
0000
0000
0000
0000
0000
0000
0000
0000
0000
0000
0000
0000
0000
0000
0000
0000
0000
0000
0000
0000
0030
,  // measure 58
1000
0100
1000
0100
0000
1000
0010
0000
0100
0000
0001
0000
1000
0000
0010
0000
,  // measure 59
0001
0010
1000
0100
0010
0100
1000
0100
0010
0001
0010
0001
,  // measure 60
0001
1000
0001
1000
0000
0010
0100
0000
0010
0000
0100
0000
0001
1000
0001
0000
,  // measure 61
0200
0301
0020
1030
2000
3010
0002
0013
,  // measure 62
1000
0000
0000
0100
0001
0000
0000
0010
1000
0000
0100
0000
0010
0000
0001
0000
,  // measure 63
1000
0000
0000
1000
0010
0000
0000
0001
0100
0000
0010
0000
0100
0000
0001
0000
,  // measure 64
1000
0010
0000
0010
0100
0000
0100
0001
0000
0001
0010
0000
0010
0001
0000
0001
,  // measure 65
1000
0000
0001
0010
0100
1000
0000
0000
0010
0000
0100
0000
0001
1000
0001
0100
,  // measure 66
0001
0000
0000
0101
0000
0000
1000
0000
0000
1100
0000
0000
0001
0000
0000
0011
,  // measure 67
0000
0000
1010
0000
0000
0110
0000
0000
0101
0000
0010
0000
0001
0000
1000
0000
,  // measure 68
0210
0010
2300
3001
,  // measure 69
0002
1000
0023
0130
,  // measure 70
2100
0010
3002
0103
,  // measure 71
0020
1000
0230
0301
,  // measure 72
1100
0000
0000
0000
0101
0000
0000
0000
1100
0000
0000
0101
0000
0000
0000
0000
,  // measure 73
1010
0000
0000
0000
0011
0000
0000
0000
1010
0000
0000
0011
0000
0000
0000
0000
,  // measure 74
1000
0000
0000
0010
1000
0000
0001
0000
1000
0000
0000
0010
1000
0000
0100
0000
,  // measure 75
1000
0000
0000
0010
1000
0000
0001
0000
1000
0001
0010
0000
0010
0001
1000
0000
,  // measure 76
0001
0000
0000
0100
0001
0000
0100
0000
0010
0000
0000
1000
0100
0000
1000
0000
,  // measure 77
0100
0000
0000
0010
0001
0000
0010
0000
0001
1000
0001
1000
0010
0100
0010
0100
,  // measure 78
0002
0000
0000
0003
,  // measure 79
1000
0100
0010
0001
0000
0100
0010
0000
1000
0100
0010
0001
0000
0100
0010
0000
,  // measure 80
1000
0100
0010
0001
0000
0100
0010
0000
1000
0100
0010
0001
0010
0100
1000
0001
,  // measure 81
0200
0300
0000
0000
;
