#TITLE:Everlasting Resort;
#SUBTITLE:;
#ARTIST:SUPER STAR -MITSURU-;
#TITLETRANSLIT:;
#SUBTITLETRANSLIT:;
#ARTISTTRANSLIT:;
#GENRE:;
#CREDIT:;
#BANNER:Everlasting Resort.png;
#BACKGROUND:Everlasting Resort-bg.png;
#LYRICSPATH:;
#CDTITLE:;
#MUSIC:Everlasting Resort.mp3;
#OFFSET:-0.043559;
#SAMPLESTART:100.432083;
#SAMPLELENGTH:12.000000;
#SELECTABLE:YES;
#BPMS:0.000000=148.000000
,132.000000=74.000000
,148.000000=148.000000
;
#STOPS:
;
#BGCHANGES:3.500=beatmania IIDX Resort Anthem ENDING.mp4=1.000=0=0=1=====,
99999=-nosongbg-=1.000=0=0=0 // don't automatically add -songbackground-
;
#KEYSOUNDS:;
#ATTACKS:;

//---------------dance-single - ----------------
#NOTES:
     dance-single:
     :
     Edit:
     14:
     0.618990,0.722518,0.139491,0.244109,0.627708,497.000000,481.000000,16.000000,28.000000,0.000000,1.000000,0.618990,0.722518,0.139491,0.244109,0.627708,497.000000,481.000000,16.000000,28.000000,0.000000,1.000000:
0000
0000
0000
0000
,
0000
0010
0100
0010
0001
0010
0100
0020
,
0000
0000
0000
0030
,
0000
0100
0010
0100
0001
0100
0010
0200
,
0000
0000
0302
0023
,
0030
0100
0010
0100
0001
0100
0010
0200
,
0000
0000
0000
0300
,
0000
0010
0100
0010
0001
0010
0100
0010
,
2000
0000
0000
3020
0000
0000
0230
0000
,
1300
0000
0010
0000
0100
0001
0000
0001
0100
0000
0010
0000
0100
0000
0010
0000
,
1000
0000
0010
0000
0100
1000
0000
1000
0100
0000
0010
0000
0100
0000
0010
0000
,
1000
0000
0100
0000
0010
0001
0000
0001
0010
0000
0100
0000
0010
0000
0100
0000
,
1000
0000
0001
0000
0010
1000
0000
1000
0010
0000
0100
0000
0010
0000
0100
0000
,
1000
0000
0100
0001
0000
0001
0100
0000
0001
0000
0100
1000
0000
1000
0100
0000
,
0010
0000
1000
0001
0000
0001
1000
0000
0100
0000
0001
1000
0000
1000
0001
0000
,
1000
0010
0100
0000
0001
0100
0010
0000
1000
0001
0010
0000
0001
1000
0001
0100
,
2002
0000
3000
0100
0000
0010
1003
0010
,
2001
0000
3000
0010
0100
1000
0000
0001
0000
0000
0010
0000
0100
0000
0001
0000
,
1000
0000
0100
0010
0000
0010
0100
0000
0001
0000
0010
0100
0000
0100
0010
0000
,
1000
0000
0000
1000
0100
0010
0000
0001
0000
0000
0010
0000
0100
0000
0010
0000
,
1000
0000
0001
0100
0000
0100
0001
0000
2000
0000
0001
0000
3200
0000
0001
0000
,
0310
0000
0000
0001
1000
0010
0000
0100
0000
0000
0001
0000
1000
0000
0100
0000
,
0001
0000
0100
0010
0000
0010
0100
0000
0001
0000
0010
0100
0000
0100
0010
0000
,
0100
0000
0000
1000
0001
0100
0000
0010
0000
0000
1000
0000
0001
0000
0010
0000
,
0100
0000
0000
1000
0000
0000
0001
0000
0000
1000
0000
0000
0010
0000
1000
0000
,
1010
0000
0000
0001
0100
0010
0000
1000
0000
0000
0001
0000
0100
0000
1000
0000
,
0010
0000
0100
0001
0000
0001
0100
0000
1000
0000
0001
0100
0000
0100
0001
0000
,
0010
0000
0000
0001
0100
0010
0000
1000
0000
0000
0001
0000
0100
0000
1000
0000
,
0010
0000
0100
0001
0000
0001
0100
0000
2000
0000
0001
0000
3200
0000
0001
0000
,
1300
0000
0000
0100
0010
0001
0000
1000
0000
0000
0100
0000
0010
0000
1000
0000
,
1001
0000
0010
0100
0000
0100
0010
0000
1000
0000
0100
0010
0000
0010
0100
0000
,
1010
0000
0000
0100
0010
0001
0000
1000
0000
0000
0100
0000
0010
0000
1000
0000
,
0200
0000
0000
1000
0320
0000
0001
0000
0230
1000
0000
0000
0320
0000
0000
0000
,
1030
0000
0000
0001
0000
0000
0010
0000
0100
0000
0000
0000
0000
0000
1000
0000
0100
0000
0000
1000
0000
0000
0001
0000
0010
0000
0000
0000
0001
0000
0000
0000
,
0010
0000
0000
0100
0000
0000
0010
0000
1000
0000
0000
0000
0001
0000
0000
1000
0001
0000
0000
0001
0010
0000
0000
0010
0100
0000
0001
0000
1000
0000
0010
0000
,
0001
0000
0000
0001
0000
0000
1000
0000
0100
0000
0000
0000
0000
0000
0001
0000
0100
0000
0000
0100
0000
0000
0010
0000
1000
0000
0000
0000
0001
0000
0000
0000
,
1000
0000
0000
0100
0000
0000
0010
0000
0001
0000
0000
0000
0000
0000
1000
0100
1000
0100
0000
0010
0000
0001
0000
0010
0000
0000
1000
0000
0001
0000
0010
0000
,
1000
0000
0000
0100
0000
0000
0010
0000
0001
0000
1000
0001
0000
0010
1000
0000
,
0010
0000
0000
0100
0000
0000
1000
0000
0010
0000
0000
1000
0100
0000
0000
1000
,
0001
0000
0000
0010
0000
0000
0100
0000
1000
0000
0000
0000
1000
0000
0000
0100
,
0010
0000
0000
0001
0010
0000
0000
0100
1000
0000
0010
0000
0001
0000
0010
0000
,
1000
0000
0000
0100
0000
0000
0010
0000
0001
0000
0010
0001
0000
0010
1000
0000
,
0010
0000
0000
0100
0000
0000
1000
0000
0010
0000
0000
0000
0100
0000
0000
0000
,
0001
1000
0001
0000
1000
0100
1000
0000
0100
0010
0100
0000
0010
0001
0100
0010
,
1001
0000
0000
0110
1000
0100
0011
0001
,
0110
0000
0000
1000
0001
0000
0100
0000
1000
0000
0000
0000
0100
0000
0001
0000
,
1000
0000
0000
0001
0100
0000
0010
0000
0200
0000
0010
0000
2300
0000
0001
0000
,
3100
0000
0000
1000
0100
0000
0010
0000
0001
0000
1000
0000
0100
0000
0010
0000
,
0100
0000
0000
0001
0000
0000
0100
0000
0010
0000
0001
0000
1000
0000
0010
0000
,
0101
0000
0000
0010
1000
0000
0010
0000
0010
0000
0000
0000
1000
0000
0001
0000
,
0001
0000
0000
1000
0100
0000
0010
0000
2000
0000
0001
0000
3020
0000
0001
0000
,
0130
0000
0000
1000
0100
0000
0010
0000
1000
0000
0001
0000
0100
0000
0010
0000
,
0100
0000
0000
0010
0000
0000
1000
0000
0100
0000
1000
0100
0010
0000
0010
0000
,
1001
0000
0000
0010
0100
0000
0010
0000
1000
0000
0000
0000
0010
0000
0010
0000
,
1000
0000
0000
0001
0100
0000
0010
0000
0200
0000
1000
0000
0302
0000
0010
0000
,
0103
0000
0000
1000
0010
0000
0100
0000
0010
0000
0001
0000
1000
0000
0100
0000
,
0001
0000
0000
0100
0000
0000
0010
0000
0010
0000
1000
0000
0001
0000
0100
0000
,
0101
0000
1000
0100
0010
0000
0010
0001
0100
0000
0001
0000
0100
0000
0000
1001
,
0000
0000
0000
0000
0000
0000
0000
0000
0110
0000
1000
0100
1001
0000
0000
0000
,
0110
0000
1000
0010
0000
0010
0100
0000
0001
0000
0010
0100
0000
0100
1000
0000
,
1000
0000
0100
0010
0000
0001
0010
0000
0001
0000
0010
0100
0000
1000
0100
0000
,
2000
0000
0000
0000
0000
0000
0000
0000
0000
0000
0000
0000
0000
0000
0010
0000
0000
0001
0000
0000
0020
0000
0000
0000
,
0000
0000
0000
0000
0000
0000
0000
0032
0000
0000
0000
0000
0000
0000
0000
0000
0000
0000
0000
0000
0000
0000
0000
0000
,
0000
0000
0000
3003
;
