#TITLE:Elemental Creation;
#SUBTITLE:;
#ARTIST:dj TAKA meets DJ YOSHITAKA;
#TITLETRANSLIT:;
#SUBTITLETRANSLIT:;
#ARTISTTRANSLIT:;
#GENRE:;
#CREDIT:;
#BANNER:Elemental Creation.png;
#BACKGROUND:Elemental Creation-bg.png;
#LYRICSPATH:;
#CDTITLE:;
#MUSIC:Elemental Creation.ogg;
#OFFSET:0.000000;
#SAMPLESTART:10.209001;
#SAMPLELENGTH:14.980000;
#SELECTABLE:YES;
#DISPLAYBPM:106.000000:424.000000;
#BPMS:0.000000=213.018005
,4.000000=211.921005
,36.000000=423.966003
,356.000000=212.076996
,388.000000=105.999001
,420.000000=211.990997
,464.000000=424.028015
;
#STOPS:
;
#BGCHANGES:;
#KEYSOUNDS:;
#ATTACKS:;

//---------------dance-single - ----------------
#NOTES:
     dance-single:
     :
     Hard:
     17:
     0.934192,1.884612,0.426142,0.185953,0.139465,844.000000,789.000000,55.000000,24.000000,0.000000,0.000000,0.934192,1.884612,0.426142,0.185953,0.139465,844.000000,789.000000,55.000000,24.000000,0.000000,0.000000:
0000
0000
0000
0000
,
0000
0000
0000
0000
,
0000
0000
0000
0000
,
0000
0000
0000
0000
,
0000
0000
0000
0000
,
0011
0000
0100
0010
0000
0001
0100
0010
,
0110
0000
1000
0010
0000
1000
0100
0010
,
0001
0000
1000
0100
,
0010
0000
0001
0010
0001
0000
1000
0010
1000
0000
0001
0000
0100
0010
0100
0010
,
1000
0000
0100
1000
0100
0000
0010
0000
,
0001
1000
0001
0000
0010
0000
0100
1000
,
0100
0000
0010
0000
0001
0100
0001
0000
,
0100
0010
1000
0010
,
0100
0000
0001
1000
0001
0000
0010
0000
,
0100
1000
0100
0000
1000
0000
0010
1000
,
0010
0000
0100
0000
0001
1000
0001
0000
,
0010
0000
0100
0000
1000
0000
0001
1000
,
0001
0010
0001
1000
,
0001
0000
0100
0000
0010
1000
0010
0000
,
1000
0001
1000
0010
,
1000
0000
0100
0000
0010
0001
0010
0000
,
0001
0000
1000
0001
1000
0000
0100
0010
,
0100
0000
0010
0001
0010
0001
0010
0000
,
0100
0110
0000
0101
,
0000
1100
0110
0000
,
0001
0000
0100
0001
0100
0000
0010
0000
,
1000
0001
1000
0000
0010
0000
0100
0001
,
0100
0000
0010
0000
1000
0100
1000
0000
,
0100
0010
0001
0010
,
0100
0000
1000
0001
1000
0000
0010
0000
,
0100
0001
0100
0000
0001
0000
0010
0001
,
0010
0000
0100
0000
1000
0001
1000
0000
,
0010
0000
0100
0000
0001
0000
1000
0001
,
1000
0010
1000
0001
,
1000
0000
0100
0000
0010
0001
0010
0000
,
0001
1000
0001
0010
,
0001
0000
0100
0000
0010
1000
0010
0000
,
1000
0000
0001
1000
0001
0000
0100
0010
,
0100
0000
0010
1000
0010
1000
0010
0000
,
0100
0110
0000
1100
,
0000
0101
0110
0000
,
1000
0100
0010
0200
,
0000
1300
0010
0100
,
0010
0000
1000
0010
1000
0000
0010
0100
,
0010
0000
0100
0001
0100
0000
0001
1000
,
0002
0000
0000
1003
,
0200
0000
0000
0300
,
0010
0000
0001
0000
0100
0001
0100
0000
,
0001
1000
0001
0000
1000
0010
1000
0000
,
0001
0100
0010
0200
,
0000
0301
0010
0100
,
0010
0000
0001
0010
0001
0000
0010
0100
,
0010
0000
0100
1000
0100
0000
1000
0001
,
2000
0000
0000
3001
,
0200
0000
0000
0300
,
1010
1010
0000
0110
,
0000
0101
0101
0000
,
1000
0000
0100
1000
0100
0000
0010
0000
,
0001
1000
0001
0000
0010
0000
0100
1000
,
0100
0000
0010
0000
0001
0100
0001
0000
,
0100
0010
1000
0010
,
0100
0000
0001
1000
0001
0000
0010
0000
,
0100
1000
0100
0000
1000
0000
0010
1000
,
0010
0000
0100
0000
0001
1000
0001
0000
,
0010
0000
0100
0000
1000
0000
0001
1000
,
0001
0010
0001
1000
,
0001
0000
0100
0000
0010
1000
0010
0000
,
1000
0001
1000
0010
,
1000
0000
0100
0000
0010
0001
0010
0000
,
0001
0000
1000
0001
1000
0000
0100
0010
,
0100
0000
0010
0001
0010
0001
0010
0000
,
0100
0110
0000
0101
,
0000
1100
0110
0000
,
0001
0000
0100
0001
0100
0000
0010
0000
,
1000
0001
1000
0000
0010
0000
0100
0001
,
0100
0000
0010
0000
1000
0100
1000
0000
,
0100
0010
0001
0010
,
0100
0000
1000
0001
1000
0000
0010
0000
,
0100
0001
0100
0000
0001
0000
0010
0001
,
0010
0000
0100
0000
1000
0001
1000
0000
,
0010
0000
0100
0000
0001
0000
1000
0001
,
1000
0010
1000
0001
,
1000
0000
0100
0000
0010
0001
0010
0000
,
0001
1000
0001
0010
,
0001
0000
0100
0000
0010
1000
0010
0000
,
1000
0000
0001
1000
0001
0000
0100
0010
,
0100
0000
0010
1000
0010
1000
0010
0000
,
0100
0000
0000
0100
0001
0000
0000
0001
,
1000
0000
0100
0000
0010
0000
0100
0010
,
0100
0000
0110
0000
1000
0001
0010
0001
,
1000
0000
1100
0000
0010
0001
0100
0001
,
0010
0000
1010
0000
0100
0001
1000
0001
,
0100
0000
1100
0000
0010
0100
1000
0100
,
0010
0000
0011
0000
0001
1000
0010
1000
,
0001
0000
0110
0000
0001
0100
0010
0100
,
0001
0000
1100
0000
0001
0010
0100
0010
,
0001
0000
1010
0000
0100
0001
1000
0001
,
0200
0000
0320
0000
,
2030
0000
3200
0000
,
0320
0000
0032
0000
,
2003
0000
3020
0000
,
0130
0000
0010
0000
1000
0100
0010
0100
1000
0100
0010
0100
1000
0010
0100
0001
,
0010
0000
1000
0000
0001
0100
0010
0100
0001
0100
0010
0100
0001
0010
0100
1000
,
0010
0000
0001
0000
0010
0001
0100
0001
0010
0001
0100
0001
0010
0001
1000
0010
,
0100
0000
1000
0000
0010
1000
0100
1000
0010
1000
0100
1000
0010
1000
0001
0010
,
0100
0100
0000
0000
0000
0000
0000
0000
,
1000
1000
0000
0000
0000
0000
0000
0000
,
0001
0001
0000
0000
0000
0000
0000
0000
,
0100
0100
0000
0000
0000
0000
0000
0000
,
0001
0000
0010
0000
0100
1000
0100
0000
1000
0000
0010
0000
0100
0001
0100
0000
,
0001
0000
0010
0000
0100
1000
0100
0000
1000
0000
0010
0000
0100
0001
0100
0000
,
0220
0000
0000
0330
,
1010
1010
0000
0110
0000
0101
0000
1001
,
0011
0011
0000
0110
0000
1100
0000
0110
,
1001
0000
0001
0100
,
0010
0000
1000
0010
1000
0000
0001
0010
0001
0000
1000
0000
0100
0010
0100
0010
,
0001
0000
0100
0001
0100
0000
0010
0000
,
1000
0001
1000
0000
0010
0000
0100
0001
,
0100
0000
0010
0000
1000
0100
1000
0000
,
0100
0010
0001
0010
,
0100
0000
1000
0001
1000
0000
0010
0000
,
0100
0001
0100
0000
0001
0000
0010
0001
,
0010
0000
0100
0000
1000
0001
1000
0000
,
0010
0000
0100
0000
0001
0000
1000
0001
,
1000
0000
0010
0000
0100
0010
0100
0000
,
0001
0100
0001
0000
1000
0100
1000
0000
,
0001
0000
1000
0000
0001
0010
0001
0000
,
1000
0010
1000
0000
0010
0100
0010
0000
,
1000
0000
0001
1000
0001
0000
0100
0010
,
0100
0000
0010
1000
0010
1000
0010
0000
,
0100
0110
0000
1100
,
0000
0101
0110
0000
,
1000
0000
0100
1000
0100
0000
0010
0000
,
0001
1000
0001
0000
0010
0000
0100
1000
,
0100
0000
0010
0000
0001
0100
0001
0000
,
0100
0010
1000
0010
,
0100
0000
0001
1000
0001
0000
0010
0000
,
0100
1000
0100
0000
1000
0000
0010
1000
,
0010
0000
0100
0000
0001
1000
0001
0000
,
0010
0000
0100
0000
1000
0000
0001
1000
,
0001
0000
0010
0000
0100
0010
0100
0000
,
1000
0100
1000
0000
0001
0100
0001
0000
,
1000
0000
0001
0000
1000
0010
1000
0000
,
0001
0010
0001
0000
0010
0100
0010
0000
,
0001
0000
1000
0001
1000
0000
0100
0010
,
0100
0000
0010
0001
0010
0001
0010
0000
,
0100
0000
0010
0000
,
0110
0000
0000
0000
0001
1000
0001
1000
,
0001
0100
0010
0200
,
0000
0301
0010
0100
,
0010
0000
0001
0010
0001
0000
0010
0100
,
0010
0000
0100
1000
0100
0000
1000
0001
,
2000
0000
0000
3001
,
0200
0000
0000
0300
,
0010
0000
1000
0000
0100
1000
0100
0000
,
1000
0001
1000
0000
0001
0010
0001
0000
,
1000
0100
0010
0200
,
0000
1300
0010
0100
,
0010
0000
1000
0010
1000
0000
0010
0100
,
0010
0000
0100
0001
0100
0000
0001
1000
,
0002
0000
0000
1003
,
0200
0000
0000
0300
,
0011
0011
0000
0110
,
0000
1100
1100
0000
,
1010
1010
0000
0110
,
0000
0101
0101
0000
,
2002
0000
0000
0000
,
0000
0000
0000
3003
,
0000
0000
0000
0000
;

//---------------dance-single - ----------------
#NOTES:
     dance-single:
     :
     Challenge:
     18:
     1.017206,2.079572,0.457134,0.185953,0.170457,919.000000,860.000000,59.000000,24.000000,0.000000,0.000000,1.017206,2.079572,0.457134,0.185953,0.170457,919.000000,860.000000,59.000000,24.000000,0.000000,0.000000:
0000
0000
0000
0000
,
0000
0000
0000
0000
,
0000
0000
0000
0000
,
0000
0000
0000
0000
,
0000
0000
0000
0000
,
1010
0000
0100
0010
0000
1000
0100
0010
,
0110
0000
0001
0010
0000
0001
0100
0010
,
1000
0000
0001
0100
,
0010
0000
1000
0010
1000
0000
0001
0010
0100
1000
0100
1000
0001
0100
0001
0100
,
0010
0000
0100
0001
0100
0000
0010
0000
,
1000
0001
1000
0000
0010
0000
0100
0001
,
0100
0000
0010
0000
1000
0100
1000
0000
,
0100
0000
0010
0001
0010
0000
0100
0010
,
0100
0000
1000
0001
1000
0000
0010
0000
,
0100
0001
0100
0000
0001
0000
0010
0001
,
0010
0000
0100
0000
1000
0001
1000
0000
,
0010
0000
0100
0001
1000
0100
0010
0001
,
1000
0010
1000
0001
,
1000
0000
0100
0000
0010
0001
1000
0001
,
0010
0001
1000
0001
,
0100
0000
0001
0000
1000
0100
0010
0100
,
1000
0000
0001
1000
0001
0000
0100
0010
,
1000
0010
1000
0010
1000
0001
1000
0001
,
0010
0100
0000
1100
,
0000
0101
0011
0000
,
0010
0000
0100
1000
0100
0000
0010
0000
,
0001
1000
0001
0000
0010
0000
0100
1000
,
0100
0000
0010
0000
0001
0100
0001
0000
,
0100
0000
0010
1000
0010
0000
0100
0010
,
0100
0000
0001
1000
0001
0000
0010
0000
,
0100
1000
0100
0000
1000
0000
0010
1000
,
0010
0000
0100
0000
0001
1000
0001
0000
,
0010
0000
0100
1000
0001
0100
0010
1000
,
0001
0010
0001
1000
,
0001
0000
0100
0000
0010
1000
0001
1000
,
0010
1000
0001
1000
,
0100
0000
1000
0000
0001
0100
0010
0100
,
0001
0000
1000
0001
1000
0000
0100
0010
,
0001
0010
0001
0010
0001
1000
0001
1000
,
0010
0100
0000
0101
,
0000
1100
0110
0000
,
0001
0100
1000
0200
,
0000
0301
0010
0100
,
0010
0000
0001
0010
0001
0000
0010
0100
,
0010
0000
0100
1000
0100
0000
1000
0001
,
2000
0000
0000
3001
,
0200
0000
0000
0300
,
0010
1000
0010
1000
0001
1000
0001
1000
,
0001
0010
0001
0010
0100
0010
0100
0010
,
0001
1000
0100
0002
,
0000
0103
1000
0010
,
0100
0000
0010
1000
0010
0000
0100
0010
,
0100
0000
0001
0100
0001
0000
1000
0001
,
2000
0000
0000
3001
,
0020
0000
0000
0030
,
0011
0110
0000
1100
,
0000
1001
1001
0000
,
0010
0000
0100
0001
0100
0000
0010
0000
,
1000
0001
1000
0000
0010
0000
0100
0001
,
0100
0000
0010
0000
1000
0100
1000
0000
,
0100
0000
0010
0001
0010
0000
0100
0010
,
0100
0000
1000
0001
1000
0000
0010
0000
,
0100
0001
0100
0000
0001
0000
0010
0001
,
0010
0000
0100
0000
1000
0001
1000
0000
,
0010
0000
0100
0001
1000
0100
0010
0001
,
1000
0010
1000
0001
,
1000
0000
0100
0000
0010
0001
1000
0001
,
0010
0001
1000
0001
,
0100
0000
0001
0000
1000
0100
0010
0100
,
1000
0000
0001
1000
0001
0000
0100
0010
,
1000
0010
1000
0010
1000
0001
1000
0001
,
0010
0100
0000
1100
,
0000
0101
0011
0000
,
0010
0000
0100
1000
0100
0000
0010
0000
,
0001
1000
0001
0000
0010
0000
0100
1000
,
0100
0000
0010
0000
0001
0100
0001
0000
,
0100
0000
0010
1000
0010
0000
0100
0010
,
0100
0000
0001
1000
0001
0000
0010
0000
,
0100
1000
0100
0000
1000
0000
0010
1000
,
0010
0000
0100
0000
0001
1000
0001
0000
,
0010
0000
0100
1000
0001
0100
0010
1000
,
0001
0010
0001
1000
,
0001
0000
0100
0000
0010
1000
0001
1000
,
0010
1000
0001
1000
,
0100
0000
1000
0000
0001
0100
0010
0100
,
0001
0000
1000
0001
1000
0000
0100
0010
,
0001
0010
0001
0010
0001
1000
0001
1000
,
0010
0000
0000
0010
0100
0000
0000
0100
,
0001
0000
1000
0000
0001
1000
0001
1000
,
0100
0000
0110
0000
0001
0100
1000
0010
,
0001
0000
0101
0000
0010
1000
0100
0001
,
0010
0000
0011
0000
0100
1000
0010
0001
,
0100
0000
0101
0000
0010
1000
0100
0001
,
0010
0000
1010
0000
1000
0010
0001
0100
,
1000
0000
0110
0000
0001
0100
1000
0010
,
0001
0000
0101
0000
1000
0010
0001
0100
,
1000
0000
0011
0000
0100
1000
0010
0001
,
0200
0000
0320
0000
,
0032
0000
0203
0000
,
0320
0000
2030
0000
,
3002
0000
0023
0000
,
0130
0000
0000
0000
0010
0000
0000
0000
0001
0000
0100
0000
1000
0000
0100
0000
0001
0000
0100
0000
1000
0000
0100
0000
0001
0000
0010
0000
1000
0000
0010
0100
,
0010
0000
0000
0000
0001
0000
0000
0000
1000
0000
0100
0000
0001
0000
0100
0000
1000
0000
0100
0000
0001
0000
0100
0000
1000
0000
0010
0000
0001
0000
0010
0100
,
0010
0000
0000
0000
1000
0000
0000
0000
0010
0000
1000
0000
0100
0000
1000
0000
0010
0000
1000
0000
0100
0000
1000
0000
0010
0000
1000
0000
0001
0000
0010
0100
,
0010
0000
0000
0000
0001
0000
0000
0000
0010
0000
0001
0000
0100
0000
0001
0000
0010
0000
0001
0000
0100
0000
0001
0000
0010
0000
0001
0000
1000
0000
0010
0100
,
0010
0110
0000
0000
0000
0000
0000
0000
,
1000
1100
0000
0000
0000
0000
0000
0000
,
0001
0101
0000
0000
0000
0000
0000
0000
,
0100
0110
0000
0000
0000
0000
0000
0000
,
1000
0000
1010
0000
0100
0001
0100
0000
0001
0000
0011
0000
0100
1000
0100
0000
,
1000
0000
1010
0000
0100
0001
0100
0000
0001
0000
0011
0000
0100
1000
0100
0000
,
0220
0000
0000
0330
,
0011
0110
0000
1100
0000
1001
0000
1010
,
0110
1010
0000
1001
0000
0101
0000
0110
,
1001
0000
1000
0100
,
0010
0000
0001
0010
0001
0000
1000
0010
0100
0001
0100
0001
1000
0100
1000
0100
,
0010
0000
0100
1000
0100
0000
0010
0000
,
0001
1000
0001
0000
0010
0000
0100
1000
,
0100
0000
0010
0000
0001
0100
0001
0000
,
0100
0000
0010
1000
0010
0000
0100
0010
,
0100
0000
0001
1000
0001
0000
0010
0000
,
0100
1000
0100
0000
1000
0000
0010
1000
,
0010
0000
0100
0000
0001
1000
0001
0000
,
0010
0000
0100
1000
0001
0100
0010
1000
,
0001
0000
0010
0000
0100
0010
0100
0000
,
1000
0100
1000
0000
0010
1000
0001
1000
,
0010
0000
0100
0000
0001
0100
0001
0000
,
1000
0100
1000
0000
0001
0100
0010
0100
,
0001
1000
0001
1000
0001
1000
0100
0010
,
0001
0010
0001
0010
0001
1000
0001
1000
,
0010
0100
0000
0101
,
0000
1100
1010
0000
,
0010
0000
0100
0001
0100
0000
0010
0000
,
1000
0001
1000
0000
0010
0000
0100
0001
,
0100
0000
0010
0000
1000
0100
1000
0000
,
0100
0000
0010
0001
0010
0000
0100
0010
,
0100
0000
1000
0001
1000
0000
0010
0000
,
0100
0001
0100
0000
0001
0000
0010
0001
,
0010
0000
0100
0000
1000
0001
1000
0000
,
0010
0000
0100
0001
1000
0100
0010
0001
,
1000
0000
0010
0000
0100
0010
0100
0000
,
0001
0100
0001
0000
0010
0001
1000
0001
,
0010
0000
0100
0000
1000
0100
1000
0000
,
0001
0100
0001
0000
1000
0100
0010
0100
,
1000
0001
1000
0001
1000
0001
0100
0010
,
1000
0010
1000
0010
1000
0001
1000
0001
,
0010
0000
0100
0000
,
0110
0000
0000
0000
1000
0001
1000
0001
,
1000
0100
0001
0200
,
0000
1300
0010
0100
,
0010
0000
1000
0010
1000
0000
0010
0100
,
0010
0000
0100
0001
0100
0000
0001
1000
,
0002
0000
0000
1003
,
0200
0000
0000
0300
,
0010
0001
0010
0001
1000
0001
1000
0001
,
1000
0010
1000
0010
0100
0010
0100
0010
,
1000
0001
0100
2000
,
0000
3100
0001
0010
,
0100
0000
0010
0001
0010
0000
0100
0010
,
0100
0000
1000
0100
1000
0000
0001
1000
,
0002
0000
0000
1003
,
0020
0000
0000
0030
,
1010
0110
0000
0101
,
0000
1001
1001
0000
,
0011
0110
0000
1100
,
0000
1001
1001
0000
,
0220
0000
0000
0000
,
0000
0000
0000
0330
,
0000
0000
0000
0000
;

//---------------dance-single - ----------------
#NOTES:
     dance-single:
     19 or 20:
     Edit:
     20:
     1.295029,2.070275,1.355906,0.371906,0.313795,1170.000000,995.000000,175.000000,48.000000,0.000000,7.000000,1.295029,2.070275,1.355906,0.371906,0.313795,1170.000000,995.000000,175.000000,48.000000,0.000000,7.000000:
// measure 0
0000
0000
0000
0000
,  // measure 1
1000
1000
0000
0100
0000
0010
0000
0001
,  // measure 2
1000
0010
0100
0001
0011
0000
0110
0000
,  // measure 3
0000
0000
1000
0100
0000
0001
0000
0010
,  // measure 4
1000
0001
0100
0010
1010
0000
0101
0000
,  // measure 5
1010
0000
0100
0010
0001
1000
0100
0010
,  // measure 6
0110
0000
0001
0010
1000
0001
0100
0010
,  // measure 7
2000
0000
3002
0203
,  // measure 8
0310
0000
1000
0010
1000
0000
0001
0010
0100
1000
0100
1000
0001
0100
0001
0100
,  // measure 9
1010
0000
0100
0001
0100
0000
0011
0000
,  // measure 10
1000
0001
1000
0000
0110
0000
0100
0001
,  // measure 11
0100
0000
0011
0000
1000
0100
1000
0000
,  // measure 12
0101
0000
0010
0001
1010
0000
0100
0010
,  // measure 13
0101
0000
1000
0001
1000
0000
0011
0000
,  // measure 14
0100
0001
0100
0000
1001
0000
0010
0001
,  // measure 15
0010
0000
0101
0000
1000
0001
1000
0000
,  // measure 16
0020
0000
0130
0001
1000
0100
0010
0001
,  // measure 17
1000
0010
1000
0001
,  // measure 18
1000
0000
0100
0000
0010
0001
1000
0001
,  // measure 19
0010
0001
1000
0001
,  // measure 20
0100
0000
0001
0000
1000
0100
0010
0100
,  // measure 21
1001
0000
0001
1000
0001
0000
0100
0010
,  // measure 22
1000
0010
1000
0010
1000
0001
1000
0001
,  // measure 23
1010
0000
0101
0010
1010
0000
1100
0001
,  // measure 24
1000
0100
0001
0100
1000
0100
0001
0100
,  // measure 25
0011
0000
0100
1000
0100
0000
1010
0000
,  // measure 26
0001
1000
0001
0000
0011
0000
0100
1000
,  // measure 27
0100
0000
0011
0000
0001
0100
0001
0000
,  // measure 28
0101
0000
0010
1000
0011
0000
0100
0010
,  // measure 29
1100
0000
0001
1000
0001
0000
1010
0000
,  // measure 30
0100
1000
0100
0000
1010
0000
0010
1000
,  // measure 31
0010
0000
0110
0000
0001
1000
0001
0000
,  // measure 32
0002
0000
0103
1000
0001
0100
0010
1000
,  // measure 33
0001
0010
0001
1000
,  // measure 34
0001
0000
0100
0000
0010
1000
0001
1000
,  // measure 35
0010
1000
0001
1000
,  // measure 36
0100
0000
1000
0000
0001
0100
0010
0100
,  // measure 37
0001
0000
1000
0001
1000
0000
0100
0010
,  // measure 38
0001
0010
0001
0010
0001
1000
0001
1000
,  // measure 39
0011
0000
0101
1000
0010
0000
0101
1000
,  // measure 40
0001
0010
0100
0010
0001
0100
0001
0100
,  // measure 41
0011
0101
1010
0220
,  // measure 42
0000
0331
0010
0100
,  // measure 43
1010
0000
0001
0010
0101
0000
0010
0100
,  // measure 44
0011
0000
0100
1000
0110
0000
1000
0001
,  // measure 45
2020
0000
0000
3131
,  // measure 46
0202
0000
0000
0303
,  // measure 47
0010
1000
0010
1000
0001
1000
0001
1000
,  // measure 48
0001
0010
0001
0010
0100
0010
0100
0010
,  // measure 49
1001
1100
0110
0022
,  // measure 50
0000
0133
1000
0010
,  // measure 51
0101
0000
0010
1000
0011
0000
0100
0010
,  // measure 52
1100
0000
0001
0100
1001
0000
1000
0001
,  // measure 53
2200
0000
0000
3311
,  // measure 54
0220
0000
0000
0330
,  // measure 55
0011
1000
0110
0000
0000
0000
1100
0000
,  // measure 56
0000
0000
1001
0010
1001
0000
0000
0000
,  // measure 57
1010
0000
0100
0001
0100
0000
0101
0000
,  // measure 58
1000
0001
1000
0000
0011
0000
0100
0001
,  // measure 59
0100
0000
0110
0000
1000
0100
1000
0000
,  // measure 60
0101
0000
0010
0001
1010
0000
0100
0010
,  // measure 61
0101
0000
1000
0001
1000
0000
0110
0000
,  // measure 62
0100
0001
0100
0000
1001
0000
0010
0001
,  // measure 63
0010
0000
0101
0000
1000
0001
1000
0000
,  // measure 64
0020
0000
0130
0001
1000
0100
0010
0001
,  // measure 65
1100
0010
1000
0001
,  // measure 66
1000
0000
0100
0000
0010
0001
1000
0001
,  // measure 67
0110
0001
1000
0001
,  // measure 68
0100
0000
0001
0000
1000
0100
0010
0100
,  // measure 69
1000
0000
0001
1000
0001
0000
0100
0010
,  // measure 70
1000
0010
1000
0010
1000
0001
1000
0001
,  // measure 71
1010
0000
0101
0010
0010
0000
1100
0010
,  // measure 72
0001
0010
0001
0010
1000
0010
0001
0100
,  // measure 73
0011
0000
0100
1000
0100
0000
0011
0000
,  // measure 74
0001
1000
0001
0000
1010
0000
0100
1000
,  // measure 75
0100
0000
0110
0000
0001
0100
0001
0000
,  // measure 76
0101
0000
0010
1000
0011
0000
0100
0010
,  // measure 77
1100
0000
0001
1000
0001
0000
0011
0000
,  // measure 78
0100
1000
0100
0000
1001
0000
0010
1000
,  // measure 79
0010
0000
0101
0000
0001
1000
0001
0000
,  // measure 80
0002
0000
0103
1000
0001
0100
0010
1000
,  // measure 81
0101
1010
0001
1000
,  // measure 82
0001
0000
0100
0000
0010
1000
0001
1000
,  // measure 83
0011
1100
0001
1000
,  // measure 84
0100
0000
1000
0000
0001
0100
0010
0100
,  // measure 85
1001
0000
1000
0001
1000
0000
0100
0010
,  // measure 86
0001
0010
0001
0010
0001
1000
0001
1000
,  // measure 87
0011
0000
1100
0010
0100
0000
0011
0100
,  // measure 88
0001
0010
1000
0010
0001
1000
0001
1000
,  // measure 89
0101
0000
0110
0000
0001
0100
1000
0010
,  // measure 90
0001
0000
0101
0000
0010
1000
0100
0001
,  // measure 91
0010
0000
0011
0000
0100
1000
0010
0001
,  // measure 92
0100
0000
0101
0000
0010
1000
0100
0001
,  // measure 93
1000
0100
0010
0001
0010
0100
1000
0010
0100
0001
0100
0010
,  // measure 94
1000
0100
0010
0100
1000
0100
0001
0010
0100
0010
0001
0010
,  // measure 95
0001
0000
0101
0000
1000
0010
0001
0100
,  // measure 96
1000
0000
0011
0000
0100
1000
0010
0001
,  // measure 97
0200
0000
0320
0000
,  // measure 98
0032
0000
0203
0000
,  // measure 99
0320
0000
2030
0000
,  // measure 100
3002
0000
0023
0000
,  // measure 101
0130
0000
0000
0000
0010
0000
0000
0000
0001
0000
0100
0000
1000
0000
0100
0000
0001
0000
0100
0000
1000
0000
0100
0000
0001
0000
0010
0000
1000
0000
0010
0100
,  // measure 102
0010
0000
0000
0000
0001
0000
0000
0000
1000
0000
0100
0000
0001
0000
0100
0000
1000
0000
0100
0000
0001
0000
0100
0000
1000
0000
0010
0000
0001
0000
0010
0100
,  // measure 103
0010
0000
0000
0000
1000
0000
0000
0000
0010
0000
1000
0000
0100
0000
1000
0000
0010
0000
1000
0000
0100
0000
1000
0000
0010
0000
1000
0000
0001
0000
0010
0100
,  // measure 104
0010
0000
0000
0000
0001
0000
0000
0000
0010
0000
0001
0000
0100
0000
0001
0000
0010
0000
0001
0000
0100
0000
0001
0000
0010
0000
0001
0000
1000
0000
0010
0100
,  // measure 105
0010
0000
0110
0000
0001
0010
0001
0010
0001
0010
0001
0000
0200
0000
0000
0300
,  // measure 106
1000
0000
1100
0000
0010
0100
0010
0100
0010
0100
0010
0000
2000
0000
0000
0000
,  // measure 107
3001
0000
0101
0000
1000
0100
0010
0100
1000
0100
0010
0000
2000
0000
0000
0000
,  // measure 108
3100
0000
0110
0000
0001
0100
0001
1000
0001
0000
0100
0000
0020
0000
0000
0000
,  // measure 109
1030
0000
1010
0000
0100
0001
0100
1000
0001
0000
0011
0000
0100
1000
0100
0001
,  // measure 110
1000
0000
1010
0000
0100
0001
0100
0010
0001
0000
0011
0000
0100
1000
0100
0001
,  // measure 111
0220
0000
0000
0330
,  // measure 112
0011
1000
0110
0000
0000
0000
1100
0000
0000
0000
1001
0000
0000
0000
1010
0001
,  // measure 113
0110
0001
1010
0000
0000
0000
1001
0000
0000
0000
0101
0000
0000
0000
0110
1000
,  // measure 114
0101
0000
1000
0100
,  // measure 115
0010
0000
0001
0010
0001
0000
1000
0010
0100
0001
0100
0001
1000
0100
1000
0100
,  // measure 116
0011
0000
0100
1000
0100
0000
0110
0000
,  // measure 117
0001
1000
0001
0000
0011
0000
0100
1000
,  // measure 118
0100
0000
1010
0000
0001
0100
0001
0000
,  // measure 119
0101
0000
0011
0000
0012
0000
0103
0010
,  // measure 120
1100
0000
0001
1000
0001
0000
0110
0000
,  // measure 121
0100
1000
0100
0000
1010
0000
0010
1000
,  // measure 122
0010
0000
0110
0000
0001
1000
0001
0000
,  // measure 123
0020
0000
0130
1000
0001
0100
0010
1000
,  // measure 124
0001
0000
0010
0000
0100
0010
0100
0001
,  // measure 125
1000
0100
1000
0001
0010
1000
0001
1000
,  // measure 126
0010
0000
0100
1000
0001
0000
0001
0010
,  // measure 127
1000
0100
1000
0100
0001
0100
0010
0100
,  // measure 128
0001
1000
0001
1000
0001
1000
0100
0010
,  // measure 129
0001
0010
0001
0010
0001
1000
0001
1000
,  // measure 130
0011
0000
0101
0010
1000
0000
0101
0010
,  // measure 131
0100
1000
0100
0001
0010
1000
0010
0100
,  // measure 132
0011
0000
0100
0001
0100
0000
0011
0000
,  // measure 133
1000
0001
1000
0000
0110
0000
0100
0001
,  // measure 134
0100
0000
0011
0000
1000
0100
1000
0000
,  // measure 135
0110
0000
0011
0000
0102
0000
0103
0010
,  // measure 136
1100
0000
1000
0001
1000
0000
0110
0000
,  // measure 137
0100
0001
0100
0000
1001
0000
0010
0001
,  // measure 138
0010
0000
0110
0000
1000
0001
1000
0000
,  // measure 139
2000
0000
3100
0001
1000
0100
0010
0001
,  // measure 140
1000
0000
0010
0000
0100
0010
0100
1000
,  // measure 141
0001
0100
0001
1000
0010
0001
1000
0001
,  // measure 142
0010
0000
0100
0001
1000
0000
1000
0010
,  // measure 143
0001
0100
0001
0010
1000
0100
0010
0100
,  // measure 144
1000
0001
1000
0001
1000
0001
0100
0010
,  // measure 145
1000
0010
1000
0010
1000
0001
1000
0001
,  // measure 146
0110
0000
0101
0010
0100
0000
1001
0100
,  // measure 147
0100
0001
0100
0010
1000
0001
1000
0001
,  // measure 148
1100
0100
0001
0200
,  // measure 149
0000
1300
0010
0100
,  // measure 150
0010
0000
1000
0010
1000
0000
0010
0100
,  // measure 151
0010
0000
0100
0001
0100
0000
0001
1000
,  // measure 152
0022
0000
0000
1133
,  // measure 153
0202
0000
0000
0303
,  // measure 154
0010
0001
0010
0001
1000
0001
1000
0001
,  // measure 155
1000
0010
1000
0010
0100
0010
0100
0010
,  // measure 156
1001
0101
0101
2020
,  // measure 157
0000
3130
0001
0010
,  // measure 158
0101
0000
0010
0001
1010
0000
0100
0010
,  // measure 159
0101
0000
1000
0100
1010
0000
0001
1000
,  // measure 160
0202
0000
0000
1313
,  // measure 161
2020
0000
0000
3030
,  // measure 162
1010
0001
0110
0000
0000
0000
0101
0000
,  // measure 163
0000
1001
1001
0000
,  // measure 164
0011
1000
0110
0000
0000
0000
1100
0000
,  // measure 165
0000
1001
1001
0000
,  // measure 166
0110
0000
0000
0000
0000
0000
0000
0000
0000
1000
0100
0010
,  // measure 167
0001
0000
0000
0000
;
