#TITLE:Allegro PIU Mosso;
#SUBTITLE:;
#ARTIST:DM Ashura;
#TITLETRANSLIT:;
#SUBTITLETRANSLIT:;
#ARTISTTRANSLIT:;
#GENRE:SYMPHONIC TRANCE;
#CREDIT:;
#BANNER:Allegro PIU Mosso.png;
#BACKGROUND:Allegro PIU Mosso-bg.png;
#LYRICSPATH:;
#CDTITLE:cdtitle.png;
#MUSIC:Allegro PIU Mosso.ogg;
#OFFSET:-0.080000;
#SAMPLESTART:24.044052;
#SAMPLELENGTH:11.939999;
#SELECTABLE:YES;
#DISPLAYBPM:160.000000;
#BPMS:0.000000=160.000000
,192.000000=80.000000
,200.000000=160.000000
,264.000000=320.000000
,272.000000=160.000000
,296.000000=320.000000
;
#STOPS:264.000000=0.188000,
265.000000=0.188000,
266.000000=0.188000,
267.000000=0.188000,
268.000000=0.188000,
269.000000=0.188000,
270.000000=0.188000,
271.000000=0.188000,
296.000000=0.187500
;
#BGCHANGES:0.000=Allegro PIU Mosso.avi=1.000=0=0=0=StretchNoLoop====,
99999=-nosongbg-=1.000=0=0=0 // don't automatically add -songbackground-
;
#KEYSOUNDS:;
#ATTACKS:;

//---------------dance-single - ----------------
#NOTES:
     dance-single:
     :
     Challenge:
     16:
     0.682865,1.006213,0.574920,0.542068,0.862381,582.000000,512.000000,70.000000,66.000000,0.000000,1.000000,0.682865,1.006213,0.574920,0.542068,0.862381,582.000000,512.000000,70.000000,66.000000,0.000000,1.000000:
0000
0000
0000
0000
,
0000
0000
0000
0000
,
0000
0000
0000
0000
,
0000
0000
0000
0000
,
1001
0000
0000
0000
0000
0000
1000
0010
0100
0000
0000
0000
0000
0000
0100
0010
,
1000
0000
0000
0000
0000
0000
1000
0001
0010
0000
0000
0000
0000
0000
0000
0000
,
1001
0000
0000
0000
0000
0000
0010
1000
0001
0000
0000
0100
0000
0000
0010
0000
,
1001
0000
0000
0000
0000
0000
0000
0000
0010
0100
0010
0001
1000
0001
0010
0100
,
1000
0000
1100
0000
,
0001
0000
0000
0000
0101
0000
0000
0100
,
1001
0000
1100
0000
,
0001
0000
0000
0000
0000
0000
0000
0000
0101
0000
0000
0000
0000
0000
0100
0010
,
1000
0000
1010
0000
,
0001
0000
0000
0000
0011
0000
0000
0010
,
1001
0000
0000
0000
,
0010
0100
0010
0100
0010
0100
0010
0100
0010
1000
0001
0100
0010
1000
0100
0010
,
0001
0000
1000
0010
0000
0000
0110
0000
2001
0000
0000
0000
3000
0000
0010
0100
,
0001
0000
1000
0100
0000
1000
0010
0000
2001
0000
0000
0000
3000
0000
0100
1000
,
0001
0000
0000
0101
0000
0000
0100
1000
0001
0000
0000
0101
0000
0000
0100
0010
,
0001
0000
0000
0011
0000
0000
0110
0000
2001
0000
0000
0000
3000
0000
0000
0000
,
0010
0001
0000
1000
0100
0000
0100
0001
2000
0000
0000
0000
3000
0000
1000
0001
,
0100
0010
0000
1000
0100
0000
0100
0001
2000
0000
0000
0000
3000
0000
0001
1000
,
0010
0100
0000
0100
1000
0000
0001
0010
0100
0010
0000
0010
1000
0000
0010
0100
,
0001
0100
0000
0100
1000
0100
0010
0001
0020
0000
0000
0000
0030
0000
0100
0001
,
1000
0000
0000
0000
0000
0000
0000
0000
2001
0000
0000
3020
0000
0000
0230
0000
,
0302
0000
0000
0000
0000
0000
0013
0100
2000
0000
0000
0000
0000
0000
3100
1000
,
0010
0000
0000
0000
0000
0000
0000
0000
2010
0000
0000
3200
0000
0000
0302
0000
,
2003
0000
0000
0000
0000
0000
3100
0010
0002
0000
0000
0000
0000
0000
0013
0001
,
1000
0000
0000
0000
0000
0000
0000
0000
0201
0000
0000
0320
0000
0000
2030
0000
,
3200
0000
0000
0000
0000
0000
0000
0300
2001
0000
0000
3020
0000
0000
0230
0000
,
0320
0000
0000
0000
0000
0000
0130
1000
0002
0000
0000
0000
0003
0000
0010
0001
,
1000
0000
0000
0000
1100
0000
0000
0000
0010
0000
0100
0000
0010
1000
0001
0100
,
0010
0000
0000
0000
0101
0000
0100
1000
0001
0100
0010
0100
1000
0100
0010
0100
,
0001
0000
0000
0000
1010
0000
0010
0001
1000
0010
0100
0010
0001
0010
0100
0010
,
1000
0000
0000
0000
0101
0000
0010
0100
1000
0001
0100
1000
0001
0010
1000
0100
,
0010
0000
0000
0000
0110
0000
0100
0010
0001
0000
0000
0000
1001
0000
0100
0010
,
1000
0000
0000
0000
1010
0000
0000
0000
0100
0010
1000
0100
0010
0100
1000
0001
,
0100
0000
0000
0000
1001
0000
0010
0100
0010
0000
0000
0000
0010
0100
1000
0100
,
0001
0000
0000
0101
0000
0000
0110
0000
0000
1010
0000
0000
1100
0000
0000
0110
,
0000
0000
0000
0000
0000
0000
0011
0000
0000
0000
0000
0000
0000
0000
0000
1001
0000
0000
0000
0000
0000
0000
0000
0000
1000
0000
0000
0000
0100
0000
0000
0000
0010
0000
0000
0000
0100
0000
0000
0000
0010
0000
0000
0000
0001
0000
0000
0000
,
1000
0100
1000
0100
0010
0100
0010
0100
1000
0010
1000
0010
0100
0010
0100
0010
,
1000
0001
1000
0001
0100
0001
0100
0001
1000
0010
0100
0010
1000
0010
0100
0010
,
1000
0010
0100
0001
1000
0010
0100
0001
1000
0100
0010
0001
1000
0100
0010
0001
,
0010
0000
0000
0010
1000
0000
0000
1000
0001
0000
0000
0001
0100
0000
0000
0200
,
0020
0000
0000
0000
0000
0300
0030
0000
1000
0001
0010
0100
1000
0100
0010
0002
,
2000
0000
0000
0000
0000
0003
3000
0000
0001
1000
0100
0010
0001
0010
0100
1000
,
0001
0000
0000
0110
0000
0000
1010
0000
0101
0000
0000
1001
0000
0000
0110
0000
,
1010
0000
0000
0000
0000
0000
0001
1000
0010
0001
1000
0100
,
0002
0000
0000
0000
0000
0003
0100
0001
1000
0000
0010
0000
1010
0000
0100
0000
,
2002
0000
0000
0000
0000
0000
0000
3003
,
0110
0000
0010
0100
0000
0010
1000
0000
2001
0000
0000
0000
3000
0000
0100
1000
,
0001
0000
0100
0010
0000
0100
0001
0000
0012
0000
0000
0000
0003
0000
0010
0001
,
1000
0000
0000
1010
0000
0000
0010
0001
1000
0000
0000
1010
0000
0000
0010
0100
,
1000
0000
0000
1100
0000
0000
0110
0000
1002
0000
0000
0000
0000
0000
0003
0000
,
1000
0100
0000
0100
0001
0000
0100
0010
1000
0010
0000
0010
0001
0000
0001
1000
,
0001
0100
0000
0100
1000
0000
0001
1000
0001
0010
0000
0010
1000
0000
0010
1000
,
0100
0010
0000
0010
1000
0000
0010
0001
0010
0100
0000
0100
0001
0000
0001
1000
,
0010
0100
0000
0100
1000
0000
0100
0010
0001
1000
0001
0100
1000
0100
0010
0100
,
0002
0000
0000
0000
0000
0000
0000
0000
0000
0000
0000
0000
0000
0000
0000
0003
0000
0000
0001
0000
1000
0000
0100
0000
,
0020
0000
0030
0210
0000
0300
0200
0000
0300
0210
0000
0300
,
0201
0000
0000
0000
0000
0000
0000
0000
0300
1000
0100
0010
,
0002
0000
0000
2103
0000
0000
3020
0000
0000
0130
0010
0001
,
0010
0000
0000
0010
0000
0000
0010
0000
0000
0010
1000
0001
,
0100
0000
0000
0100
0000
0000
0100
0000
0000
0100
0001
1000
,
0010
0000
0000
0010
0000
0000
1001
0000
0000
0100
1000
0001
,
0200
0000
0300
1010
0000
0000
0200
0000
0300
0011
0000
0000
,
2002
3003
2200
3300
0220
0330
0022
0033
,
0202
0303
0220
0330
2020
3030
1001
0000
,
1000
0100
0010
0001
0010
0100
1000
0010
0100
0001
0100
0010
,
1000
0001
0010
1000
0010
0001
1000
0010
0001
1000
0100
0002
,
2000
0000
0000
0000
0000
0000
0000
0000
0000
0000
0000
0000
3003
0000
0000
0000
0000
0000
1000
0100
0010
0001
0010
0200
,
2000
0000
0000
0000
0000
0000
0000
0000
0000
0000
0000
0000
3300
0000
0000
0000
0000
0000
0001
0010
0100
1000
0100
0020
,
0002
0000
0000
0000
,
0000
0000
0000
0000
0000
0000
0000
0000
0000
0000
0000
0000
0033
0000
0000
0000
0000
0000
0100
0010
1000
0001
0100
0010
,
1000
1001
0000
0000
;

//---------------dance-double - ----------------
#NOTES:
     dance-double:
     :
     Challenge:
     16:
     0.679345,1.006213,0.550281,0.542068,0.862381,579.000000,512.000000,67.000000,66.000000,0.000000,1.000000,0.679345,1.006213,0.550281,0.542068,0.862381,579.000000,512.000000,67.000000,66.000000,0.000000,1.000000:
00000000
00000000
00000000
00000000
,
00000000
00000000
00000000
00000000
,
00000000
00000000
00000000
00000000
,
00000000
00000000
00000000
00000000
,
10010000
00000000
00000000
00000000
00000000
00000000
10000000
00100000
01000000
00000000
00000000
00000000
00000000
00000000
01000000
00100000
,
10000000
00000000
00000000
00000000
00000000
00000000
10000000
00010000
00100000
00000000
00000000
00000000
00000000
00000000
00000000
00000000
,
10010000
00000000
00000000
00000000
00000000
00000000
00100000
10000000
00010000
00000000
00000000
01000000
00000000
00000000
00100000
00000000
,
01001000
00000000
00000000
00000000
00000000
00000000
00000000
00000000
00010000
00100000
00010000
00001000
01000000
00001000
00010000
00100000
,
01000000
00000000
01100000
00000000
,
00001000
00000000
00000000
00000000
00101000
00000000
00000000
00100000
,
01001000
00000000
01100000
00000000
,
00000100
00000000
00000000
00000000
00000000
00000000
00000000
00000000
00010100
00000000
00000000
00000000
00000000
00000000
00010000
00001000
,
00100000
00000000
00101000
00000000
,
00000100
00000000
00000000
00000000
00001100
00000000
00000000
00001000
,
00100000
00000000
00000000
00000000
,
00000100
00001000
00000100
00001000
00000100
00001000
00000100
00001000
00000100
00010000
00000010
00001000
00000100
00010000
00001000
00000100
,
00000010
00000000
00010000
00000100
00000000
00000000
00001100
00000000
00020010
00000000
00000000
00000000
00030000
00000000
00000100
00001000
,
00000010
00000000
00010000
00001000
00000000
00010000
00000100
00000000
00020010
00000000
00000000
00000000
00030000
00000000
00001000
00010000
,
00000010
00000000
00000000
00001010
00000000
00000000
00001000
00010000
00000010
00000000
00000000
00001010
00000000
00000000
00001000
00000100
,
00000001
00000000
00000000
00000011
00000000
00000000
00000110
00000000
00002001
00000000
00000000
00000000
00003000
00000000
00000000
00000000
,
00000010
00000001
00000000
00001000
00000100
00000000
00000100
00000001
00002000
00000000
00000000
00000000
00003000
00000000
00001000
00000001
,
00000100
00000010
00000000
00001000
00000100
00000000
00000100
00000001
00002000
00000000
00000000
00000000
00003000
00000000
00000001
00001000
,
00000010
00000100
00000000
00000100
00001000
00000000
00000001
00000010
00000100
00000010
00000000
00000010
00001000
00000000
00000010
00000100
,
00000010
00001000
00000000
00001000
00010000
00001000
00000100
00000010
00000200
00000000
00000000
00000000
00000300
00000000
00001000
00000010
,
00010000
00000000
00000000
00000000
00000000
00000000
00000000
00000000
00020010
00000000
00000000
00030200
00000000
00000000
00002300
00000000
,
00003020
00000000
00000000
00000000
00000000
00000000
00000130
00001000
00020000
00000000
00000000
00000000
00000000
00000000
00031000
00010000
,
00000100
00000000
00000000
00000000
00000000
00000000
00000000
00000000
00020100
00000000
00000000
00032000
00000000
00000000
00003020
00000000
,
00020030
00000000
00000000
00000000
00000000
00000000
00031000
00000100
00000020
00000000
00000000
00000000
00000000
00000000
00000130
00000010
,
00100000
00000000
00000000
00000000
00000000
00000000
00000000
00000000
00020100
00000000
00000000
00032000
00000000
00000000
00203000
00000000
,
00320000
00000000
00000000
00000000
00000000
00000000
00000000
00030000
00200100
00000000
00000000
00302000
00000000
00000000
00023000
00000000
,
00032000
00000000
00000000
00000000
00000000
00000000
00013000
00100000
00000200
00000000
00000000
00000000
00000300
00000000
00001000
00000100
,
00100000
00000000
00000000
00000000
00110000
00000000
00000000
00000000
00001000
00000000
00010000
00000000
00001000
00100000
00000100
00010000
,
00010000
00000000
00000000
00000000
00101000
00000000
00100000
01000000
00001000
00100000
00010000
00100000
01000000
00100000
00010000
00100000
,
00001000
00000000
00000000
00000000
01010000
00000000
00010000
00001000
01000000
00010000
00100000
00010000
00001000
00010000
00100000
00010000
,
01000000
00000000
00000000
00000000
00101000
00000000
00010000
00100000
01000000
00001000
00100000
01000000
00001000
00010000
01000000
00100000
,
00010000
00000000
00000000
00000000
00110000
00000000
00100000
00010000
00001000
00000000
00000000
00000000
01001000
00000000
00100000
00010000
,
10000000
00000000
00000000
00000000
10100000
00000000
00000000
00000000
01000000
00100000
10000000
01000000
00100000
01000000
10000000
00010000
,
01000000
00000000
00000000
00000000
10010000
00000000
00100000
01000000
00100000
00000000
00000000
00000000
00100000
01000000
10000000
01000000
,
00010000
00000000
00000000
01010000
00000000
00000000
01100000
00000000
00000000
10100000
00000000
00000000
11000000
00000000
00000000
01100000
,
00000000
00000000
00000000
00000000
00000000
00000000
00110000
00000000
00000000
00000000
00000000
00000000
00000000
00000000
00000000
10010000
00000000
00000000
00000000
00000000
00000000
00000000
00000000
00000000
10000000
00000000
00000000
00000000
01000000
00000000
00000000
00000000
00100000
00000000
00000000
00000000
01000000
00000000
00000000
00000000
00100000
00000000
00000000
00000000
00010000
00000000
00000000
00000000
,
01000000
00100000
01000000
00100000
00010000
00100000
00010000
00100000
01000000
00010000
01000000
00010000
00100000
00010000
00100000
00010000
,
01000000
00001000
01000000
00001000
00100000
00001000
00100000
00001000
01000000
00010000
00100000
00010000
01000000
00010000
00100000
00010000
,
01000000
00010000
00100000
00001000
01000000
00010000
00100000
00001000
01000000
00100000
00010000
00001000
01000000
00100000
00010000
00001000
,
00010000
00000000
00000000
00010000
01000000
00000000
00000000
01000000
00001000
00000000
00000000
00001000
00100000
00000000
00000000
00200000
,
00020000
00000000
00000000
00000000
00000000
00300000
00030000
00000000
01000000
00001000
00010000
00100000
01000000
00100000
00010000
00002000
,
02000000
00000000
00000000
00000000
00000000
00003000
03000000
00000000
00001000
01000000
00100000
00010000
00001000
00010000
00100000
01000000
,
00000100
00000000
00000000
00011000
00000000
00000000
00101000
00000000
00010100
00000000
00000000
00100000
00000000
00000000
00011000
00000000
,
00101000
00000000
00000000
00000000
00000000
00000000
00000100
00100000
00001000
00000100
00100000
00010000
,
00000200
00000000
00000000
00000000
00000000
00000300
00010000
00000100
00100000
00000000
00001000
00000000
00101000
00000000
00010000
00000000
,
00200200
00000000
00000000
00000000
00000000
00000000
00000000
00300300
,
00001100
00000000
00000100
00001000
00000000
00000100
00010000
00000000
00020010
00000000
00000000
00000000
00030000
00000000
00001000
00010000
,
00000010
00000000
00001000
00000100
00000000
00001000
00000010
00000000
00000120
00000000
00000000
00000000
00000030
00000000
00000100
00000010
,
00010000
00000000
00000000
00010100
00000000
00000000
00000100
00000010
00010000
00000000
00000000
00010100
00000000
00000000
00000100
00001000
,
00010000
00000000
00000000
00011000
00000000
00000000
00001100
00000000
00010020
00000000
00000000
00000000
00000000
00000000
00000030
00000000
,
00001000
00000100
00000000
00000100
00000001
00000000
00000100
00000010
00001000
00000010
00000000
00000010
00000001
00000000
00000001
00001000
,
00000001
00000100
00000000
00000100
00001000
00000000
00000001
00001000
00000001
00000010
00000000
00000010
00001000
00000000
00000010
00001000
,
00000100
00000010
00000000
00000010
00001000
00000000
00000010
00000001
00000010
00000100
00000000
00000100
00000001
00000000
00000001
00001000
,
00000010
00000100
00000000
00000100
00001000
00000000
00000100
00000010
00000001
00001000
00000001
00000100
00001000
00000100
00000010
00000100
,
00000020
00000000
00000000
00000000
00000000
00000000
00000000
00000000
00000000
00000000
00000000
00000000
00000000
00000000
00000000
00000030
00000000
00000000
00000010
00000000
00010000
00000000
00001000
00000000
,
00000200
00000000
00000300
00002100
00000000
00003000
00002000
00000000
00003000
00002100
00000000
00003000
,
00002010
00000000
00000000
00000000
00000000
00000000
00000000
00000000
00003000
00010000
00001000
00000100
,
00000020
00000000
00000000
00021030
00000000
00000000
00030200
00000000
00000000
00001300
00000100
00000010
,
00001000
00000000
00000000
00001000
00000000
00000000
00001000
00000000
00000000
00001000
00100000
00000100
,
00010000
00000000
00000000
00010000
00000000
00000000
00010000
00000000
00000000
00010000
00000100
00100000
,
00001000
00000000
00000000
00001000
00000000
00000000
00100000
00000000
00000000
00010000
00100000
00000100
,
00020000
00000000
00030000
00101000
00000000
00000000
00020000
00000000
00030000
00001100
00000000
00000000
,
02002000
03003000
02200000
03300000
00220000
00330000
00022000
00033000
,
00202000
00303000
00220000
00330000
02020000
03030000
01001000
00000000
,
01000000
00100000
00010000
00001000
00010000
00100000
01000000
00010000
00100000
00001000
00100000
00010000
,
01000000
00001000
00010000
01000000
00010000
00001000
01000000
00010000
00001000
01000000
00100000
00002000
,
02000000
00000000
00000000
00000000
00000000
00000000
00000000
00000000
00000000
00000000
00000000
00000000
03003000
00000000
00000000
00000000
00000000
00000000
01000000
00100000
00010000
00001000
00010000
00200000
,
02000000
00000000
00000000
00000000
00000000
00000000
00000000
00000000
00000000
00000000
00000000
00000000
03300000
00000000
00000000
00000000
00000000
00000000
00001000
00010000
00100000
01000000
00100000
00020000
,
00002000
00000000
00000000
00000000
,
00000000
00000000
00000000
00000000
00000000
00000000
00000000
00000000
00000000
00000000
00000000
00000000
00033000
00000000
00000000
00000000
00000000
00000000
01000000
00100000
10000000
00010000
01000000
00100000
,
10000000
10010000
00000000
00000000
;
