#TITLE:Air Heroes;
#SUBTITLE:;
#ARTIST:Darwin;
#TITLETRANSLIT:;
#SUBTITLETRANSLIT:;
#ARTISTTRANSLIT:;
#GENRE:;
#CREDIT:;
#MUSIC:Air Heroes.ogg;
#BANNER:Air Heroes.png;
#BACKGROUND:Air Heroes-bg.png;
#CDTITLE:;
#SAMPLESTART:23.314;
#SAMPLELENGTH:15.000;
#SELECTABLE:YES;
#OFFSET:0.000;
#BPMS:0.000=175.610
,4.000=174.991
;
#STOPS:;
#DISPLAYBPM:175.000;
#BGCHANGES:;
#FGCHANGES:;

//--------------- dance-single - ----------------
#NOTES:
     dance-single:
     :
     Hard:
     15:
     0.794643,0.942187,0.34375,0.270833,0.46875,534,501,33,26,0,0,0.794643,0.942187,0.34375,0.270833,0.46875,534,501,33,26,0,0:
0000
0000
0000
0000
,
0000
0000
0000
0000
,
0000
0000
0000
0000
,
0000
0000
0000
0000
,
0000
0000
0000
0000
,
0010
0000
0100
0000
0001
1000
0001
0100
,
0010
0000
0100
0000
0001
1000
0100
0010
,
0002
0000
0000
0000
,
1003
0000
0100
0000
0010
0000
0000
0000
0001
0000
1000
0100
1000
0000
0001
0000
,
1000
0000
0100
0000
0020
0000
0000
0000
1030
0010
1000
0000
0010
0000
0001
0000
,
0001
0000
0100
0000
0020
0000
0000
0000
0031
0010
0001
0000
0010
0000
1000
0000
,
1000
0100
0110
0000
0001
0100
0110
0000
,
1000
0100
0011
0001
0010
0100
1001
0000
,
1000
0001
1000
0010
0100
0001
0100
0010
,
1000
0100
1000
0000
0010
0000
0001
0000
1000
0001
1000
0000
0100
0000
0010
0000
,
1000
0100
1000
0100
0010
0001
0010
0100
1000
0001
1000
0001
0100
0001
0100
0010
,
2000
0000
0000
0000
0000
3000
0000
0000
,
1001
0000
1000
0100
0020
0000
0000
0000
0031
1000
0100
0000
1000
0001
0100
0000
,
1000
0000
0100
0001
0200
0000
0000
0000
0310
1000
0100
0000
0010
0001
0100
0000
,
0001
0100
0010
0100
0001
1000
0010
1000
,
0100
0010
0001
0100
0100
0010
0001
0000
,
1001
0000
0001
0010
0200
0000
0000
0000
1300
0001
0010
0000
0001
1000
0010
0000
,
0001
0000
0010
1000
0020
0000
0000
0000
0130
0001
0010
0000
0100
1000
0010
0000
,
1000
0001
0100
0010
1000
0010
0100
0001
,
1000
0100
0010
0010
1000
0100
0010
0000
,
0010
0001
1000
0001
0020
0000
0000
0000
0130
1000
0001
1000
0100
0000
0010
0000
,
0001
1000
0100
1000
0002
0000
0000
0000
1003
0001
0100
0001
1000
0000
0010
0000
,
0010
1000
1100
0000
0010
0100
0110
0000
,
0001
0100
0101
1000
0010
0100
0110
0000
,
0100
1000
0001
1000
0200
0000
0000
0000
0310
0001
1000
0001
0010
0000
0100
0000
,
1000
0001
0010
0001
2000
0000
0000
0000
3001
1000
0010
1000
0001
0000
0100
0000
,
0010
1000
0101
0000
0010
0100
0110
0000
,
1000
0100
1100
0001
0100
0010
0110
0000
,
1000
0100
0011
0100
1000
0010
1100
0001
,
0010
0100
1001
0010
0001
0010
1100
0010
,
0100
0001
0110
1000
0001
0100
1001
0100
,
0001
1000
0110
0001
1000
0010
0101
0010
,
0001
0010
1100
0010
0001
0100
0011
1000
,
0100
0010
1001
0100
1000
0100
0011
0100
,
0010
1000
0110
0001
1000
0010
1001
0010
,
1000
0000
0010
0000
2002
0000
0000
3003
,
1000
0100
1000
0000
0100
0000
0010
0100
0010
0000
0100
0000
0010
0000
0001
0000
,
0100
0010
0100
0000
0010
0000
1000
0010
1000
0000
0001
0000
0010
0000
0010
0000
,
0001
0010
0001
0000
0010
0000
0100
0010
0100
0000
0010
0000
0100
0000
1000
0000
,
0010
0100
0010
0000
0100
0000
0001
0100
0001
0000
1000
0000
0100
0000
1000
0000
,
1000
0100
0010
0000
0100
0000
0010
0001
0100
0000
0010
0000
0001
0010
1000
0000
,
0100
0010
0001
0000
1000
0000
0010
1000
0001
0000
0100
0000
1000
0100
0001
0000
,
1000
0100
1000
0100
1000
0000
0001
0100
0001
0100
0001
0000
0100
0010
1000
0100
,
0020
0000
0000
0030
0002
0000
0000
0003
,
0010
0000
0100
0000
1000
0100
0010
0001
,
0010
0000
0100
0000
1000
0100
0010
0001
,
1000
0100
0010
0100
1000
0001
0010
0001
,
0100
0010
1000
0100
0100
0010
1000
0000
,
0110
0000
0001
0010
0200
0000
0000
0000
1300
0001
0010
0000
0001
1000
0010
0000
,
0001
0000
0010
1000
0020
0000
0000
0000
0130
0001
0010
0000
0100
1000
0010
0000
,
1000
0010
0100
0010
1000
0001
0100
0001
,
0010
0100
1000
0010
0010
0100
1000
0000
,
1001
0000
0001
1000
0020
0000
0000
0000
0031
0010
1000
0000
0100
0010
0001
0000
,
1000
0000
0001
0010
0200
0000
0000
0000
0310
1000
0001
0000
0100
0010
0001
0000
,
0001
0100
0001
0000
0010
0000
0100
0000
1000
0100
1000
0000
0010
0000
0100
0000
,
0001
0010
0100
0000
1000
0000
0100
0000
0010
0000
0010
0000
0001
0000
0000
0000
,
0101
0000
0100
0001
2000
0000
0000
0000
3001
0010
1000
0000
0001
0100
1000
0000
,
1000
0000
0100
0010
0002
0000
0000
0000
1003
0010
0001
0000
1000
0100
0001
0000
,
1000
0100
0010
0001
0100
0010
1000
0100
0010
0100
1000
0001
0100
1000
0100
0001
,
0020
0000
0000
0000
0230
0000
0000
0300
,
2002
0000
0000
0000
,
0000
0000
0000
0000
,
3003
0000
0000
0000
;
