#TITLE:99 Red Balloons;
#SUBTITLE:;
#ARTIST:Goldfinger;
#TITLETRANSLIT:;
#SUBTITLETRANSLIT:;
#ARTISTTRANSLIT:;
#GENRE:Rock;
#CREDIT:Virtual Visions;
#BANNER:99 Red Balloons.png;
#BACKGROUND:99 Red Balloons-bg.png;
#LYRICSPATH:99 Red Balloons.lrc;
#CDTITLE:gt3-cdtitle.png;
#MUSIC:99 Red Balloons.ogg;
#OFFSET:0.000000;
#SAMPLESTART:55.195000;
#SAMPLELENGTH:20.139999;
#SELECTABLE:YES;
#BPMS:0.000000=149.451004
,32.000000=149.438995
,48.000000=150.612000
,60.000000=193.600006
,156.000000=193.699997
,188.000000=194.000000
,252.000000=194.100006
;
#STOPS:59.750000=1.432000
;
#BGCHANGES:;
#KEYSOUNDS:;
#ATTACKS:;

//---------------dance-single - Light----------------
#NOTES:
     dance-single:
     Light:
     Easy:
     3:
     0.214966,0.303333,0.057143,0.133333,0.000000,158.000000,152.000000,6.000000,14.000000,0.000000,0.000000,0.214966,0.303333,0.057143,0.133333,0.000000,158.000000,152.000000,6.000000,14.000000,0.000000,0.000000:
// measure 0
0000
0000
0000
0000
,  // measure 1
0000
0000
0000
0000
,  // measure 2
0000
0000
0000
0000
,  // measure 3
0000
0000
0000
0000
,  // measure 4
0000
0000
0000
0000
,  // measure 5
0000
0000
0000
0000
,  // measure 6
0000
0000
0000
0000
,  // measure 7
0000
0000
0000
0000
,  // measure 8
0001
0000
0100
0000
,  // measure 9
0010
0000
0100
0000
,  // measure 10
1000
0000
0001
0000
,  // measure 11
2000
0000
0000
0000
0000
3000
0000
0000
,  // measure 12
1000
0000
0001
0000
,  // measure 13
0010
0000
0100
0000
,  // measure 14
0001
0000
2000
0000
,  // measure 15
3000
0000
1000
0000
,  // measure 16
1000
0000
1000
0000
,  // measure 17
0001
0000
0001
0000
,  // measure 18
0001
0000
0001
0000
,  // measure 19
1000
0000
0100
0000
,  // measure 20
0010
0000
0001
0000
,  // measure 21
1000
0000
0010
0000
,  // measure 22
0200
0000
0301
0000
,  // measure 23
1001
0000
0000
0000
,  // measure 24
0010
0010
0010
0000
,  // measure 25
1001
0000
0000
0000
,  // measure 26
0001
0000
0002
0000
0100
0003
0000
0000
,  // measure 27
1001
0000
0000
0000
,  // measure 28
0100
0100
0100
0000
,  // measure 29
1001
0000
0000
0000
,  // measure 30
0110
0000
0110
0000
,  // measure 31
0000
0000
0000
0001
,  // measure 32
0001
0000
0000
1000
,  // measure 33
1000
0000
0000
0001
,  // measure 34
0001
0000
0000
1000
,  // measure 35
0100
0000
0000
0001
,  // measure 36
0100
0000
0000
1000
,  // measure 37
0010
0000
0000
0001
,  // measure 38
0002
0000
0100
0000
0100
0000
0100
0003
,  // measure 39
0000
0100
0000
0010
,  // measure 40
0000
1000
0000
0001
,  // measure 41
0000
1000
0000
0010
,  // measure 42
0000
0001
0000
0100
,  // measure 43
0000
0001
0000
1000
,  // measure 44
0000
0001
0000
0010
,  // measure 45
0000
0100
0000
0001
,  // measure 46
0000
0010
0000
0000
,  // measure 47
0010
1000
0100
0000
,  // measure 48
1000
0010
0001
0000
,  // measure 49
1000
0010
0100
0000
,  // measure 50
1000
0100
0010
0000
,  // measure 51
0001
0100
1000
0000
,  // measure 52
0001
0010
1000
0000
,  // measure 53
0010
1000
0001
0100
,  // measure 54
0010
0001
1000
0000
,  // measure 55
0020
0000
0000
0030
,  // measure 56
0002
0000
0000
0003
,  // measure 57
2000
0000
0000
3000
,  // measure 58
0200
0000
0000
0300
,  // measure 59
0020
0000
0030
0001
,  // measure 60
2000
0000
0000
3000
,  // measure 61
0002
0000
0003
1000
,  // measure 62
0200
0000
0000
0300
,  // measure 63
0000
0010
0000
0001
,  // measure 64
0000
0100
0000
0001
,  // measure 65
0000
1000
0000
0100
,  // measure 66
0000
0001
0000
0000
,  // measure 67
0001
0010
1000
0000
,  // measure 68
0010
0001
0100
0000
,  // measure 69
0010
0001
1000
0000
,  // measure 70
0010
1000
0001
0000
,  // measure 71
0100
0000
0000
1000
,  // measure 72
0100
0000
0000
0001
,  // measure 73
0100
0000
0000
1000
,  // measure 74
0010
0010
0010
0000
,  // measure 75
0100
1000
0010
0000
,  // measure 76
0100
0001
0010
0000
,  // measure 77
0001
0010
0100
1000
,  // measure 78
0001
0100
0010
0000
,  // measure 79
0200
0000
0000
0000
0000
0300
0000
0000
;

//---------------dance-single - Standard----------------
#NOTES:
     dance-single:
     Standard:
     Medium:
     6:
     0.425850,0.564286,0.066667,0.000000,0.028571,313.000000,306.000000,7.000000,0.000000,0.000000,0.000000,0.425850,0.564286,0.066667,0.000000,0.028571,313.000000,306.000000,7.000000,0.000000,0.000000,0.000000:
// measure 0
0000
0000
0000
0000
,  // measure 1
0000
0000
0000
0000
,  // measure 2
0000
0000
0000
0000
,  // measure 3
0000
0000
0000
0000
,  // measure 4
0000
0000
0000
0000
,  // measure 5
0000
0000
0000
0000
,  // measure 6
0000
0000
0000
0000
,  // measure 7
0000
0000
0000
0000
,  // measure 8
0001
1000
0000
0010
0000
0100
0000
0001
,  // measure 9
0000
0100
0010
0000
0100
0000
0000
0000
,  // measure 10
0010
0000
1000
0001
0000
0100
0000
0000
,  // measure 11
0010
0000
0100
0001
0000
0010
0001
0000
,  // measure 12
0100
0001
0000
0100
0000
0000
0010
0000
,  // measure 13
1000
0100
0000
0010
0000
0000
0000
0000
,  // measure 14
0001
0000
1000
0010
0000
0000
0000
0000
,  // measure 15
0001
1000
0000
0000
0010
1000
0000
0000
,  // measure 16
0100
0010
0000
0000
0100
0010
0000
0001
,  // measure 17
0000
0000
0000
0000
1000
0001
0000
0000
,  // measure 18
0100
0010
0000
0000
1000
0100
0000
0010
,  // measure 19
0000
0000
0000
0000
0001
1000
0000
0000
,  // measure 20
0010
0100
0000
0000
0001
0010
0000
1000
,  // measure 21
0000
0000
0000
0000
0010
0001
0000
0000
,  // measure 22
0100
0000
0000
0000
1001
0000
0000
0001
,  // measure 23
0000
0001
0010
0000
0100
0000
0010
0000
,  // measure 24
0001
1000
0010
0100
0000
0010
0100
0010
,  // measure 25
0000
0010
1000
0000
0100
0000
0010
0000
,  // measure 26
0100
0000
0010
0000
1000
0100
0000
0100
,  // measure 27
0000
0010
0001
0000
1000
0000
0001
0000
,  // measure 28
0100
0010
1000
0100
0000
0010
0001
1000
,  // measure 29
0000
0010
0100
0000
0001
0000
1000
0000
,  // measure 30
0100
0000
0010
0000
0001
0000
0100
0000
0010
0000
1000
0000
,  // measure 31
0000
0010
0001
0000
0100
0000
0010
0000
,  // measure 32
1000
0100
0010
0001
0000
0010
0100
0010
,  // measure 33
0000
0001
0100
0000
0010
0000
0100
0000
,  // measure 34
0001
0000
1000
0000
0100
0010
0000
0001
,  // measure 35
0000
0001
1000
0000
0010
0000
0100
0000
,  // measure 36
0010
1000
0100
0010
0000
0010
0100
1000
,  // measure 37
0000
0010
0100
0000
0001
0000
0010
0000
,  // measure 38
0001
1000
0001
0000
0100
0010
0100
0000
,  // measure 39
0001
0000
1000
0010
0000
0000
0000
0000
,  // measure 40
1000
0000
0100
0010
0000
0000
0000
0000
,  // measure 41
0001
1000
0010
0100
,  // measure 42
0001
0010
0000
0100
0000
0000
0000
0000
,  // measure 43
1000
0010
0000
0100
0000
0000
0001
0000
,  // measure 44
0010
0100
0000
1000
0000
0000
0000
0100
,  // measure 45
0010
0001
0000
0100
0000
0000
0010
0000
,  // measure 46
1000
0100
0000
0010
0000
0000
0000
0100
,  // measure 47
1000
0000
0010
0100
0000
0000
0001
0000
,  // measure 48
0010
0000
0100
0010
0000
0000
0000
0000
,  // measure 49
0001
1000
0000
0010
0000
0100
0000
0000
,  // measure 50
0001
0010
0000
1000
0000
0000
0000
0000
,  // measure 51
0010
0100
0000
1000
0000
0010
0000
0000
,  // measure 52
0100
0001
0000
0100
0000
0000
0000
0010
,  // measure 53
1000
0000
0100
0010
0000
0000
0000
0000
,  // measure 54
0100
0000
1000
0010
0000
0100
0000
0001
,  // measure 55
1000
0010
0100
0000
0001
0010
0001
0000
,  // measure 56
0100
0010
0100
0000
1010
0000
1100
0000
,  // measure 57
0010
0001
0010
0000
0100
0010
0100
0000
,  // measure 58
1000
0100
1000
0000
1100
0000
0110
0000
,  // measure 59
0100
0010
0001
0000
0100
0010
0100
0000
,  // measure 60
0001
1000
0100
0000
0010
0001
0100
0010
,  // measure 61
1000
0100
1000
0000
0010
0100
0010
0000
,  // measure 62
0001
0010
0100
0000
0011
0000
1000
0010
,  // measure 63
0100
0000
0001
0010
0000
0000
0100
0000
,  // measure 64
1000
0100
0000
0010
0000
0000
0000
0000
,  // measure 65
0001
0000
1000
0001
0000
0100
0000
0010
,  // measure 66
0000
1000
0000
0100
0000
0000
0000
0010
,  // measure 67
0001
1000
0000
0000
0010
0100
0000
0000
,  // measure 68
0001
0010
0000
0000
0100
1000
0000
0000
,  // measure 69
0100
0000
0010
0000
0001
0000
1000
0000
0000
0001
0000
0000
,  // measure 70
0100
0010
0000
1000
0000
0100
0000
0000
,  // measure 71
0010
0001
0000
0010
0000
0100
0000
0000
,  // measure 72
1000
0010
0000
0100
0000
0000
0000
0000
,  // measure 73
0001
0100
0000
0001
0000
0010
0000
0000
,  // measure 74
0100
1000
0000
0010
0000
0000
0000
0100
,  // measure 75
0001
0010
0000
0100
0000
0000
0010
0000
,  // measure 76
0001
0000
0100
0010
0000
0000
0000
1000
,  // measure 77
0100
0000
0010
0100
0000
0000
0000
0000
,  // measure 78
0010
0000
0001
0100
0000
0010
0000
0000
,  // measure 79
1001
0000
0000
0000
;

//---------------dance-single - Heavy----------------
#NOTES:
     dance-single:
     Heavy:
     Hard:
     9:
     0.545578,0.790000,0.171429,0.009524,0.047619,401.000000,383.000000,18.000000,1.000000,0.000000,0.000000,0.545578,0.790000,0.171429,0.009524,0.047619,401.000000,383.000000,18.000000,1.000000,0.000000,0.000000:
// measure 0
0000
0000
0000
0000
,  // measure 1
0000
0000
0000
0000
,  // measure 2
0000
0000
0000
0000
,  // measure 3
0000
0000
0000
0000
,  // measure 4
0000
0000
0000
0000
,  // measure 5
0000
0000
0000
0000
,  // measure 6
0000
0000
0000
0000
,  // measure 7
0000
0000
0000
0000
,  // measure 8
1000
0000
0001
0100
0000
0001
0100
0000
,  // measure 9
0010
0000
1000
0100
0000
1000
0100
0000
,  // measure 10
0010
0000
0001
0100
0000
0010
1000
0000
,  // measure 11
0100
0000
1000
0001
0000
0010
0001
0000
,  // measure 12
0100
0010
0000
1000
0000
0001
0010
0000
,  // measure 13
0001
1000
0000
0010
0000
1000
0100
0000
,  // measure 14
0010
0001
0000
1000
0000
0010
0100
0010
,  // measure 15
1000
0010
0100
0010
,  // measure 16
1000
0000
0001
0000
0010
0100
0000
0100
,  // measure 17
1000
0001
0100
0001
,  // measure 18
0010
0000
0001
0000
1000
0000
0100
1000
,  // measure 19
1001
0010
0100
0010
,  // measure 20
1000
0000
0001
0000
0010
0001
0000
0001
,  // measure 21
1000
0010
0100
0001
,  // measure 22
0201
0000
0000
0000
0010
0000
0000
0001
,  // measure 23
0300
0001
1000
0000
0010
0000
0100
0000
,  // measure 24
0010
1000
0001
0010
0000
0100
1000
0001
,  // measure 25
0000
0010
0100
0000
0010
0000
0001
0000
,  // measure 26
1000
0000
1000
0000
1000
0010
0000
0010
,  // measure 27
0000
0100
0001
0000
0010
0000
0001
0000
,  // measure 28
1000
0001
0100
1000
0000
0100
0001
1000
,  // measure 29
0000
0010
0100
0000
0001
0000
1000
0000
,  // measure 30
1100
0000
0100
0000
0100
0000
0011
0000
0001
0000
0001
0000
,  // measure 31
0000
0000
1000
0010
0000
0100
0000
0001
,  // measure 32
0000
0010
0001
1000
0010
0000
0010
1000
,  // measure 33
0000
0001
0010
0000
0001
0000
1000
0000
,  // measure 34
0010
0000
0010
0000
0010
1000
0000
1000
,  // measure 35
0000
0001
0010
0000
0100
0000
1000
0000
,  // measure 36
0010
0100
0010
1000
0000
0001
0010
0100
,  // measure 37
0000
1000
0001
0000
0010
0000
0001
0000
,  // measure 38
0100
0010
0100
0001
0100
0010
0100
0001
,  // measure 39
1000
0000
0010
0100
0000
0010
1000
0100
,  // measure 40
0010
0000
0100
1000
0000
0001
0100
0010
,  // measure 41
0100
0001
1000
0100
,  // measure 42
1000
0010
0000
0100
0000
0010
1000
0001
,  // measure 43
0010
0100
0000
1000
0000
0010
0100
0010
,  // measure 44
1000
0001
0000
0010
0000
0001
1000
0010
,  // measure 45
0100
0010
0000
1000
0000
0001
0100
0010
,  // measure 46
0100
1000
0000
0100
0000
0001
1000
0100
,  // measure 47
0010
0000
0001
0100
0000
0001
1000
0100
,  // measure 48
1000
0000
0010
0100
0000
0010
1000
0100
,  // measure 49
0010
0000
0100
1000
0000
0001
0100
0010
,  // measure 50
0100
0000
0001
1000
0000
0100
0010
0100
,  // measure 51
1000
0001
0000
0100
0000
0010
0100
1000
,  // measure 52
0100
0010
0000
1000
0000
0001
0010
0100
,  // measure 53
1000
0000
0001
0100
0000
0100
0001
0000
,  // measure 54
1000
0000
1000
0100
0000
0100
0000
0100
,  // measure 55
0010
0000
0001
1000
0000
0000
0100
0000
,  // measure 56
0010
0000
0001
0100
0000
0000
0010
0000
,  // measure 57
0100
0000
0001
1000
0000
0000
0100
0000
,  // measure 58
0010
0000
0001
0100
0000
0010
0000
0100
,  // measure 59
0001
0000
1000
0100
0000
0000
0001
0000
,  // measure 60
0100
0000
1000
0010
0000
0000
0100
0000
,  // measure 61
1000
0000
0100
0001
0000
0000
1000
0000
,  // measure 62
0001
0000
0010
0100
0000
0010
0000
0000
,  // measure 63
0001
0100
0001
1000
0001
0100
0001
1000
,  // measure 64
0010
0100
0010
1000
0010
0100
0010
1000
,  // measure 65
0001
0100
0010
0100
0001
0100
0010
0100
,  // measure 66
0001
1000
0100
0010
0001
1000
0010
0100
,  // measure 67
0001
1000
0100
1000
0001
1000
0010
1000
,  // measure 68
0001
0010
0001
1000
0001
0100
0001
1000
,  // measure 69
0010
0000
0100
0000
0010
0000
1000
0000
0000
0001
0000
0000
,  // measure 70
0001
0010
0000
0010
0000
0010
0100
0000
,  // measure 71
1100
1100
0000
0000
1000
0000
0001
0100
,  // measure 72
0101
0101
0000
0000
1000
0000
0010
0100
,  // measure 73
0110
0110
0000
0000
0100
0000
0001
0010
,  // measure 74
0011
0000
0011
0000
0000
0000
0001
0000
1000
0010
1000
0010
1000
0010
1000
0010
,  // measure 75
1000
0101
0001
1100
,  // measure 76
0010
0101
0010
1100
,  // measure 77
0001
0000
0110
0001
1000
0000
0110
0000
,  // measure 78
0001
1000
0100
0001
0000
1000
0010
0001
,  // measure 79
1000
0000
0000
0000
;
