#TITLE:Fiebre;
#SUBTITLE:;
#ARTIST:Bad Gyal;
#TITLETRANSLIT:;
#SUBTITLETRANSLIT:;
#ARTISTTRANSLIT:;
#GENRE:;
#CREDIT:mekacat;
#MUSIC:Fiebre.mp3;
#BANNER:Fiebre.png;
#BACKGROUND:fiebre-bg.png;
#CDTITLE:;
#SAMPLESTART:101.404;
#SAMPLELENGTH:19.913;
#SELECTABLE:YES;
#OFFSET:0.000;
#BPMS:0.000=195.850;
#STOPS:;
#BGCHANGES:3.000=fiebre.mp4=1.000=0=0=0=StretchNoLoop====,
99999.000=-nosongbg-=1.000=0=0=0=StretchNoLoop====
;
#FGCHANGES:;

//--------------- dance-single - mekacat ----------------
#NOTES:
     dance-single:
     mekacat:
     Medium:
     8:
     0,0,0,0,0:
0000
0000
0000
0000
,
0000
0000
0000
0000
,
0000
0000
0000
0000
,
0000
0000
0000
0000
,
0000
0000
0000
0000
,
0000
0000
0000
0000
,
0000
0000
0000
0000
,
0000
0000
0000
0000
,
0000
0000
0000
0000
,
0000
0000
0000
0000
,
0000
0000
0000
0000
,
0000
0010
1000
0000
,
0100
0100
0010
0000
,
1000
0001
0100
0000
,
0001
0100
0001
0010
,
0010
0001
1000
0000
,
0100
0100
0001
0000
,
1000
0100
0000
0000
,
0000
0000
0000
0000
,
0000
1001
0010
0000
,
0100
0010
0100
0001
,
0001
1000
1000
0000
,
0010
0000
0002
0003
0100
0000
0000
0020
,
0030
0100
1000
0000
,
0010
0001
1000
0000
,
0010
0100
0001
0000
,
0010
0000
0200
0300
0010
0000
0000
0000
,
0000
1000
0100
0000
,
0001
0010
0100
0001
,
0001
1000
0010
0000
,
0100
0000
0020
0030
0000
0001
0000
0020
,
0030
1000
0010
0000
,
0000
0100
1000
0001
,
0001
0100
0001
0000
,
1000
0000
0020
0030
0100
0000
0000
0000
,
0001
0000
0000
0000
,
0100
0010
1000
0001
,
0010
0200
0000
2300
,
0001
3100
0010
1000
,
0020
0000
0000
0000
,
1030
0010
0100
1000
,
0001
0100
0010
0100
,
0001
0010
0100
0010
,
2000
0000
0000
3000
,
0100
0001
0100
0010
,
0002
0000
0000
0003
,
0010
1000
0010
1000
,
0020
0000
0000
0030
,
1000
0001
1000
0100
,
0001
0010
0100
0010
,
1000
0100
1000
0010
,
0020
0000
1030
0010
,
0002
0000
0103
0010
,
2000
0000
3100
0100
,
1000
0010
0100
1000
,
0002
0000
0103
0010
,
0100
0001
0100
0001
,
2000
0000
3001
0010
,
0001
0010
0100
0001
,
2000
0000
3010
0100
,
0002
0000
0013
0100
,
0200
0000
1300
0010
,
0100
0001
0010
1000
,
0002
0000
1003
0010
,
0100
0001
0100
0010
,
2000
0000
3010
0100
,
0001
0100
0001
0010
,
0100
0010
0100
1000
,
0001
1000
0001
0010
,
1000
0010
1000
0001
,
0100
0001
0100
0010
,
0001
0010
0001
1000
,
0100
1000
0100
0000
,
0001
0010
0100
1000
,
0001
0001
0100
0010
,
0200
0000
0301
1000
,
0020
0000
1030
0100
,
0010
0100
1000
1000
,
0000
0001
0001
1000
,
0100
1000
0010
0100
,
0001
0010
0001
0000
,
1000
0100
0010
1000
,
0100
0100
0000
0010
,
0100
0010
0100
1000
,
0010
1000
0010
0001
,
0010
0100
1000
0001
,
0010
0100
1000
0100
,
0010
0100
0100
1000
,
0100
0010
0001
0000
,
1000
0100
0100
1000
,
0010
0010
0000
0010
,
0200
0000
1300
0010
,
2000
0000
3010
0100
,
0010
0100
0001
0001
,
0000
0010
0010
1000
,
0001
1000
0010
0100
,
0001
0010
0001
0000
,
1000
0100
0100
0010
,
0001
0002
0000
0003
,
2000
0000
0000
0000
,
3020
0000
0000
0000
,
1030
0010
1000
0001
,
0100
0002
0000
0000
,
0000
0023
0000
0000
,
2030
0000
0000
0000
,
3100
0010
0001
0001
,
0010
0020
0000
0000
,
0000
0030
0000
0000
,
0000
0000
1000
0010
,
0100
0000
0000
0000
,
0000
0000
0000
0000
,
0001
2000
0000
0000
,
0000
0000
0000
0000
,
0000
0000
0000
0000
,
0000
3000
0000
0000
;

//--------------- dance-single - mekacat ----------------
#NOTES:
     dance-single:
     mekacat:
     Hard:
     12:
     0,0,0,0,0:
0000
0000
0000
0000
,
0000
0000
0000
0000
,
0000
0000
0000
0000
,
0000
0000
0000
0000
,
0000
0000
0000
0000
,
0000
0000
0000
0000
,
0000
0000
0000
0000
,
0000
0000
0000
0000
,
0000
0000
0000
0000
,
0000
0000
0000
0000
,
0000
0000
0000
0000
,
0000
0000
0010
0000
1000
0001
0010
0000
,
1100
0000
1100
0000
0010
0001
0010
0000
,
1000
0000
1001
0000
0100
1000
0100
0000
,
0001
0000
0100
0010
0100
0000
0200
0000
,
0310
0000
1001
0000
1000
0010
0100
0000
,
1010
0000
1010
0000
0001
1000
0100
0000
,
1000
0100
0000
0000
,
0000
0000
0000
0000
,
0000
0000
1001
0000
0010
0100
1000
0000
,
0100
0010
0100
0002
,
0103
0000
1000
0010
1000
0010
1000
0000
,
0010
0000
0100
0002
0000
0103
0002
0000
,
0003
0001
1000
0010
1000
0010
0001
0000
,
1000
0001
0010
0100
1000
0000
0200
0000
,
0301
0000
1000
0100
0010
0000
0100
0001
,
0010
0000
0100
0100
0000
0010
2000
0000
,
3001
0000
1001
0010
1000
0001
1000
0000
,
0001
0100
0001
1000
0001
0000
0002
0000
,
0013
0000
1000
0100
0010
0001
1000
0010
,
0100
1000
0100
0000
0020
0000
0130
0200
,
0000
0300
1000
0100
0010
0001
0010
0000
,
0100
1000
0100
1000
0100
0000
0011
0000
,
0011
0100
0001
0000
,
1000
0001
0010
0010
0100
0001
2000
0000
,
3001
0000
0000
0000
,
0100
0001
0010
0100
1000
0010
1000
0000
,
0010
0200
0000
2300
,
0001
3100
0010
1000
,
0200
0001
0010
2300
,
0001
0000
3010
0100
0010
0000
1000
0001
,
0010
0000
0100
1000
0010
1000
0010
0000
,
0001
0010
0100
0010
,
2000
0100
0001
3000
,
0100
0010
0001
0000
1000
0010
0100
0000
,
0002
0010
0100
0003
,
0010
0000
1000
0001
1000
0001
0100
0000
,
0020
0001
0001
0030
,
1000
0001
0010
0001
1000
0000
0100
0000
,
0001
0000
0010
0000
0100
1000
0010
0000
,
1000
0000
0100
1000
0001
0010
0100
0000
,
1020
0000
1030
0110
,
0012
0000
0103
0010
,
2000
0000
3100
0101
,
1000
1010
0101
1000
,
0012
0000
0103
0010
,
0100
1001
0110
0001
,
2000
0000
3001
0010
,
0101
0110
1100
0001
,
2100
0000
3010
0110
,
0012
0000
0013
0100
,
0200
0000
1300
1010
,
0100
1001
0110
1000
,
1002
0000
1003
0010
,
0100
1001
0110
0010
,
2000
0000
3010
0100
,
0011
1100
0011
0010
,
0100
0010
0100
1000
,
0001
0000
1000
0000
0001
0000
0010
1000
,
0010
1000
0100
1000
0010
0100
0010
0001
,
1000
0010
1000
0010
0000
0000
0100
0010
,
0100
0010
1000
0001
1000
0000
1000
0100
,
0010
0001
0010
0100
1000
0000
0000
0000
,
0001
0010
0100
1000
,
0001
0001
0100
0010
,
0200
1000
0301
1000
,
0020
0000
0001
0000
1030
0000
0100
1000
,
0010
1000
0001
0000
1100
0000
1000
0000
,
0000
0000
0101
0000
0011
0000
1000
0010
,
0100
0001
1000
0100
0010
0001
0010
0001
,
0100
0010
0001
0000
,
1000
0100
0010
1000
,
0100
0100
0000
0010
,
0100
1010
0101
1000
,
0010
0000
1000
0000
0010
0000
0010
0100
,
0010
0100
0001
0010
0001
1000
0010
1000
,
0001
0100
0001
0100
0000
0000
0010
0100
,
0010
1000
0010
0100
0010
0000
1000
0001
,
0100
0001
1000
0001
0100
0000
0000
0000
,
0001
0010
0100
1000
,
0001
0010
0100
0010
,
1200
0001
1300
0010
,
2001
0100
3010
0100
,
0010
0100
0001
0001
,
0000
0000
0110
0000
1001
0000
1000
0100
,
0010
0001
0010
0100
0010
0001
1000
0001
,
0100
1000
0010
0000
,
1000
0100
0100
0010
,
0001
0002
0000
0003
,
2000
0000
0002
0000
,
3023
2000
0000
3000
,
1030
0010
1000
0001
,
0100
0002
1000
1000
,
1000
0023
0000
0000
,
2030
0000
0000
0000
,
3100
0010
0001
0001
,
0010
0020
0100
1000
,
0100
0030
0000
0000
,
0000
0000
1000
0010
,
0100
0000
0000
0000
,
0000
0000
0000
0000
,
0001
2000
0000
0000
,
0000
0001
0000
0000
,
0000
0001
0000
0000
,
0000
3010
0110
0110
;
