#TITLE:Blancanieves;
#SUBTITLE:;
#ARTIST:l0rna;
#TITLETRANSLIT:;
#SUBTITLETRANSLIT:;
#ARTISTTRANSLIT:;
#GENRE:;
#CREDIT:mekacat;
#MUSIC:BLANCANIEVES.mp3;
#BANNER:BLANCANIEVES.png;
#BACKGROUND:BLANCANIEVES-bg.png;
#CDTITLE:;
#SAMPLESTART:0.000;
#SAMPLELENGTH:0.000;
#SELECTABLE:YES;
#OFFSET:-0.086;
#BPMS:0.000=103.000;
#STOPS:;
#BGCHANGES:0.000=BLANCANIEVES.avi=1.000=1=0=1===CrossFade==,
99999.000=-nosongbg-=1.000=0=0=0=StretchNoLoop====
;
#FGCHANGES:;

//--------------- dance-single - Mekacat ----------------
#NOTES:
     dance-single:
     Mekacat:
     Medium:
     8:
     0,0,0,0,0:
0000
0000
0000
0000
,
0000
0000
0000
0000
,
0000
0000
0000
0000
,
0000
0000
0000
0000
0000
0000
0100
1000
,
0001
0100
0010
0001
0100
0001
0100
1000
,
0001
1000
0100
0010
0100
1000
0010
1000
,
0001
0100
0001
0100
0010
0100
0010
1000
,
0001
0100
0010
1000
0010
0100
0001
1000
,
2020
0000
0000
3030
1001
0000
0010
0000
1001
0000
0100
0000
0001
0000
0010
0000
,
0202
0000
0000
0303
1010
0000
0100
0000
1010
0000
0100
0000
0010
0000
1000
0000
,
0001
1000
0001
0010
0001
0100
0010
0100
,
0010
1000
0100
0010
0001
0000
0100
0010
,
0101
0000
0000
1010
0000
0000
1100
0000
0000
0000
0100
0000
0001
0000
0100
0000
,
1010
0000
0000
0101
0000
0000
1010
0000
0000
0000
0010
0000
0001
0000
0100
0000
,
1010
0000
0000
1001
0000
0000
0110
0000
0000
0000
0100
0000
0001
0000
1000
0000
,
0110
0000
0000
1010
0000
0000
0101
0000
0000
0000
0010
0000
0100
0000
0010
0000
,
0100
0000
0010
0000
0001
0000
0100
0000
0001
0000
0000
0100
0001
0000
0010
0000
,
0100
0000
0000
1000
0001
0000
0010
0000
0100
0000
0000
0010
0001
0000
1000
0000
,
0001
0000
0000
0100
0001
0000
1000
0000
0001
0000
0000
0100
0010
0000
0100
0000
,
0001
0000
0000
1000
0100
0000
0010
0000
0100
0000
0000
0010
0001
0000
0010
0000
,
0100
0000
0000
1000
0010
0000
0100
0000
0010
0000
0000
1000
0010
0000
1000
0000
,
0001
0000
0000
1000
0100
0000
0010
0000
0001
0000
0000
0100
0010
0000
0100
0000
,
0010
0000
0000
0100
0001
0000
1000
0000
0010
0000
0000
1000
0010
0000
0100
0000
,
0010
1000
0100
0010
0001
0100
0010
0100
,
0200
0000
0000
0000
0000
0000
0301
0010
,
0100
1000
0001
1000
0100
1000
1000
0100
,
0200
0000
0000
0000
0000
0000
0300
0010
,
1000
0010
0100
1000
0001
0010
0100
1000
,
2000
0000
0000
0000
0000
0000
3001
1000
,
0001
0000
1000
0000
0100
0000
0010
0000
0000
0001
0000
0000
0100
0000
0001
0000
,
0002
0000
0000
0000
0000
0013
1000
0010
,
0100
1000
0001
0010
0100
0000
0000
0000
,
1000
0000
1000
0000
0010
0000
1000
0000
0202
0000
0000
0303
1001
0000
0100
0000
,
1001
0000
0010
0000
1000
0000
0100
0000
2020
0000
0000
3030
0101
0000
0010
0000
,
0101
0010
0100
0001
1000
0001
1000
0100
,
1000
0010
0100
0010
0100
0001
0010
0100
,
0100
0000
1000
0000
0010
0000
1000
0000
1010
0000
0000
0110
0000
0000
0101
0000
,
0000
0000
0001
0000
0100
0000
0001
0000
0110
0000
0000
1100
0000
0000
0011
0000
,
0001
0000
0001
0000
0010
0000
1000
0000
1001
0000
0000
0101
0000
0000
1010
0000
,
0100
0000
0010
0000
1000
0000
0100
0000
1010
0000
0000
0011
0000
0000
1100
0000
,
0000
0000
0000
0000
0000
0000
0000
0000
0010
0000
1000
0000
0000
0001
0000
0000
,
0001
1000
0100
0010
0100
1000
0020
0000
,
0031
1000
0010
1000
2000
0000
3100
0010
,
0100
1000
0001
0100
0020
0000
1030
0100
,
0010
0000
0001
0000
0000
0000
0000
0000
0100
0000
0000
0100
0000
0000
0100
0000
,
0010
0000
0000
0100
0000
0000
0000
0000
1000
0000
0000
1000
0000
0000
1000
0000
,
0010
0000
0000
1000
0000
0000
0000
0000
0001
0000
0000
0001
0000
0000
0001
0000
,
0100
0000
0000
0001
0000
0000
0010
0000
0000
0010
0000
0000
0010
0000
0100
0000
,
0000
0010
0000
0000
0100
0000
0000
0000
0000
0000
0000
0000
0000
0000
0000
0000
;
