#TITLE:quell;
#SUBTITLE:-the seventh slave- ANOTHER;
#ARTIST:dj TAKA Vs. DJ YOSHITAKA;
#TITLETRANSLIT:;
#SUBTITLETRANSLIT:;
#ARTISTTRANSLIT:;
#CREDIT:;
#BANNER:quell -the seventh slave- ANOTHER.png;
#BACKGROUND:quell -the seventh slave- ANOTHER BG.png;
#LYRICSPATH:;
#CDTITLE:;
#MUSIC:quell -the seventh slave- ANOTHER.mp3;
#OFFSET:-1.490;
#SAMPLESTART:28.120;
#SAMPLELENGTH:9.300;
#SELECTABLE:YES;
#BPMS:0.000=81.000,36.000=162.000,100.000=81.000,116.000=162.000,148.000=81.000,152.000=162.000;
#STOPS:;
#BGCHANGES:;

//---------------dance-single - ----------------
#NOTES:
     dance-single:
     :
     Challenge:
     10:
     0.704,0.836,0.028,0.046,0.912: // measure 1
0000
0000
0000
0000
,  // measure 2
0000
0000
0000
0000
,  // measure 3
0000
1000
0000
0000
0010
0000
0000
0001
0000
0000
0001
0000
0000
0000
0000
0000
,  // measure 4
0000
1000
0000
0000
0100
0000
0000
0001
0000
0000
0001
0000
0000
0000
0000
0000
,  // measure 5
0000
1000
0000
0000
0001
0000
0000
1000
0000
0000
0001
0000
0000
0000
0000
0000
,  // measure 6
0000
0010
0000
0000
0100
0000
0000
0010
0000
0000
0100
0000
0000
0000
0000
0000
,  // measure 7
0000
0001
0000
0000
0100
0000
0000
1000
0000
0000
0100
0000
0000
0000
0000
0000
,  // measure 8
0000
0001
0000
0000
0010
0000
0000
1000
0000
0000
0010
0000
0000
0000
0000
0000
,  // measure 9
2002
0000
0000
3003
,  // measure 10
0100
0000
0001
0010
0100
0000
0001
0000
0100
1000
0010
0000
0100
0000
0001
0010
,  // measure 11
0100
0000
1000
0100
0010
0000
0001
0000
0100
0000
0001
1000
0001
1000
0001
0000
,  // measure 12
1000
0000
0100
0001
0100
0000
1000
0000
0010
0001
0010
0000
1000
0000
0100
0010
,  // measure 13
0001
0000
1000
0100
0010
0000
0001
0000
0100
0000
0001
1000
0001
0100
0001
0000
,  // measure 14
1000
0000
0100
0010
0100
0000
1000
0000
0001
0100
0001
0000
0010
0000
0001
0010
,  // measure 15
0100
0000
0001
1000
0100
0000
0010
0000
0001
0000
1000
0001
1000
0001
1000
0000
,  // measure 16
0001
0000
0010
0001
0100
0000
0010
0000
1000
0100
1000
0000
0010
0000
0100
0010
,  // measure 17
0100
0000
1000
0010
1000
0000
0100
0000
1000
0000
0001
1000
0001
1000
0001
0000
,  // measure 18
1000
0100
1000
0010
1000
0000
0100
0001
0010
0001
0100
0000
0010
0000
1000
0001
,  // measure 19
1000
0001
0100
0010
0100
0000
0001
0000
1000
0100
1000
0100
1000
0100
1000
0000
,  // measure 20
0001
0010
0100
1000
0010
0000
1000
0100
0010
0001
0100
0000
0010
0000
1000
0100
,  // measure 21
0010
0100
1000
0100
0010
0000
0001
0000
1000
0100
0001
0100
1000
0100
0001
0000
,  // measure 22
0100
1000
0100
1000
0100
0000
0001
1000
0001
1000
0001
0000
0100
0000
0010
0001
,  // measure 23
0010
0100
1000
0100
0010
0000
0001
0000
0010
0100
0010
0100
0010
0100
0010
0000
,  // measure 24
0001
0010
0100
1000
0001
0000
1000
0100
0010
0001
1000
0000
0010
0000
0100
0001
,  // measure 25
0100
0001
0010
0001
0010
0000
0001
0000
1000
0100
0010
0001
0010
0100
1000
0000
,  // measure 26
1001
0000
0000
0000
0000
0000
1000
0001
,  // measure 27
1000
0000
0000
0000
0000
0000
0100
0010
,  // measure 28
0100
0000
0000
0000
0000
0001
1000
0001
1000
0100
0010
0001
1000
0100
0010
0001
,  // measure 29
1000
0000
0000
0000
0001
1000
0100
1000
0001
0000
0000
0000
0000
0000
1000
0100
0010
0000
0001
0000
0010
0000
0100
0000
1000
0000
0000
0000
1000
0100
0000
0000
,  // measure 30
1000
0100
0001
0010
,  // measure 31
1000
0100
0001
0010
,  // measure 32
0001
0100
1000
0010
,  // measure 33
0100
0001
0100
0010
,  // measure 34
1000
0100
0010
0001
1000
0100
0010
0001
,  // measure 35
1000
0100
0001
0100
1000
0001
0010
1000
,  // measure 36
0010
0001
1000
0001
0100
0010
1000
0001
,  // measure 37
1000
0100
0000
0000
0001
0100
0000
0000
1000
0100
0000
0000
0001
0100
0000
0000
,  // measure 38
2002
0000
0000
3003
,  // measure 39
0001
0010
0100
1000
0100
0000
1000
0100
1000
0100
1000
0000
0001
0010
0000
1000
,  // measure 40
0001
0010
0001
0010
0100
0000
1000
0010
0100
0010
1000
0000
0001
1000
0000
1000
,  // measure 41
0001
0010
0100
0010
0001
0000
1000
0100
0010
0100
1000
0000
0001
0010
1000
0010
,  // measure 42
0001
0100
1000
0100
0001
0010
0100
1000
0001
0010
0100
1000
0100
1000
0100
1000
,  // measure 43
0001
0010
0001
0100
0001
0000
1000
0100
1000
0010
1000
0000
0001
0010
0000
0100
,  // measure 44
1000
0100
1000
0010
0100
0000
0001
0010
0001
0100
1000
0000
0001
0010
0000
1000
,  // measure 45
0010
0001
0010
0001
0010
0000
1000
0001
1000
0001
1000
0000
0001
0100
0001
0100
,  // measure 46
0001
0010
0001
0010
0001
0010
0100
0001
0100
0001
0100
0010
1000
0000
0000
0000
,  // measure 47
1000
0100
1000
0100
1000
0000
0100
0001
0100
0001
0100
0000
0001
0100
0000
0010
,  // measure 48
1000
0010
0100
0010
1000
0000
1000
0100
1000
0010
0100
0000
0001
0010
0000
0010
,  // measure 49
0001
0010
0100
1000
0010
0000
1000
0100
0010
0001
0010
0000
1000
0100
0010
0100
,  // measure 50
1000
0001
1000
0001
0100
0001
0010
0100
0010
0100
0010
0000
0001
0010
0100
1000
,  // measure 51
0100
0010
0001
0010
0001
0010
0001
0100
0001
0000
1000
0100
1000
0100
0010
0000
,  // measure 52
0001
0010
0100
1000
0100
1000
0010
0100
0010
0000
0001
0010
0001
0010
0100
0000
,  // measure 53
1000
0001
0100
0010
1000
0100
0010
0001
1000
0100
1000
0100
1000
0001
1000
0001
,  // measure 54
0010
0001
0010
0001
1000
0100
0010
0001
1000
0100
0001
0100
1000
0100
0001
0100
,  // measure 55
2000
0000
0000
3000
;
