#TITLE:cloche;
#SUBTITLE:;
#ARTIST:Qrispy Joybox;
#TITLETRANSLIT:;
#SUBTITLETRANSLIT:;
#ARTISTTRANSLIT:;
#CREDIT:;
#BANNER:cloche.PNG;
#BACKGROUND:cloche BG.PNG;
#LYRICSPATH:;
#CDTITLE:;
#MUSIC:cloche.mp3;
#OFFSET:-0.760;
#SAMPLESTART:12.300;
#SAMPLELENGTH:10.880;
#SELECTABLE:YES;
#BPMS:0.000=182.000;
#STOPS:;
#BGCHANGES:;

//---------------dance-single - ----------------
#NOTES:
     dance-single:
     :
     Beginner:
     2:
     0.138,0.219,0.089,0.161,0.000:
0000
0000
0000
0000
,
0000
0000
0000
0000
,
0000
0000
0000
0000
,
0000
0000
0000
0000
,
1000
0000
0000
0000
,
0001
0000
0000
0000
,
1000
0000
0000
0000
,
0001
0000
0000
0000
,
2000
0000
0000
3000
,
0000
0000
0000
0000
,
0002
0000
0000
0003
,
0000
0000
0000
0000
,
0200
0000
0000
0300
,
0000
0000
0000
0000
,
0020
0000
0000
0030
,
0000
0000
0000
0000
,
1000
0000
0000
0000
,
0100
0000
0000
0000
,
0010
0000
0000
0000
,
0001
0000
0000
0000
,
0001
0000
0000
0000
,
0010
0000
0000
0000
,
0100
0000
0000
0000
,
1000
0000
0000
0000
,
2000
0000
0000
3000
,
0000
0000
0000
0000
,
0200
0000
0000
0300
,
0000
0000
0000
0000
,
0020
0000
0000
0030
,
0000
0000
0000
0000
,
0002
0000
0000
0003
,
0000
0000
0000
0000
,
1001
0000
0000
0000
,
0100
0000
0000
0000
,
1001
0000
0000
0000
,
0010
0000
0000
0000
,
0110
0000
0000
0000
,
0100
0000
0000
0000
,
0110
0000
0000
0000
,
0010
0000
0000
0000
,
1000
0000
1000
0000
,
0001
0000
0001
0000
,
1000
0000
1000
0000
,
0001
0000
0001
0000
,
0100
0000
0100
0000
,
0010
0000
0010
0000
,
0100
0000
0100
0000
,
2002
0000
0000
0000
,
0000
0000
0000
3003
,
1000
0000
0100
0000
,
0010
0000
0001
0000
,
1000
0000
0100
0000
,
0010
0000
0000
0000
,
0001
0000
0010
0000
,
0100
0000
1000
0000
,
0001
0000
0010
0000
,
0100
0000
0000
0000
,
2000
0000
0000
3000
,
0000
0000
0000
0000
,
0002
0000
0000
0003
,
0000
0000
0000
0000
,
0200
0000
0000
0300
,
0000
0000
0000
0000
,
0020
0000
0000
0030
,
0000
0000
0000
0000
,
1001
0000
0000
0000
,
0110
0000
0000
0000
,
1001
0000
0000
0000
,
0110
0000
0000
0000
,
1000
0000
0000
0000
,
0100
0000
0000
0000
,
0010
0000
0000
0000
,
0002
0000
0000
0003
,
1000
0000
0000
0000
,
0001
0000
0000
0000
,
1000
0000
0000
0000
,
0002
0000
0000
0003
,
1000
0000
1000
0000
,
0001
0000
0001
0000
,
1000
0000
1000
0000
,
2002
0000
0000
0000
,
0000
0000
0000
3003
;

//---------------dance-single - ----------------
#NOTES:
     dance-single:
     :
     Easy:
     4:
     0.324,0.474,0.107,0.268,0.000:
0000
0000
0000
0000
,
0000
0000
0000
0000
,
0000
0000
0000
0000
,
0000
0000
0000
0000
,
1001
0000
0000
0000
,
0110
0000
0000
0000
,
1001
0000
0000
0000
,
0110
0000
0000
0000
,
1000
0000
0100
0000
,
0010
0000
0001
0000
,
1000
0000
0100
0000
,
0002
0000
0000
0003
,
0100
0000
1000
0000
,
0010
0000
0100
0000
,
0001
0000
1000
0000
,
0002
0000
0000
0003
,
1000
1000
0001
0001
,
1000
1000
0001
0001
,
0100
0100
0010
0010
,
0020
0000
0000
0030
,
1000
1000
0100
0100
,
0010
0010
0001
0001
,
1000
0100
0010
0001
,
0002
0000
0000
0003
,
1000
0000
0100
0000
,
0010
0000
0001
0000
,
1000
0000
0100
0000
,
0010
0000
0001
0000
,
1000
0000
0001
0000
,
0100
0000
0010
0000
,
1000
0000
0001
0000
,
0100
0000
0010
0000
,
1000
1000
0100
0010
,
0001
0001
0010
0100
,
1000
1000
0100
0010
,
0002
0000
0000
0003
,
0001
0001
0010
0100
,
1000
1000
0100
0010
,
0001
0001
0010
0100
,
2000
0000
0000
3000
,
0001
0002
0103
0200
,
0310
0020
1030
2000
,
3100
0200
0310
0020
,
0031
0002
0013
0020
,
0130
0200
1300
2000
,
3100
0200
0310
0020
,
0031
0002
0013
0020
,
0000
0000
0000
0000
,
0000
0000
0000
0030
,
0100
1000
0100
0010
,
0001
0010
0001
0010
,
0100
1000
0100
0001
,
0200
0000
0000
0300
,
0010
1000
0100
0010
,
0001
0010
0100
1000
,
0001
0100
0010
1000
,
0200
0000
0000
0300
,
0010
0001
0010
0001
,
0100
0001
0100
0001
,
0010
0001
0010
0001
,
0020
0000
0000
0030
,
0100
1000
0100
1000
,
0010
1000
0010
1000
,
0100
1000
0100
1000
,
0200
0000
0000
0300
,
1001
0000
1001
0000
,
0110
0000
0110
0000
,
1001
0000
1001
0000
,
0220
0000
0000
0330
,
1000
1000
0001
0001
,
1000
1000
0001
0001
,
1000
0100
0010
0001
,
0002
0000
0000
0003
,
1000
0100
0010
0001
,
1000
0100
0010
0001
,
1000
0100
0010
0001
,
0002
0000
0000
0003
,
0001
0010
0100
1000
,
0001
0010
0100
1000
,
0001
1000
0001
1000
,
2002
0000
0000
0000
,
0000
0000
0000
3003
;

//---------------dance-single - ----------------
#NOTES:
     dance-single:
     :
     Medium:
     6:
     0.458,0.584,0.125,0.170,0.000:
0000
0000
0000
0000
,
0000
0000
0000
0000
,
0000
0000
0000
0000
,
0000
0000
0000
0000
,
1001
0000
0000
0000
,
0110
0000
0000
0000
,
1001
0000
0000
0000
0000
0000
0000
1001
,
0000
0000
0000
0000
,
0000
1000
0001
1000
0001
0001
0010
0100
,
0000
0100
0000
0100
0000
0100
0000
0100
,
0000
1000
0100
0010
0001
0010
0100
2000
,
0000
0000
0000
3000
,
0000
0001
0010
0100
1000
0100
0010
0001
,
0000
1000
0000
0001
0000
1000
0000
0001
,
0000
1000
0100
1000
0010
0100
0001
0020
,
0000
0000
0000
0030
,
0000
1000
0001
1000
0000
0001
1000
0001
,
0000
0100
0010
0100
0000
0010
0100
0010
,
0000
1000
0001
1000
0000
0001
1000
0002
,
0000
0000
0000
0003
,
0000
1000
0100
0010
0000
0001
0010
0100
,
0000
1000
0100
0010
0000
0001
1000
0010
,
0000
0100
0001
0001
0001
0001
0010
0200
,
0000
0000
0000
0300
,
1000
0000
1000
0100
0000
0100
0000
0010
,
0000
0001
0000
0010
0000
0100
1000
0000
,
0001
0000
0010
0100
0000
0100
0000
2000
,
0000
0000
0000
3000
,
0001
0000
1000
0001
0000
0001
0000
1000
,
0000
0100
0000
0010
0000
0001
0001
0000
,
0001
0000
0100
1000
0000
0100
0000
0002
,
0000
0000
0000
0003
,
1000
0000
0100
0000
0010
0001
0010
0000
,
1000
0001
1000
0000
0010
0100
0010
0000
,
1000
0100
0010
0000
0001
0010
0100
2000
,
0000
0000
0000
3000
,
0001
0000
0010
0000
1000
0010
1000
0000
,
0001
1000
0001
0000
1000
0100
0010
0000
,
0001
0010
0100
0000
1000
0001
1000
0002
,
0000
0000
0000
0003
,
1001
0000
0000
0000
0001
1000
0000
0000
,
0110
0000
0000
0000
0001
1000
0000
0000
,
0110
0000
0000
0000
1000
0001
0000
0000
,
0110
0000
0000
0000
0001
1000
0000
0000
,
0011
0000
0011
0000
,
0011
0000
1100
0000
,
1000
0100
0010
0001
,
0022
0000
0000
0000
,
0000
0000
0000
0033
,
0000
1000
0100
0001
0000
0001
0100
1000
,
0000
1000
0100
0001
0000
0001
0100
1000
,
0000
1000
0100
0010
0001
0010
0100
2000
,
0000
0000
0000
3000
,
0000
0001
0010
1000
0000
1000
0010
0001
,
0000
0001
0010
1000
0000
1000
0010
0001
,
0000
1000
0001
0100
0010
1000
0001
0200
,
0000
0000
0000
0300
,
0010
1000
0100
0010
0001
1000
0001
1000
,
0001
1000
0001
1000
0000
0001
0000
0001
,
1000
0100
0001
0100
1000
0100
0010
0002
,
0000
0000
0000
0003
,
0001
0010
1000
0010
0001
0100
1000
0100
,
0001
0010
1000
0010
0001
0100
1000
0100
,
0001
1000
0001
1000
0001
0100
0010
0200
,
0000
0000
0000
0300
,
0010
0000
0100
0100
0000
0100
0000
0100
,
0000
0010
0000
1000
0000
0010
0100
0000
,
0001
0000
0100
1000
0000
0100
0000
0002
,
0000
0000
0000
0003
,
1000
0100
0010
0001
0000
0001
0000
0010
,
0000
0100
0000
1000
0000
0100
0010
0000
,
0001
0010
0100
1000
0100
0010
0001
0002
,
0000
0000
0000
0003
,
1000
0100
1000
0010
0100
0001
0010
0100
,
1000
0001
1000
0001
0000
1000
0001
1000
,
0000
0001
0010
0100
1000
0100
0010
0001
,
0001
0010
0100
2000
0000
0000
3000
0000
,
1000
0100
0010
0001
0010
0100
1000
0001
,
1000
0001
0000
0001
0010
0100
0000
1000
,
0010
0100
0001
0010
0100
1000
0100
0220
,
0000
0000
0000
0000
,
0000
0000
0000
0330
;

//---------------dance-single - ----------------
#NOTES:
     dance-single:
     :
     Hard:
     8:
     0.546,0.657,0.116,0.170,0.009:
0000
0000
0000
0000
,
0000
0000
0000
0000
,
0000
0000
0000
0000
,
0000
0000
0000
0000
,
0110
0000
0000
0000
,
1001
0000
0000
0000
,
0110
0000
0000
0000
0000
0000
0000
1001
,
0000
0000
0000
0000
,
1000
0100
1000
0010
0100
0001
0010
0100
,
0000
1000
0000
0100
0000
0010
0000
0001
,
0000
1000
0100
1000
0010
0100
0001
0020
,
0000
0000
0000
0030
,
0100
1000
0010
0100
0001
0010
0100
0100
,
0000
1000
0000
0010
0000
0100
0000
0001
,
0000
1000
0100
0001
0100
1000
0010
0020
,
0000
0000
0000
0030
,
1000
0100
0010
0001
0000
1000
0100
0001
,
0000
0001
0100
1000
0000
0010
0100
0001
,
0000
0001
0010
1000
0000
0001
0100
2000
,
0000
0000
0000
3000
,
0010
0100
0001
0010
0000
0100
1000
0010
,
0000
0100
0001
1000
0000
0001
0010
0100
,
0000
0010
0001
0010
0001
0100
1000
0002
,
0000
0000
0000
0003
,
1000
0000
0100
0001
0100
1000
0100
0001
,
0000
0010
0000
0100
0000
1000
0100
0001
,
0100
1000
0100
0001
0100
1000
0010
0002
,
0000
0000
0000
0003
,
1000
0000
0100
0001
0100
1000
0100
0001
,
0000
1000
0000
0001
0000
1000
0010
0001
,
1000
0100
0001
0010
1000
0100
0001
0020
,
0000
0000
0000
0030
,
0100
1000
0010
0100
0001
0010
0100
1000
,
0001
0000
1000
0000
0001
0000
0010
0000
0100
0000
1000
0100
0001
0000
0100
0000
,
0010
0001
0010
0001
0100
0001
1000
0001
,
0002
0000
0000
0003
,
1000
0100
0010
0001
0010
0100
1000
0001
,
0010
0000
1000
0000
0001
0000
0100
0000
1000
0000
0001
0100
0010
0000
0100
0000
,
0010
0010
1000
0100
0010
0100
1000
0200
,
0000
0000
0000
0300
,
0010
0000
0001
0100
0001
0100
0000
0010
,
0001
0100
0001
0100
0000
0001
0010
0100
,
0001
0000
1000
0001
1000
0001
0000
1000
,
0100
0010
0001
0010
0000
1000
0010
0001
,
1000
0100
0001
0000
0100
1000
1000
0000
,
0010
0100
0001
0000
0010
0100
1000
0000
,
0100
0010
0001
0010
0100
1000
0100
0022
,
0000
0000
0000
0000
,
0000
0000
0000
0033
,
0001
0100
1000
0010
0000
0001
0100
1000
,
0000
0001
0010
1000
0000
1000
0100
0001
,
0000
0001
0100
1000
0100
0001
0010
0200
,
0000
0000
0000
0300
,
1000
0100
1000
0010
0000
0010
0100
0001
,
0000
0001
0001
0100
0000
0010
1000
1000
,
0000
1000
0001
0100
0010
0010
1000
0200
,
0000
0000
0000
0300
,
0010
0001
0100
0010
1000
0100
1000
0010
,
0100
0001
0010
0100
0010
0001
0100
0010
,
1000
0100
0010
0001
0010
0001
0010
0200
,
0000
0000
0000
0300
,
1000
0010
0100
0001
0010
0100
1000
1000
,
0001
0100
1000
0001
0010
1000
0100
0001
,
1000
0010
0001
1000
0100
0001
0010
0200
,
0000
0000
0000
0300
,
1000
0100
0010
0001
0000
0011
0000
1100
,
0000
0110
0000
0011
0000
0110
0010
0100
,
1000
0001
0100
0010
0000
0110
0000
2002
,
0000
0000
0000
3003
,
0001
0010
0100
1000
0000
0001
0000
1000
,
0000
0001
0010
0100
1000
0100
1000
0100
,
0010
0100
0010
0001
0000
1000
0000
0002
,
0000
0000
0000
0003
,
0001
0010
1000
0001
0100
1000
0001
0010
,
0100
1000
0100
0001
0100
1000
0100
0001
,
0100
1000
0100
0010
0001
0010
0100
1000
,
0001
0010
0100
0010
0001
0100
0000
0000
,
0010
1000
0100
0010
0001
1000
1000
0001
,
0010
1000
0001
0100
1000
1000
0100
0001
,
1000
0010
0001
1000
0100
0001
0010
2200
,
0000
0000
0000
0000
,
0000
0000
0000
3300
;
