#TITLE:VANITY ANGEL;
#SUBTITLE:;
#ARTIST:FIX X;
#TITLETRANSLIT:;
#SUBTITLETRANSLIT:;
#ARTISTTRANSLIT:;
#CREDIT:;
#BANNER:VANITY ANGEL.png;
#BACKGROUND:VANITY ANGEL-bg.png;
#LYRICSPATH:;
#CDTITLE:./CDTITLES/DANCE DANCE REVOLUTION EXTREME.PNG;
#MUSIC:VANITY ANGEL.mp3;
#OFFSET:-0.054;
#SAMPLESTART:34.310;
#SAMPLELENGTH:15.000;
#SELECTABLE:YES;
#DISPLAYBPM:140.000;
#BPMS:0.000=140.000;
#STOPS:;
#BGCHANGES:;

//---------------dance-single - ----------------
#NOTES:
     dance-single:
     :
     Challenge:
     10:
     0.630,0.796,0.264,0.370,0.915:
0000
0000
0000
0000
,
0000
0000
0000
0000
,
0000
0000
0000
0000
,
0000
0000
0000
0000
,
1000
0100
0000
0010
0000
0001
0010
0000
0000
0000
0000
0000
0000
0000
0000
0000
,
1000
0010
0000
0100
0000
0001
1000
0000
0000
0000
0000
0000
0000
0000
0000
0000
,
0100
1000
0000
0010
0000
0100
0001
0000
0000
0000
0000
0000
0000
0000
0000
0000
,
0001
0100
0000
1000
0000
0100
0001
0000
0000
0000
0000
0000
0000
0000
0000
0000
,
2000
0000
0000
0000
0000
0000
3001
0100
2000
0000
0000
0000
0000
0000
0000
0000
,
0000
3001
0010
0100
,
2100
0001
0010
3100
,
1000
0100
0010
0001
0100
0010
1000
0100
0010
0001
1000
0100
0010
0100
1000
0100
,
0020
0000
0000
0000
0000
0000
0031
1000
0200
0000
0000
0000
0000
0000
0000
0000
,
0000
0310
0001
1000
,
1020
0000
0000
0100
0100
0000
0130
0000
,
0000
0000
1000
0100
0010
0100
1000
0001
0010
0100
0010
0001
1000
0100
0010
0001
,
2000
0001
0000
3001
,
1000
0000
0000
0100
0000
0000
1000
0000
0001
0000
0000
0010
0000
0000
0100
0000
,
1200
0000
0000
0000
0010
0000
0000
0000
1000
0000
0000
0000
0310
0000
0000
0100
,
0020
0000
0000
0000
0000
0000
0000
0000
1030
0000
0000
0100
0000
0000
0010
0000
,
0001
0010
0000
0010
0100
0000
1000
0000
0001
0100
0000
0100
0001
0000
0010
0000
,
0100
1000
0000
1000
0100
0000
0001
0100
0000
0100
1000
0000
0010
0000
0100
0000
,
0001
0010
0000
0100
1000
0000
0010
0000
1000
0100
0000
0010
0001
0000
0010
0000
,
1000
0010
0000
0001
0010
0000
0010
0100
0000
0100
1000
0000
0001
0010
0100
0000
,
1000
0100
0000
0010
0001
0000
1000
0000
0001
0010
0000
0100
1000
0000
0010
0000
,
0100
0010
0000
0100
0001
0000
0010
1000
0000
1000
0010
0000
0001
0000
0100
0000
,
1000
0010
0000
0010
1000
0000
0100
0000
0001
0100
0000
0001
0100
0000
1000
0000
,
0100
0000
0010
0000
0110
0000
0110
0000
0001
0010
0100
1000
0001
0010
0100
1000
,
0001
0000
1000
0100
0000
0100
0010
0000
0010
0001
0000
0001
0000
0010
0000
0101
,
0000
0000
0100
1000
0000
0100
1000
0000
0100
1000
0000
0100
0000
1000
0000
0110
,
0000
0000
0010
0100
0000
0010
0100
0000
0010
0100
0000
0010
0000
0100
0000
0110
,
0000
0000
0001
0100
0000
0001
1000
0000
0001
0100
0000
0001
1000
0100
0000
0110
,
0000
0000
1000
0100
0000
0100
1000
0000
1000
0010
0000
0010
0000
1000
0000
1001
,
0000
0000
0001
0100
0000
0100
0001
0000
0001
1000
0000
1000
0000
0001
0000
0110
,
0000
0000
1000
0001
0000
0010
0001
0000
0100
0001
0000
0100
0000
0010
0000
1010
,
0000
0000
1000
0100
0000
0100
1000
0000
0100
0001
0000
0001
0000
0100
0000
1010
,
0000
0100
0000
0010
0000
0001
0020
0000
0000
0000
0000
0000
0000
0000
0030
0000
,
1000
0100
0000
0001
0000
1000
0200
0000
0000
0000
0000
0000
0000
0000
0300
0000
,
0001
1000
0000
0001
0000
1000
0002
0000
0000
0000
0000
0000
0000
0000
0003
0000
,
0100
1000
0000
0010
0000
0100
2000
0000
0000
0000
0000
0000
0000
0000
3000
0000
,
2010
0010
0001
3100
,
1020
0100
0001
1030
,
0102
1000
0010
1003
,
0210
0010
0001
1300
,
0000
0000
2000
0100
0000
0010
0010
0000
0001
0001
0000
0010
0000
3100
0000
0110
,
0000
0000
0020
0100
0000
1000
1000
0000
0001
0001
0000
1000
0000
0130
0000
0110
,
0000
0000
0002
1000
0000
0100
0100
0000
1000
1000
0000
0100
0000
1003
0000
0110
,
0000
0000
0200
0001
0000
0010
0010
0000
0001
0001
0000
0010
0000
1300
0000
1001
,
0000
0000
2000
0100
0000
3002
0100
0000
2003
0100
0000
3002
0000
0100
0003
1100
,
0000
0000
2000
0100
0000
3200
0010
0000
0302
0010
0000
2003
0000
0010
3000
0110
,
0000
0000
0020
0100
0000
0230
1000
0000
0302
0010
0000
0203
0000
0010
0300
0011
,
0000
0000
1000
0100
1000
0100
0010
0000
0010
0001
0000
0001
0010
0000
0100
1000
,
2002
0000
0000
0000
,
0000
0000
0000
3003
;
