#TITLE:NORTH;
#SUBTITLE:;
#ARTIST:WALL5;
#TITLETRANSLIT:;
#SUBTITLETRANSLIT:;
#ARTISTTRANSLIT:;
#CREDIT:;
#BANNER:NORTH.png;
#BACKGROUND:NORTH BG.png;
#LYRICSPATH:;
#CDTITLE:;
#MUSIC:NORTH.mp3;
#OFFSET:-0.393;
#SAMPLESTART:43.821;
#SAMPLELENGTH:9.780;
#SELECTABLE:YES;
#BPMS:0.000=137.990;
#STOPS:;
#BGCHANGES:;

//---------------dance-single - ----------------
#NOTES:
     dance-single:
     :
     Beginner:
     2:
     0.126,0.166,0.010,0.107,0.000:
0000
0000
0000
0000
,
0000
0000
0000
0000
,
0000
0000
0000
0000
,
0000
0000
0000
0000
,
1000
0000
0000
0000
,
0100
0000
0000
0000
,
0010
0000
0000
0000
,
0001
0000
0000
0000
,
1000
0000
0000
0000
,
0001
0000
0000
0000
,
0100
0000
0000
0000
,
0010
0000
0000
0000
,
1000
0000
0000
0000
,
0100
0000
0000
0000
,
0001
0000
0000
0000
,
0100
0000
0000
0000
,
2000
0000
0000
3000
,
1000
0000
0000
0000
,
1000
0000
0100
0000
,
0010
0000
0000
0000
,
0001
0000
0010
0000
,
0100
0000
0000
0000
,
1000
0000
0001
0000
,
1000
0000
0000
0000
,
0100
0000
0000
0000
,
0001
0000
0100
0000
,
1000
1000
1000
0000
,
0100
0000
0010
0000
,
0010
0010
0010
0000
,
0001
0000
0010
0000
,
0100
1000
0100
0000
,
0010
0000
0001
0000
,
0100
0010
0100
0000
,
2000
0000
0000
3000
,
2000
0000
0000
3000
,
2000
0000
0000
3000
,
2000
0000
0000
3000
,
2000
0000
0000
3000
,
2000
0000
0000
3000
,
2000
0000
0000
3000
,
2000
0000
0000
3000
,
1000
0000
0000
0000
,
0100
0000
0000
0000
,
0010
0000
0000
0000
,
0001
0000
0000
0000
,
1000
0000
1000
0000
,
0100
0000
0100
0000
,
0010
0000
0010
0000
,
0002
0000
0000
0003
,
1000
0000
0100
0000
,
0100
0000
0010
0000
,
0010
0000
0001
0000
,
0001
0000
1000
0000
,
0001
0000
1000
0000
,
0100
0000
1000
0000
,
0010
0000
0100
0000
,
0002
0000
0000
0003
,
1001
0000
0000
0000
;

//---------------dance-single - ----------------
#NOTES:
     dance-single:
     :
     Easy:
     3:
     0.233,0.249,0.048,0.155,0.000:
0000
0000
0000
0000
,
0000
0000
0000
0000
,
0000
0000
0000
0000
,
0000
0000
0000
0000
,
1000
0000
0100
0000
,
1000
0000
0100
0000
,
0010
0000
0001
0000
,
0200
0000
0000
0300
,
1000
0000
1000
0000
,
0100
0000
0100
0000
,
0010
0000
0010
0000
,
0001
0000
0001
0000
,
1000
0000
0100
0000
,
0010
0000
0001
0000
,
1000
0000
0100
0000
,
0010
0000
0001
0000
,
2000
0000
0000
3000
,
0001
0001
1000
1000
,
0001
0001
1000
1000
,
0100
0100
0010
0010
,
0001
0001
0010
0010
,
1000
1000
0010
0010
,
0001
0001
1000
1000
,
0001
0001
1000
1000
,
0200
0000
0000
0300
,
0001
0010
0100
1000
,
0100
0010
0001
0100
,
1000
0100
0001
0010
,
1000
0010
0001
0100
,
1000
0010
0001
0010
,
0100
0010
1000
0100
,
1000
0010
1000
0100
,
1000
0001
0100
0010
,
0200
0000
0000
0300
,
0220
0000
0000
0330
,
0002
0000
0000
0003
,
0220
0000
0000
0330
,
2000
0000
0000
3000
,
0220
0000
0000
0330
,
0002
0000
0000
0003
,
0220
0000
0000
0330
,
1000
0000
0100
0000
,
0010
0000
0001
0000
,
1000
0000
0100
0000
,
0010
0000
0001
0000
,
1000
0100
1000
0010
,
0100
0001
0010
0100
,
1000
0010
0100
1000
,
0200
0000
0000
0300
,
1000
0100
1000
0100
,
0010
0001
0010
0001
,
0010
0100
1000
0010
,
1000
0100
1000
0010
,
0001
0010
1000
0100
,
0001
0100
1000
0100
,
1000
0100
1000
0001
,
0100
0001
0100
1000
,
1001
0000
0000
0000
;

//---------------dance-single - ----------------
#NOTES:
     dance-single:
     :
     Medium:
     6:
     0.335,0.387,0.029,0.116,0.175:
0000
0000
0000
0000
,
0000
0000
0000
0000
,
0000
0000
0000
0000
,
0000
0000
0000
0000
,
1000
0000
0100
0000
0010
0001
0010
0000
,
0100
0000
1000
0100
0010
0000
0001
0000
,
0010
0000
1000
0000
0010
0001
0010
0000
,
0100
1000
0100
1000
0100
0000
1001
0000
,
1000
0000
0000
1000
0000
0000
0000
0000
1000
0000
0000
1000
0000
0000
0000
0000
,
0100
0000
0000
0100
0000
0000
0000
0000
0100
0000
0000
0100
0000
0000
0000
0000
,
0010
0000
0000
0010
0000
0000
0000
0000
0010
0000
0000
0010
0000
0000
0000
0000
,
0001
0000
0000
0001
0000
0000
0000
0000
0001
0000
0000
0001
0000
0000
0000
0000
,
0001
0000
0000
0010
0000
0000
0000
0000
0010
0000
0000
0001
0000
0000
0000
0000
,
0001
0000
0000
0100
0000
0000
0000
0000
0100
0000
0000
0010
0000
0000
0000
0000
,
0010
0000
0000
1000
0000
0000
0000
0000
1000
0000
0000
0100
0000
0000
0000
0000
,
0100
0000
0000
0010
0000
0000
0000
0000
0010
0000
0000
0001
0000
0000
0000
0000
,
2002
0000
0000
3003
,
1000
0000
0100
0000
0010
0100
0010
0100
,
0010
0000
0001
0000
0100
0001
0100
0001
,
0100
0000
0000
0100
0000
0000
0000
0000
0010
0000
0000
0010
0000
0000
0000
0000
,
1000
0000
0000
1000
0000
0000
0000
0000
0001
0000
0000
0001
0000
0000
0000
0000
,
0100
0000
0010
0000
1000
0010
1000
0010
,
1000
0000
0100
0000
0010
0001
0010
0001
,
0010
0000
0000
0010
0000
0000
0000
0000
0001
0000
0000
0001
0000
0000
0000
0000
,
0200
0000
0000
0000
0000
0000
0310
0010
,
0010
0000
1000
0010
1000
0000
0001
0100
,
0001
0010
0001
0100
0001
0000
0001
0100
,
1000
0000
1000
0100
0001
0000
0001
0010
,
0100
1000
0100
0010
0001
0000
0100
0010
,
0010
0000
1000
0001
0001
0000
0001
1000
,
0010
0100
0001
0010
0100
0000
1000
0010
,
0100
0000
0001
0010
0100
0000
0010
0001
,
0100
0000
0010
1000
0100
0000
0000
0000
,
2000
0000
0000
3000
,
0200
0000
0000
0300
,
0020
0000
0000
0030
,
0002
0000
0000
0003
,
0200
0000
0000
0300
,
2000
0000
0000
3000
,
0200
0000
0000
0300
,
0002
0000
0000
0003
,
1000
0000
0000
0100
0000
0000
0000
0000
0001
0000
0000
0100
0000
0000
0000
0000
,
1000
0000
0000
0100
0000
0000
0000
0000
0001
0000
0000
0100
0000
0000
0000
0000
,
1000
0000
0000
0100
0000
0000
0000
0000
0001
0000
0000
0100
0000
0000
0000
0000
,
1000
0000
0000
0100
0000
0000
0000
0000
0001
0000
0000
0100
0000
0000
0000
0000
,
1000
0000
0000
0010
0000
0000
0000
0000
0100
0000
0000
0001
0000
0000
0000
0000
,
1000
0000
0000
0100
0000
0000
0000
0000
0010
0000
0000
0001
0000
0000
0000
0000
,
1000
0000
0000
0001
0000
0000
0000
0000
0001
0000
0000
1000
0000
0000
0000
0000
,
2000
0000
0000
3000
,
1000
0000
0100
1000
0100
0000
0001
0100
,
0001
0000
0010
0001
0010
0000
0100
0001
,
0100
0000
0010
0100
0010
0000
1000
0100
,
1000
0000
0001
0100
0001
0000
0100
1000
,
0010
0000
0001
0010
0001
0000
1000
0100
,
0010
0000
1000
0100
0010
0000
1000
0001
,
0100
0000
0010
1000
0001
0000
0100
1000
,
0001
0000
0010
1000
0100
0000
0100
0000
,
1001
0000
0000
0000
;

//---------------dance-single - ----------------
#NOTES:
     dance-single:
     :
     Hard:
     9:
     0.522,0.580,0.184,0.175,0.485: // measure 1
0000
0000
0000
0000
,  // measure 2
0000
0000
0000
0000
,  // measure 3
0000
0000
0000
0000
,  // measure 4
0000
0000
0000
0000
,  // measure 5
1000
0000
0000
0000
0100
0000
0000
1000
0100
0000
1000
0000
0010
0000
0000
0000
,  // measure 6
0001
0010
0100
0010
0001
0000
1001
0000
,  // measure 7
1000
0000
0000
0000
0100
0000
0000
0010
0001
0000
0010
0000
1000
0000
0000
0000
,  // measure 8
0001
0100
1000
0100
0001
0000
1001
0000
,  // measure 9
1000
0000
0000
0100
0000
0000
1000
0000
0010
0000
0000
0100
0000
0000
0010
0000
,  // measure 10
0001
0000
0000
0010
0000
0000
1000
0000
0100
0000
0000
0001
0000
0000
0100
0000
,  // measure 11
1000
0000
0000
0010
0000
0000
0001
0000
1000
0000
0000
0100
0000
0000
0001
0000
,  // measure 12
0010
0000
0000
1000
0000
0000
0001
0000
0100
0000
0000
0010
0000
0000
0001
0000
,  // measure 13
0100
0000
0000
0010
0000
0000
0001
0000
1000
0000
0000
0100
0000
0000
0001
0000
,  // measure 14
1000
0000
0000
0100
0000
0000
0010
0000
0001
0000
0000
1000
0000
0000
0010
0000
,  // measure 15
0100
0000
0000
0001
0000
0000
0100
0000
1000
0000
0000
0100
0000
0000
0001
0000
,  // measure 16
0010
0000
0000
0100
0000
0000
1000
0000
0100
0000
0000
0010
0000
0000
0001
0000
,  // measure 17
2002
0000
0000
3003
,  // measure 18
1000
0000
0000
0010
0000
0100
0001
0000
0010
0000
0000
1000
0000
0010
0001
0000
,  // measure 19
0100
0000
0000
0010
0000
0001
1000
0000
0100
0000
0000
0010
0000
1000
0100
0000
,  // measure 20
0001
0000
0000
0100
0000
1000
0010
0000
0100
0000
0000
0001
0000
0010
0100
0000
,  // measure 21
1000
0000
0000
0001
0000
0100
0010
0000
1000
0000
0000
0001
0000
0010
0100
0000
,  // measure 22
1000
0000
0000
0100
0000
0001
1000
0000
0010
0000
0000
0001
0000
0100
1000
0000
,  // measure 23
0100
0000
0000
0001
0000
0010
0100
0000
1000
0000
0000
0001
0000
0010
0100
0000
,  // measure 24
1000
0000
0000
0001
0000
0010
0001
0000
0100
0000
0000
0010
0000
1000
0010
0000
,  // measure 25
0100
0000
0000
0001
0000
0010
0100
0000
2000
0000
0000
0000
0100
0000
0100
0000
,  // measure 26
3100
0000
0001
0100
1000
0010
0001
0010
,  // measure 27
1000
0100
0001
0100
1000
0010
0100
0001
,  // measure 28
0010
0100
0010
0001
1000
0100
0010
0100
,  // measure 29
1000
0010
0100
0001
0010
0000
0100
1000
,  // measure 30
0010
0000
0100
0001
0010
0100
1000
0010
,  // measure 31
0100
0010
1000
0100
0010
0100
1000
0001
,  // measure 32
0010
1000
0010
0001
0100
1000
0100
0001
,  // measure 33
0010
1000
0001
0100
1000
0010
0001
0010
,  // measure 34
0022
0000
0000
0033
,  // measure 35
1001
2002
0000
0000
3003
0000
0110
0000
,  // measure 36
2002
0000
0000
3003
,  // measure 37
1100
0000
0000
0011
0000
0000
0000
0000
0001
1000
0000
1001
0000
0000
0000
0000
,  // measure 38
0110
2002
0000
0000
3003
0220
0330
0000
,  // measure 39
1100
0000
0000
0101
0000
0000
0011
0000
0000
2002
0000
0000
0000
0000
0000
0000
,  // measure 40
0000
0000
0000
3003
,  // measure 41
2000
0002
0000
0000
0000
0000
0000
0000
0000
0000
0000
0000
3003
0000
0000
0000
,  // measure 42
1000
0000
0000
1000
0000
0000
1000
0000
0010
0000
0000
0010
0000
0000
0010
0000
,  // measure 43
0001
0000
0000
0001
0000
0000
0001
0000
1000
0000
0000
1000
0000
0000
1000
0000
,  // measure 44
0100
0000
0000
0100
0000
0000
0100
0000
0001
0000
0000
0001
0000
0000
0001
0000
,  // measure 45
0010
0000
0000
0010
0000
0000
0010
0000
1000
0000
0000
1000
0000
0000
1000
0000
,  // measure 46
0001
0000
0000
0100
0000
0000
1000
0000
0010
0000
0000
0001
0000
0000
0010
0000
,  // measure 47
1000
0000
0000
0100
0000
0000
0010
0000
0001
0000
0000
1000
0000
0000
0010
0000
,  // measure 48
0100
0000
0000
0001
0000
0000
0010
0000
0100
0000
0000
1000
0000
0000
0001
0000
,  // measure 49
0200
0000
0000
0300
,  // measure 50
0001
0000
0010
0100
0000
1000
0010
0000
0100
0000
0010
1000
0000
0001
0010
0000
,  // measure 51
0100
0000
1000
0010
0000
0100
0001
0000
0010
0000
1000
0001
0000
0100
1000
0000
,  // measure 52
0010
0000
0100
0001
0000
0010
0100
0000
0001
0000
0100
1000
0000
0100
1000
0000
,  // measure 53
0010
0000
0100
0001
0000
0010
1000
0000
0010
0000
0001
0010
0000
0100
1000
0000
,  // measure 54
0010
0000
0100
0001
0000
0010
0100
0000
0001
0000
0100
1000
0000
0010
0001
0000
,  // measure 55
0010
0000
1000
0100
0000
0010
0001
0000
0100
0000
0010
1000
0000
0100
0010
0000
,  // measure 56
0001
0000
0010
1000
0000
0001
0100
0000
1000
0000
0010
0001
0000
0010
1000
0000
,  // measure 57
0100
0000
0010
0001
0000
0010
0100
0000
1000
0000
0100
0010
0000
0001
0010
0000
,  // measure 58
1001
0000
0000
0000
;
