#TITLE:Mind Mapping;
#SUBTITLE:;
#ARTIST:Ryu☆;
#TITLETRANSLIT:;
#SUBTITLETRANSLIT:;
#ARTISTTRANSLIT:;
#CREDIT:;
#BANNER:Mind Mapping.png;
#BACKGROUND:Mind MappingBG.png;
#LYRICSPATH:;
#CDTITLE:;
#MUSIC:Mind Mapping.mp3;
#OFFSET:-0.405;
#SAMPLESTART:17.240;
#SAMPLELENGTH:10.820;
#SELECTABLE:YES;
#BPMS:0.000=128.020;
#STOPS:;
#BGCHANGES:;

//---------------dance-single - ----------------
#NOTES:
     dance-single:
     :
     Hard:
     6:
     0.402,0.427,0.078,0.087,0.061: // measure 1
0000
0000
0000
0000
,  // measure 2
0000
0000
0000
0000
,  // measure 3
0000
0000
0000
0000
,  // measure 4
0000
0000
0000
0000
,  // measure 5
1000
0000
0100
1000
0010
0000
0100
0000
,  // measure 6
0001
0000
0010
1000
0010
0000
0001
0000
,  // measure 7
0100
0000
0010
1000
0100
0000
0010
0000
,  // measure 8
0100
0000
1000
0100
0010
0000
0001
0000
,  // measure 9
2002
0000
0000
3003
,  // measure 10
1000
0000
0100
0010
0001
0000
1000
0000
,  // measure 11
0010
0000
0100
0001
0100
0000
0010
0000
,  // measure 12
0001
0000
1000
0100
0010
0000
1000
0000
,  // measure 13
0010
0000
0000
1000
0010
0000
0000
0000
,  // measure 14
0100
0000
0010
0100
0010
0000
0001
0000
,  // measure 15
0010
0000
0010
1000
0100
0000
0010
0000
,  // measure 16
0001
0000
0010
0100
0010
0000
0001
0000
,  // measure 17
0100
0020
0000
0030
,  // measure 18
1000
0100
1000
0010
0000
0010
0000
0010
,  // measure 19
1000
0100
0001
1000
0000
0001
0000
0100
,  // measure 20
1000
0010
0100
0001
0000
0010
0000
0001
,  // measure 21
0010
0001
0010
0100
0000
1000
0000
0010
,  // measure 22
0100
1000
0100
0010
0000
1000
0000
0010
,  // measure 23
0100
0100
0010
0001
0000
0010
0000
0100
,  // measure 24
0010
0001
0010
0100
0000
0001
0000
0020
,  // measure 25
0000
0000
0000
0030
,  // measure 26
1000
0000
0000
0000
0100
0000
0000
0000
0010
0100
0000
0010
0100
0000
0000
0000
,  // measure 27
0001
0000
0000
0000
1000
0000
0000
0000
1000
0100
0000
0100
0010
0000
0000
0000
,  // measure 28
0001
0000
0000
0000
0010
0000
0000
0000
0100
1000
0000
0100
1000
0000
0000
0000
,  // measure 29
0010
0000
0000
0000
0100
0000
0000
0000
0001
0010
0000
0010
0001
0000
0000
0000
,  // measure 30
0100
0000
1000
0000
0100
0000
0000
0000
0010
0100
0000
0100
0010
0000
0000
0000
,  // measure 31
0100
0000
1000
0000
0010
0000
0000
0000
0010
0001
0000
0001
0010
0000
0000
0000
,  // measure 32
0100
0000
0001
0000
0010
0000
0000
0000
0010
0001
0000
0001
0100
0000
0000
0000
,  // measure 33
0020
0000
0000
0030
,  // measure 34
1000
0100
0010
0001
1000
0100
0010
0001
,  // measure 35
1000
0001
0100
0010
1000
0001
0100
0010
,  // measure 36
1000
0010
0100
0001
1000
0010
0100
0001
,  // measure 37
1000
0100
0010
0010
0001
0010
0100
0100
,  // measure 38
1000
0100
1000
0010
0001
0010
0100
0001
,  // measure 39
0001
1000
0010
0100
0001
1000
0010
0100
,  // measure 40
0001
0010
0100
1000
0001
0010
0100
1000
,  // measure 41
0001
0001
0010
0010
0100
0100
1000
1000
,  // measure 42
2002
0000
0000
3003
,  // measure 43
1000
0100
0010
0001
1001
0000
0100
1000
,  // measure 44
0100
0010
0001
0010
0110
0000
1000
0100
,  // measure 45
0001
1000
0100
0001
0101
0000
0001
0100
,  // measure 46
1000
0000
0001
0100
2000
0000
3000
0000
,  // measure 47
1000
0010
0100
1000
0110
0000
0001
0010
,  // measure 48
0100
0010
0001
0010
0110
0000
0010
0001
,  // measure 49
0100
1000
0100
0001
0101
0000
0100
0001
,  // measure 50
0010
0000
0010
0001
0200
0000
0300
0000
,  // measure 51
1000
0100
1000
0100
0000
0100
0000
0001
,  // measure 52
0010
0100
1000
0100
0000
0010
0000
0100
,  // measure 53
0001
0100
0010
0100
0000
0001
0000
0001
,  // measure 54
1000
0010
0100
0001
0000
0010
0000
0100
,  // measure 55
1000
0010
0001
0010
0000
1000
0000
0100
,  // measure 56
1000
0010
0100
0001
0000
0001
0000
0010
,  // measure 57
0100
1000
0100
0100
0000
0001
0000
0100
,  // measure 58
1000
0100
1000
0020
0000
0000
0030
0000
,  // measure 59
1001
0000
0000
0000
;

//---------------dance-single - ----------------
#NOTES:
     dance-single:
     :
     Medium:
     5:
     0.290,0.327,0.087,0.078,0.000:
0000
0000
0000
0000
,
0000
0000
0000
0000
,
0000
0000
0000
0000
,
0000
0000
0000
0000
,
1000
0100
1000
0010
,
0100
0001
0010
0100
,
1000
0100
0001
0100
,
1000
0000
0000
0000
,
2002
0000
0000
3003
,
1000
0100
1000
0010
,
0100
0001
0010
1000
,
0010
0001
0100
0010
,
0001
0000
0000
0010
0100
0000
0000
0000
,
0001
0010
0100
0010
,
0010
0001
0100
1000
,
0100
0010
0100
0001
,
0020
0000
0000
0030
,
1000
0100
0000
0010
0000
0001
0000
1000
,
0000
0100
0000
0010
0000
0001
0000
1000
,
0100
0010
0000
0001
0000
0010
0000
0100
,
0000
1000
0000
0001
0000
0010
0000
0100
,
1000
0010
0000
0001
0000
0010
0000
1000
,
0000
0100
0000
0010
0000
0001
0000
0010
,
0100
1000
0000
0100
0000
0010
0000
0001
,
0000
0002
0000
0000
0000
0000
0003
0000
,
1000
0000
0100
0000
0010
0001
0011
0000
,
0001
0000
0010
0000
0100
1000
1100
0000
,
1000
0000
0010
0000
0100
0001
0101
0000
,
0010
0000
0100
0000
0010
0100
0110
0000
,
1000
0000
0100
0000
0010
0001
0101
0000
,
0001
0000
0010
0000
0100
1000
1010
0000
,
2001
0000
0000
3000
,
1002
0000
0000
0003
,
1000
0100
0010
0001
,
1000
0100
0010
0001
0000
0010
0100
0000
,
1000
0001
0100
0010
,
1000
0001
0100
0010
0000
1000
0001
0000
,
0100
0010
0100
0010
0000
0100
0010
0000
,
0001
1000
0001
1000
0000
0001
1000
0000
,
1000
0100
0001
0100
0000
1000
0010
0000
,
0200
0000
0000
0300
,
0002
0000
0000
0003
,
1000
0000
0100
0010
0001
0000
0010
0000
,
0100
0000
1000
0010
1000
0000
0010
0000
,
0100
0000
0010
0100
0010
0000
0100
0000
,
0010
0000
0000
0100
0010
0000
0000
0000
,
0010
0000
0100
1000
0100
0000
0010
0000
,
0001
0000
0100
0001
0100
0000
0010
0000
,
0100
0000
1000
0010
1000
0000
0001
0000
,
0010
0000
0000
0100
0001
0000
0000
0000
,
1000
0100
0000
0100
0000
0100
0000
0100
,
0000
1000
0000
1000
0000
1000
0000
1000
,
0000
1000
0000
0001
0000
1000
0000
0001
,
0000
1000
0000
0100
0000
0010
0000
0001
,
0000
0010
0000
0100
0000
1000
0000
0001
,
0000
0100
0000
0010
0000
1000
0000
0001
,
0000
0100
0000
0010
0000
1000
0000
0010
,
0000
0001
0000
0020
0000
0000
0030
0000
,
1001
0000
0000
0000
;

//---------------dance-single - ----------------
#NOTES:
     dance-single:
     :
     Beginner:
     1:
     0.118,0.226,0.026,0.087,0.000:
0000
0000
0000
0000
,
0000
0000
0000
0000
,
0000
0000
0000
0000
,
0000
0000
0000
0000
,
1000
0000
0000
0000
,
0010
0000
0000
0000
,
0100
0000
0000
0000
,
0002
0000
0000
0003
,
2002
0000
0000
3003
,
1000
0000
0000
0000
,
0000
0000
0000
0000
,
0001
0000
0000
0000
,
0000
0000
0000
0000
,
0010
0000
0000
0000
,
0000
0000
0000
0000
,
1000
0000
0000
0000
,
0200
0000
0000
0300
,
1000
0000
0000
0000
,
0100
0000
0000
0000
,
0010
0000
0000
0000
,
0001
0000
0000
0000
,
1000
0000
0000
0000
,
0010
0000
0000
0000
,
0100
0000
0000
0000
,
0002
0000
0000
0003
,
1000
0000
0001
0000
,
1000
0000
0001
0000
,
0100
0000
0010
0000
,
0100
0000
0010
0000
,
1000
0000
0100
0000
,
0010
0000
0001
0000
,
1000
0000
0100
0000
,
0010
0000
0001
0000
,
1000
1000
1000
1000
,
1000
1000
1000
1000
,
1000
1000
1000
1000
,
1000
1000
1000
1000
,
1000
0000
0100
0000
,
0010
0000
0001
0000
,
0001
0000
0010
0000
,
0200
0000
0000
0300
,
2002
0000
0000
3003
,
1000
0000
0100
0000
,
0010
0000
0001
0000
,
1000
0000
0100
0000
,
0010
0000
0001
0000
,
1000
0000
0001
0000
,
1000
0000
0001
0000
,
0100
0000
0010
0000
,
0200
0000
0000
0300
,
1000
0000
0000
0000
,
1000
0000
0000
0000
,
1000
0000
0000
0000
,
1000
0000
0000
0000
,
1000
0000
0000
0000
,
1000
0000
0000
0000
,
1000
0000
0000
0000
,
2000
0000
0000
3000
,
1001
0000
0000
0000
;

//---------------dance-single - ----------------
#NOTES:
     dance-single:
     :
     Easy:
     3:
     0.213,0.226,0.026,0.095,0.000:
0000
0000
0000
0000
,
0000
0000
0000
0000
,
0000
0000
0000
0000
,
0000
0000
0000
0000
,
1000
0000
0100
0000
,
0010
0000
0001
0000
,
1000
0000
0100
0000
,
0020
0000
0000
0030
,
2002
0000
0000
3003
,
1000
0100
0000
1000
,
0000
0010
0000
0100
,
0000
0001
0000
0010
,
0000
0100
0000
1000
,
0000
0001
0000
0100
,
0000
0010
0000
1000
,
0000
0001
0000
0100
,
2000
0000
0000
3000
,
0010
0000
0100
0000
,
0001
0000
0010
0000
,
1000
0000
0001
0000
,
0100
0000
0010
0000
,
1000
0000
0010
0000
,
1000
0000
0001
0000
,
0100
0000
1000
0000
,
0020
0000
0000
0030
,
0001
0010
0100
1000
,
0001
0010
0100
1000
,
0001
0010
0100
1000
,
0001
0010
0100
1000
,
1000
0100
1000
0100
,
1000
0010
1000
0010
,
1000
0001
0100
0001
,
0200
0000
0000
0300
,
1000
0001
1000
0001
,
1000
0001
1000
0001
,
1000
0001
1000
0001
,
1000
0001
1000
0001
,
1000
0001
1000
0001
,
1000
0001
1000
0001
,
1000
0001
1000
0001
,
1000
0002
0000
0003
,
2002
0000
0000
3003
,
1000
0100
0010
0001
,
1000
0100
0010
0001
,
1000
0001
0100
0010
,
1000
0001
0100
0010
,
1000
0100
0001
0100
,
1000
0010
0001
0010
,
1000
0100
0001
0010
,
2000
0000
0000
3000
,
0100
0100
0100
0100
,
0010
0010
0010
0010
,
0100
0100
0100
0100
,
1000
1000
1000
1000
,
0001
0001
0001
0001
,
0010
0010
0010
0010
,
0100
0100
0100
0100
,
2000
0000
0000
3000
,
1001
0000
0000
0000
;
