#TITLE:綠の風;
#SUBTITLE:;
#ARTIST:ナヤ~ン;
#TITLETRANSLIT:Midori no kaze;
#SUBTITLETRANSLIT:;
#ARTISTTRANSLIT:Naya~n;
#CREDIT:;
#BANNER:Midori no kaze.png;
#BACKGROUND:Midori no kaze BG.png;
#LYRICSPATH:;
#CDTITLE:;
#MUSIC:Midori no kaze.mp3;
#OFFSET:-1.200;
#SAMPLESTART:53.620;
#SAMPLELENGTH:10.000;
#SELECTABLE:YES;
#BPMS:0.000=72.000,108.000=70.000,109.000=67.000,110.500=66.000,112.000=70.000,112.750=69.000,113.000=69.000,113.250=61.000,113.500=61.000,113.750=49.000,114.000=49.000,116.250=23.000,116.500=23.000;
#STOPS:;
#BGCHANGES:;

//---------------dance-single - ----------------
#NOTES:
     dance-single:
     :
     Hard:
     4:
     0.257,0.327,0.054,0.483,0.004:
0000
0000
0000
0000
,
0000
0000
0000
0000
,
0000
0000
0000
0000
,
0000
0000
0000
0000
,
2000
0000
3100
0010
0002
0000
2003
0000
,
3002
0000
0013
0100
2000
0000
3002
0000
,
0023
0000
0130
0010
0002
0000
0203
0000
,
0320
0000
1030
0010
0200
0000
0310
0100
,
0002
0000
0013
0100
0020
0000
0031
0100
,
0020
0000
1030
0100
0002
0000
0103
1000
,
0020
0000
0130
0001
2000
0000
3010
0100
,
0002
0000
1003
0010
0200
0000
0301
0010
,
0200
0000
0310
0010
0002
0000
0103
0010
,
2000
0000
3100
0001
0200
0000
0310
0001
,
0200
0000
0310
1000
0002
0000
0103
0010
,
0020
0000
0000
0000
0000
0030
1000
0100
,
0220
0330
0001
0010
0200
0000
1300
0000
,
2200
3300
1000
0100
0020
0000
0031
0000
,
0022
0033
0001
0010
2000
0000
3010
0001
,
0021
0031
0210
0310
2001
3001
0200
0000
,
0320
0000
1030
0100
0020
0000
0031
0100
,
0020
0000
0130
0001
0200
0000
0301
0010
,
0200
0000
1300
0001
2000
0000
3100
0010
,
0002
0010
0100
1003
,
2000
0000
3001
0100
0020
0000
0130
0010
,
0200
0000
0301
0010
2000
0000
3001
0100
,
2000
0000
3001
0100
2000
0001
3001
0010
,
2000
0000
0000
3000
,
1000
0100
1000
0100
0010
0001
0010
0100
,
0000
0000
0000
0000
0000
0000
0000
0000
1000
0200
0000
0000
0000
0000
0000
0000
0300
0000
0000
0000
0000
0000
0000
0000
0000
0000
0000
0000
0000
0000
0000
0000
0000
0000
0000
0000
0000
0000
0000
0000
0000
0000
0000
0000
0000
0000
0000
0000
0000
0000
0000
0000
0000
0000
0000
0000
0000
0000
0000
0000
0000
0000
0000
0000
;

//---------------dance-single - ----------------
#NOTES:
     dance-single:
     :
     Medium:
     3:
     0.249,0.406,0.063,0.546,0.004: // measure 1
0000
0000
0000
0000
,  // measure 2
0000
0000
0000
0000
,  // measure 3
0000
0000
0000
0000
,  // measure 4
0000
0000
0000
0000
,  // measure 5
2000
0000
3100
0010
0001
0000
0100
0000
,  // measure 6
0020
0000
0130
1000
0100
0000
0001
0000
,  // measure 7
0020
0000
0031
0100
0001
0000
0001
0000
,  // measure 8
0010
0100
1000
0100
,  // measure 9
0020
0032
0203
0310
,  // measure 10
2000
3200
0302
0103
,  // measure 11
0020
0230
2300
3001
,  // measure 12
0200
0000
0320
0000
2030
0000
3100
0010
,  // measure 13
0002
0000
0010
0000
0023
0000
0130
1000
,  // measure 14
0002
0000
0010
0000
0023
0000
0130
0010
,  // measure 15
0020
0000
0001
0000
0032
0000
0013
0100
,  // measure 16
2000
0000
0100
0000
3100
0000
2000
3100
,  // measure 17
2002
3003
2000
3100
2002
3003
2000
3100
,  // measure 18
2002
3003
2000
3100
2002
3003
0220
0330
,  // measure 19
0220
0330
0200
0310
0220
0330
0200
0310
,  // measure 20
2000
3010
2000
3100
2000
0000
3200
0000
,  // measure 21
0320
0000
0031
0100
2000
0000
3100
0010
,  // measure 22
2000
0000
3010
0100
0002
0000
0013
0100
,  // measure 23
2000
0000
3100
0010
0020
0000
0031
0100
,  // measure 24
0020
0000
0000
0000
0000
0000
0130
0001
,  // measure 25
0020
0000
0031
0100
0002
0000
0013
0100
,  // measure 26
0020
0000
0031
0100
0020
0000
0130
0001
,  // measure 27
2000
0000
3100
0010
0001
0010
0100
1000
,  // measure 28
2000
0000
0000
3000
,  // measure 29
2000
0100
0100
0100
,  // measure 30
3100
0000
0000
0000
0000
0000
0000
0000
1000
0002
0000
0000
0000
0000
0000
0000
0003
0000
0000
0000
0000
0000
0000
0000
0000
0000
0000
0000
0000
0000
0000
0000
0000
0000
0000
0000
0000
0000
0000
0000
0000
0000
0000
0000
0000
0000
0000
0000
0000
0000
0000
0000
0000
0000
0000
0000
0000
0000
0000
0000
0000
0000
0000
0000
;

//---------------dance-single - ----------------
#NOTES:
     dance-single:
     :
     Beginner:
     1:
     0.087,0.131,0.072,0.304,0.000:
0000
0000
0000
0000
,
0000
0000
0000
0000
,
0000
0000
0000
0000
,
0000
0000
0000
0000
,
2000
3000
0000
0000
,
0200
0300
0000
0000
,
0020
0030
0000
0000
,
2000
3000
0000
0000
,
0020
0030
0000
0000
,
0200
0300
0000
0000
,
2000
3000
0000
0000
,
0002
0003
0000
0000
,
0200
0300
0000
0000
,
2000
3000
0000
0000
,
0002
0003
0000
0000
,
0200
0300
0000
0000
,
2002
3003
0000
0000
,
0220
0330
0000
0000
,
2002
3003
0000
0000
,
0220
0330
0000
0000
,
0200
0300
0000
0000
,
0200
0300
0000
0000
,
2000
3000
0000
0000
,
0002
0003
0000
0000
,
0220
0330
0000
0000
,
2002
3003
0000
0000
,
0220
0330
0000
0000
,
2002
3003
0000
0000
,
0200
0000
0000
0300
,
0000
2000
3000
0000
0000
0000
0000
0000
;

//---------------dance-single - ----------------
#NOTES:
     dance-single:
     :
     Easy:
     1:
     0.158,0.183,0.089,0.555,0.000:
0000
0000
0000
0000
,
0000
0000
0000
0000
,
0000
0000
0000
0000
,
0000
0000
0000
0000
,
2000
3000
0200
0300
,
0020
0030
0002
0003
,
2000
3000
0002
0003
,
0200
0300
0020
0030
,
2000
3000
0200
0300
,
0020
0030
0002
0003
,
2000
3000
0200
0300
,
0002
0003
0200
0300
,
2000
3000
0020
0030
,
0002
0003
0020
0030
,
2000
3000
0002
0003
,
2000
3000
0002
0003
,
2002
3003
0200
0300
,
2002
3003
0020
0030
,
0220
0330
2000
3000
,
0220
0330
0002
0003
,
0020
0030
0200
0300
,
2000
3000
0002
0003
,
2002
3003
0002
0003
,
0220
0330
0020
0030
,
2020
3030
0020
0030
,
0202
0303
0002
0003
,
0220
0330
0200
0300
,
2002
0000
0000
3003
,
2000
3200
0320
0032
,
0003
2000
3000
0000
0000
0000
0000
0000
;
