#TITLE:Ha・lle・lu・jah;
#SUBTITLE:;
#ARTIST:SOUND HOLIC feat. Nana Takahashi;
#TITLETRANSLIT:;
#SUBTITLETRANSLIT:;
#ARTISTTRANSLIT:;
#CREDIT:;
#BANNER:HALLELUJAH.png;
#BACKGROUND:HALLELUJAH BG.png;
#LYRICSPATH:;
#CDTITLE:;
#MUSIC:Hallelujah.mp3;
#OFFSET:-1.714;
#SAMPLESTART:62.840;
#SAMPLELENGTH:10.120;
#SELECTABLE:YES;
#BPMS:0.000=150.000;
#STOPS:;
#BGCHANGES:;

//---------------dance-single - ----------------
#NOTES:
     dance-single:
     :
     Easy:
     2:
     0.173,0.239,0.009,0.047,0.000:
0000
0000
0000
0000
,
0000
0000
0000
0000
,
0000
0000
0000
0000
,
0000
0000
0000
0000
,
0000
0000
0000
0000
,
1000
0000
1000
0000
,
0001
0000
0001
0000
,
1000
0000
1000
0000
,
0001
0000
0001
0000
,
1000
0000
1000
0000
,
0001
0000
0001
0000
,
1000
0000
1000
0000
,
0001
0000
0001
0000
,
0010
0000
0100
0000
,
1000
0000
0100
0000
,
0100
0000
0010
0000
,
0001
0000
0010
0000
,
0100
0000
1000
0000
,
0100
0000
0010
0000
,
0001
0000
0010
0000
,
0100
0000
1000
0000
,
0100
0000
0010
0000
,
0001
0000
1000
0000
,
0001
0000
0001
0000
,
1000
0000
0100
0000
,
0010
0000
0001
0000
,
0100
0000
1000
0000
,
0100
0000
0001
0000
,
0100
0000
0000
0000
,
2000
0000
0100
3000
,
0200
0000
0010
0300
,
0020
0000
0001
0030
,
0001
0000
0000
0000
,
0001
0000
0001
0000
,
1000
0000
1000
0000
,
0002
0000
1000
0000
,
2000
0000
0000
3003
,
1000
1000
1000
0100
,
0100
0010
0010
0001
,
0001
0000
1000
0000
,
0001
0000
0001
0000
,
0000
0000
1000
0000
,
0100
0000
0010
0000
,
0001
0000
1000
0000
,
0001
0000
0001
0000
,
0001
0000
1000
0000
,
0010
0000
0100
0000
,
0000
0010
0000
0000
,
1000
0001
0000
0000
,
0010
1000
0000
0001
,
0000
0100
0000
1000
,
0000
0100
0000
0010
,
0000
0001
0000
0010
,
0000
1000
0000
0010
,
0000
0001
0000
0010
,
0000
0100
0000
0100
,
0000
1000
0000
0100
,
0000
1000
0000
0010
,
0000
0100
0000
0001
,
0000
0010
0000
1000
,
0000
0001
0000
1000
,
0001
0001
1001
1000
,
1000
0000
0001
0001
,
0001
1000
0100
1000
;

//---------------dance-single - ----------------
#NOTES:
     dance-single:
     :
     Beginner:
     1:
     0.086,0.120,0.000,0.038,0.000:
0000
0000
0000
0000
,
0000
0000
0000
0000
,
0000
0000
0000
0000
,
0000
0000
0000
0000
,
0000
0000
0000
0000
,
1000
0000
0000
0000
,
0001
0000
0000
0000
,
1000
0000
0000
0000
,
0001
0000
0000
0000
,
1000
0000
0000
0000
,
0001
0000
0000
0000
,
1000
0000
0000
0000
,
0001
0000
0000
0000
,
0010
0000
0000
0000
,
0000
0000
0000
0000
,
0100
0000
0000
0000
,
0000
0000
0000
0000
,
1000
0000
0000
0000
,
0000
0000
0000
0000
,
0100
0000
0000
0000
,
0000
0000
0000
0000
,
0010
0000
0000
0000
,
0000
0000
0000
0000
,
0001
0000
0000
0000
,
1000
0000
0000
0000
,
0000
0000
0000
0000
,
0100
0000
0000
0000
,
0000
0000
0000
0000
,
0001
0000
0000
0000
,
2000
0000
0000
3000
,
0200
0000
0000
0300
,
0000
0000
0000
0000
,
0001
0000
0000
0000
,
0001
0000
0001
0000
,
1000
0000
1000
0000
,
0002
0000
0000
0000
,
2000
0000
0000
3003
,
0000
0000
1000
0000
,
0100
0000
0010
0000
,
0001
0000
1000
0000
,
0000
0000
0001
0000
,
0000
0000
1000
0000
,
0100
0000
0010
0000
,
0001
0000
1000
0000
,
0000
0000
0001
0000
,
0000
0000
1000
0000
,
0000
0000
0100
0000
,
0000
0010
0000
0000
,
0000
0001
0000
0000
,
0000
1000
0000
0000
,
0000
0100
0000
0000
,
0000
0010
0000
0000
,
0000
0001
0000
0000
,
0000
1000
0000
0000
,
0000
0100
0000
0000
,
0000
0010
0000
0000
,
0000
0001
0000
0000
,
0000
1000
0000
0000
,
0000
0100
0000
0000
,
0000
0010
0000
0000
,
0000
0001
0000
0000
,
0001
0000
1000
0000
,
1000
0000
0001
0000
,
0001
0000
0000
1000
;

//---------------dance-single - ----------------
#NOTES:
     dance-single:
     :
     Medium:
     5:
     0.394,0.476,0.131,0.169,0.000:
0000
0000
0000
0000
,
0000
0000
0000
0000
,
0000
0000
0000
0000
,
0000
0000
0000
0000
,
0000
0000
0000
0000
,
1000
0000
0100
0000
0010
0001
0010
0000
,
0100
0000
1000
0000
0001
1000
0001
0000
,
0100
0000
0010
0000
1000
0001
1000
0000
,
0001
0010
1100
1010
,
0100
0000
0001
0000
0010
0100
1000
0000
,
0001
0000
0010
0000
0100
1000
1000
0000
,
1000
0000
0100
0000
0010
0001
0010
0000
,
0100
0000
1000
0000
0001
1000
0001
0000
,
1000
0100
0010
0001
,
0010
0100
1000
0001
,
0100
0000
0010
0010
0000
1000
0000
0001
,
0000
0000
0001
0001
0000
1000
0000
0000
,
0001
0010
0100
1000
,
0001
0100
1000
0100
,
0001
0000
0010
1000
0000
0001
0000
0200
,
0000
0000
0300
1001
,
0001
0010
1000
0100
,
0001
0010
0100
1000
,
0001
0100
1000
0100
,
0001
0000
1000
0000
,
0001
0010
0100
1000
,
0001
0010
1000
0010
,
0001
0100
0010
1000
,
0002
0000
0000
1003
1000
0100
0010
0001
,
2000
0000
3200
0000
,
0320
0000
0032
0000
,
0023
0000
0230
0000
,
2300
0000
3001
1000
,
2002
0000
0000
3003
,
0220
0000
0000
0330
,
0002
0000
2000
3003
,
0110
0000
1001
0000
,
0110
0000
0001
0010
,
0100
1000
0100
0000
0010
0000
0001
0000
,
0010
0100
1000
0000
0001
0000
0010
0000
,
0001
0010
0001
0000
0010
0000
0100
0000
,
1000
0001
1000
0000
0001
0000
1000
0000
,
0100
0010
0010
0000
0100
0000
0010
0000
,
0100
0100
1000
0000
0100
0000
0001
0000
,
0010
1000
0010
0000
0001
0000
0100
0000
,
1000
0001
0010
0000
1000
0100
0100
0000
,
1000
0010
0100
0000
0100
0000
0100
0000
,
0200
0000
0000
0000
0310
1000
0010
0100
,
1000
0100
0001
0000
0001
0010
0100
0010
,
0001
0001
0001
0000
0001
0000
0001
0000
,
0010
0100
1000
0100
0010
0000
0011
0000
,
2002
3000
1003
0100
,
0010
0001
0010
0100
1000
0100
0010
0001
,
0010
0000
1001
0000
0001
0010
1000
0010
,
0001
0100
1000
0000
0001
0010
1000
0000
,
1000
0100
0010
0000
0001
0010
0100
0000
,
1000
0001
1000
0000
0100
0010
0001
0000
,
1000
0001
1000
0000
0100
0010
0100
1000
,
1000
0100
0100
0000
0100
0010
0001
0000
,
0001
0010
0100
0000
1000
0001
0010
0000
,
0100
1000
0010
0000
0100
0001
0010
0100
,
1000
1001
0110
0100
,
0100
0010
0100
0000
0110
0000
0010
0000
,
0010
0100
0010
0100
0000
0000
0000
0000
;

//---------------dance-single - ----------------
#NOTES:
     dance-single:
     :
     Hard:
     7:
     0.494,0.506,0.160,0.169,0.094: // measure 1
0000
0000
0000
0000
,  // measure 2
0000
0000
0000
0000
,  // measure 3
0000
0000
0000
0000
,  // measure 4
0000
0000
0000
0000
,  // measure 5
0000
0000
0000
0000
,  // measure 6
0100
0000
0100
0000
0100
0001
0010
0100
,  // measure 7
1000
0000
1000
0000
0001
1000
0001
1000
,  // measure 8
0001
0000
0001
0000
0010
0100
1000
0100
,  // measure 9
0010
0010
0101
1100
,  // measure 10
0100
0000
0100
0000
0100
0001
0010
0100
,  // measure 11
0010
0000
0010
0000
0001
0100
0100
0010
,  // measure 12
1000
0000
1000
0000
0001
0100
0010
1000
,  // measure 13
0100
0000
0100
0000
0010
0001
0010
0100
,  // measure 14
1000
0000
0100
0010
0001
0000
1000
0000
,  // measure 15
0001
0100
1000
0000
1000
0100
0001
0000
,  // measure 16
0001
0000
1000
0001
1000
0000
0100
0010
,  // measure 17
0001
0010
0100
0000
1000
0000
1010
0000
,  // measure 18
0001
0000
0010
0100
0100
0000
1000
0000
,  // measure 19
0100
0010
0001
0000
0001
0010
1000
0000
,  // measure 20
0001
0100
1000
0000
0001
0010
0001
0000
,  // measure 21
0100
1000
0100
0000
0001
0000
1001
0000
,  // measure 22
0001
0000
0010
0000
0001
0000
0100
0000
0010
0000
1000
0100
0000
0000
0000
0000
,  // measure 23
0100
0000
0010
0000
0100
0000
1000
0000
0001
0000
0100
0010
0000
0000
0000
0000
,  // measure 24
0100
0000
0010
0000
1000
0000
0100
0000
0010
0000
0001
0100
0000
0000
0000
0000
,  // measure 25
0001
0000
0000
1000
0000
0000
1000
0000
0001
0000
0000
1000
0000
0000
0000
0000
,  // measure 26
0001
0000
0010
0000
0100
0000
0100
0000
1000
0000
0010
0001
0000
0000
0000
0000
,  // measure 27
1000
0000
0100
0000
0001
0000
0010
0000
0100
0000
1000
0001
0000
0000
0000
0000
,  // measure 28
0001
0000
0000
0100
0000
0000
1000
0000
0100
0000
0000
0001
0000
0000
0100
0000
,  // measure 29
2000
0000
0000
3001
0001
0010
0100
1000
,  // measure 30
2000
0000
3200
0000
,  // measure 31
0302
0000
0023
0000
,  // measure 32
2030
0000
3200
0000
,  // measure 33
0320
0000
0032
0003
,  // measure 34
2002
0000
0000
3003
,  // measure 35
0220
0000
0000
0330
,  // measure 36
0002
0000
2000
3003
,  // measure 37
1100
0000
0000
0100
0000
0000
0100
0000
1100
0000
0000
0100
0000
0000
0100
0000
,  // measure 38
2000
0000
3100
0000
1000
0100
0001
0100
,  // measure 39
1000
0010
0001
0000
0001
0010
1000
0000
,  // measure 40
1000
0100
0001
0001
0000
0001
0100
0001
,  // measure 41
0100
1000
0010
0100
0000
0001
0010
0100
,  // measure 42
0001
0000
0101
0000
0100
1000
0010
0100
,  // measure 43
0001
0010
0100
0000
0100
1000
0010
0000
,  // measure 44
0100
0100
0001
0010
0000
0010
0100
1000
,  // measure 45
0010
0100
0100
0010
0000
0010
1000
0001
,  // measure 46
0100
0000
0101
0000
0001
0010
0100
1000
,  // measure 47
0100
0000
0010
0001
0010
0000
0100
0000
1000
0000
0000
0000
1100
0000
0000
0000
,  // measure 48
0012
0000
0013
0000
1000
1000
0100
0100
,  // measure 49
0010
0000
0001
0100
0000
0000
0000
0000
0010
0000
0010
0000
1000
0000
0100
0000
,  // measure 50
0010
0000
0001
1000
0000
0000
0000
0000
1000
0000
0100
0000
0001
0000
0100
0000
,  // measure 51
1000
0000
0001
0010
0000
0000
1000
0000
0010
0000
0000
0000
0011
0000
0000
0000
,  // measure 52
0201
0000
0300
0000
0001
0001
0010
0010
,  // measure 53
0100
0000
0100
1000
0000
0000
0000
0000
1000
0000
0010
0000
0100
0000
0100
0000
,  // measure 54
0010
0000
0110
0000
0010
1000
0100
0001
,  // measure 55
0100
1000
0010
0000
0100
0001
0010
0000
,  // measure 56
0001
0100
1000
0100
0000
0001
0010
0100
,  // measure 57
0001
0100
1000
0010
0000
0100
0001
0010
,  // measure 58
0100
0000
0110
0000
0100
0100
1000
0010
,  // measure 59
0100
0001
0010
0000
0010
0100
1000
0000
,  // measure 60
0001
0100
1000
0100
0000
0001
0010
0100
,  // measure 61
0001
0100
0010
0001
0000
0001
0010
0100
,  // measure 62
1000
0000
0000
0000
1010
0000
0000
0000
1000
0000
0100
0000
0010
0001
0000
0010
,  // measure 63
0000
0000
0001
0000
0010
0000
0100
0000
1000
0000
0100
0000
0010
0001
0000
0010
,  // measure 64
0000
0100
1000
0001
0000
0000
0000
0000
;

//---------------dance-single - ----------------
#NOTES:
     dance-single:
     :
     Challenge:
     9:
     0.578,0.625,0.178,0.178,0.296:
0000
0000
0000
0000
,
0000
0000
0000
0000
,
0000
0000
0000
0000
,
0000
0000
0000
0000
,
0000
0000
0000
0000
,
0001
0000
0100
0000
0010
1000
0000
0100
0000
0000
1000
0000
0010
0100
0001
0000
,
0010
0000
0100
0000
0010
0001
0000
0100
0000
0000
0010
0000
1000
0001
0010
0000
,
0100
0000
1000
0000
0001
1000
0000
1000
0000
0000
0001
0000
1000
0100
0001
0000
,
1000
0000
0010
0000
0001
0100
0000
0000
0101
0000
0000
0000
1100
0000
0000
0000
,
1000
0000
0100
0000
0001
0010
0000
0100
0000
0000
1000
0100
0010
0001
1000
0000
,
0010
0000
0100
0000
0001
0010
0000
0100
0000
0000
0100
0010
0001
0100
0010
0000
,
1000
0000
0100
0000
1000
0010
0000
0010
0000
0000
1000
0001
0100
0001
0010
0000
,
0100
0000
1000
0010
0100
0001
0000
0010
0000
0100
1000
0100
1000
0100
0010
0000
,
0001
0010
0100
1000
0100
0000
0010
0001
,
0010
0100
1000
0000
0001
0010
1000
0010
,
0001
0000
1000
0001
0000
0001
0000
0010
,
0000
0000
0100
1000
0000
1000
0000
0000
,
0001
0100
0010
1000
0100
0000
0010
0001
,
0100
0010
1000
0000
0001
0100
1000
0001
,
0010
0000
1000
0100
0000
0010
0000
0002
,
0000
0000
0010
0013
,
0001
0000
0100
0000
0010
0000
1000
0000
0100
0000
0010
0001
0000
0000
0001
0000
,
0010
0000
0100
0000
0010
0000
0001
0000
0100
0000
0010
1000
0000
0000
0100
0000
,
1000
0000
0100
0000
0010
0000
0100
0000
1000
0000
0001
0100
0000
0000
0001
0000
,
0100
0000
0000
1000
0000
0000
0100
0000
0001
0000
0000
0100
0000
0000
0001
0000
,
0100
0000
0010
0000
0100
0000
0001
0000
0010
0000
0100
1000
0000
1000
0100
0000
,
0010
0000
0100
0000
1000
0000
0010
0000
0100
0000
0010
0100
0000
0100
0010
0000
,
1000
0000
0001
0000
0100
0000
0010
0000
1000
0000
1000
0001
0000
0001
0010
0000
,
0002
0000
0000
1003
1000
0100
0010
0001
,
2000
0000
3200
0000
,
0302
0000
0000
0010
0123
0000
0000
0000
,
2030
0000
3200
0000
,
0302
0000
0000
0000
0203
1000
1000
1300
,
2200
0000
0000
3300
,
0202
0000
0000
0303
,
1001
0000
0110
0000
,
1100
0000
0000
0100
0000
0000
0010
0000
0011
0000
0000
0001
0000
0000
0100
0000
,
0001
0010
0100
1000
0001
0010
0100
1000
0001
0000
0100
0000
1000
0000
0100
0000
,
0001
0001
0100
0000
1000
1000
0100
0000
,
0001
0010
0100
1000
0000
1000
0001
0100
,
0010
1000
1000
0100
0000
0010
0010
0100
,
1000
0000
1100
0000
1000
0100
0010
0100
,
1000
0100
0001
0000
0001
0010
1000
0000
,
1000
0100
0010
0001
0000
0001
0100
0100
,
0010
1000
0100
0010
0000
0010
0001
0100
,
0001
0000
0101
0000
1000
0001
0100
0010
,
1000
0000
0100
0010
0001
0000
0100
0000
0110
0000
0000
0000
1010
0000
0000
0000
,
2002
0000
0000
3003
1000
1000
1000
1000
,
0100
0000
0010
0001
0000
0000
0001
0000
0010
0000
0100
0000
1000
0000
0001
0000
,
1000
0000
0001
2000
0000
0000
0000
0000
3001
0000
0010
0000
0100
0000
0010
0000
,
0001
0000
1000
0001
0000
0000
0001
0000
0010
0000
0000
0000
0110
0000
0000
0000
,
2020
0000
0000
3030
0100
0100
0100
0100
,
0010
0000
1000
0001
0000
0000
0100
0000
0010
0000
1000
0000
0100
0000
0010
0000
,
0001
0000
1001
0000
0001
0010
0100
0010
,
0001
0100
1000
0000
1000
0100
0001
0000
,
0001
0010
0100
1000
0000
1000
0100
1000
,
0010
0100
0010
0100
0000
0100
0001
0010
,
0100
0000
0110
0000
0010
0001
0100
0010
,
1000
0100
0001
0000
0001
0010
1000
0000
,
1000
0100
0001
0100
0000
1000
0010
0100
,
0001
0010
0100
1000
0000
0001
0001
0100
,
0010
0000
0000
0000
0110
0000
0000
0000
1000
0000
0100
0010
0100
0010
0000
0001
,
0000
0010
0100
1000
0100
0010
0001
0000
0100
0000
0010
1000
0001
0100
0000
0010
,
1000
0001
0100
0010
1000
0100
0010
0001
0000
0000
0000
0000
0000
0000
0000
0000
;
