#TITLE:Castle on the Moon;
#SUBTITLE:;
#ARTIST:青龍;
#TITLETRANSLIT:;
#SUBTITLETRANSLIT:;
#ARTISTTRANSLIT:SEIRYU;
#CREDIT:;
#BANNER:Castle on the Moon.png;
#BACKGROUND:Castle on the Moon BG.png;
#LYRICSPATH:;
#CDTITLE:;
#MUSIC:Castle on the Moon.mp3;
#OFFSET:-3.025;
#SAMPLESTART:24.253;
#SAMPLELENGTH:10.900;
#SELECTABLE:YES;
#BPMS:0.000=95.520,16.000=191.040,96.000=95.520,112.000=191.040;
#STOPS:;
#BGCHANGES:;

//---------------dance-single - ----------------
#NOTES:
     dance-single:
     :
     Beginner:
     2:
     0.152,0.264,0.062,0.113,0.000:
0000
0000
0000
0000
,
0000
0000
0000
0000
,
1000
0000
0001
0000
,
1000
0000
1001
0000
,
1000
0000
0000
0000
,
0001
0000
0000
0000
,
0100
0000
0000
0000
,
0020
0000
0000
0030
,
1000
0000
0000
0000
,
0100
0000
0000
0000
,
1000
0000
0000
0000
,
0100
0000
0000
0000
,
0010
0000
0000
0000
,
0001
0000
0000
0000
,
0010
0000
0000
0000
,
0001
0000
0000
0000
,
1000
0000
0000
0000
,
0001
0000
0000
0000
,
0001
0000
0000
0000
,
0001
0000
1000
0000
,
0010
0000
0000
0000
,
0100
0000
0000
0000
,
0010
0000
0100
0000
,
0010
0000
0100
0000
,
0020
0000
0000
0030
,
0200
0000
0000
0300
,
0020
0000
0000
0030
,
0200
0000
0000
0300
,
1000
0000
0000
0000
,
0001
0000
0000
0000
,
1000
0000
0000
0000
,
0001
0000
0001
0000
,
0100
0000
0000
0000
,
0010
0000
0000
0000
,
0200
0000
0000
0000
,
0000
0000
0000
0300
,
0002
0000
0000
0000
,
0000
0000
0000
0003
,
2000
0000
0000
0000
,
0000
0000
0000
3000
,
0001
0000
0001
0000
,
1000
0000
1000
0000
,
0001
0000
0010
0000
,
0100
0000
1000
0000
,
1001
0000
0000
0000
,
0110
0000
0000
0000
,
1001
0000
0000
0000
,
0220
0000
0000
0330
,
0001
0000
0000
0000
,
0001
0001
0001
0000
,
1000
0000
0000
0000
,
1000
1000
1000
0000
,
0010
0000
0000
0000
,
0010
0010
0010
0000
,
0100
0000
0000
0000
,
0100
0100
0100
0000
,
0002
0000
0000
0000
,
0000
0000
0000
0003
,
1000
0000
0000
0000
,
0001
0001
0001
0000
,
1000
0000
1000
0000
,
1000
1000
1000
0000
,
0001
0000
0010
0000
,
0100
0100
0100
0100
,
1001
0000
0000
0000
;

//---------------dance-single - ----------------
#NOTES:
     dance-single:
     :
     Easy:
     3:
     0.221,0.329,0.196,0.185,0.000:
0000
0000
0000
0000
,
0000
0000
0000
0000
,
0001
0001
1000
1000
,
0001
0000
0000
0000
,
1000
0000
0000
0000
,
0100
0000
0000
0000
,
0010
0000
0010
0000
,
2002
0000
0000
3003
,
1000
0000
0100
0000
,
0010
0000
0001
0000
,
1000
0000
0100
0000
,
0010
0010
0010
0010
,
0001
0000
0100
0000
,
0010
0000
1000
0000
,
0001
0000
0100
0000
,
0010
0010
0010
0010
,
1000
0000
0000
0000
,
0001
0000
0000
0000
,
0100
0000
0000
0000
,
0010
0010
0010
0010
,
1001
0000
0000
0000
,
0110
0000
0000
0000
,
1001
0000
0000
0000
,
0110
0000
0000
0000
,
2000
0000
3002
0000
,
2003
0000
3002
0000
,
0203
0000
0320
0000
,
0230
0000
0320
0000
,
1030
0000
0000
0000
,
0001
0000
0000
0000
,
0100
0000
0000
0000
,
0010
0000
0000
0000
,
1001
0000
0000
0000
,
0110
0000
0000
0000
,
1001
0000
0000
0000
,
0110
0000
0000
0000
,
2000
0000
0000
3000
,
0002
0000
0000
0003
,
2000
0000
0000
3000
,
0200
0000
0000
0300
,
0010
0000
0100
0000
,
1000
0000
0001
0000
,
0100
0000
0010
0000
,
1000
1000
1000
1000
,
1001
0000
0000
0000
,
0110
0000
0000
0000
,
1001
0000
0000
0000
,
0220
0000
0000
0330
,
0001
0000
1000
0000
,
0001
0001
0001
0000
,
0100
0000
0010
0000
,
0100
0100
0100
0000
,
0001
0000
0010
0000
,
0100
0100
0100
0000
,
1001
0000
0110
0000
,
1001
0000
0110
0000
,
2002
0000
0000
0000
,
0000
0000
0000
3003
,
1000
0000
0100
0000
,
0010
0010
0010
0000
,
0100
0000
0100
0000
,
0001
0000
0100
0000
,
1000
1000
1000
1000
,
1000
1000
1000
1000
,
1001
0000
0000
0000
;

//---------------dance-single - ----------------
#NOTES:
     dance-single:
     :
     Medium:
     7:
     0.535,0.560,0.113,0.134,0.108: // measure 1
0000
0000
0000
0000
,  // measure 2
0000
0000
0000
0000
,  // measure 3
0001
0010
0001
0010
0001
0010
0001
0010
0001
0010
0000
0000
,  // measure 4
0100
1000
0100
1000
0000
0100
1000
0000
0000
0000
0000
0000
,  // measure 5
1000
1000
1000
1000
,  // measure 6
1000
1000
1000
1000
,  // measure 7
1000
0001
1000
0001
1000
0001
1000
0001
,  // measure 8
2002
0000
0000
3003
,  // measure 9
1000
0000
0100
1000
0100
0000
0010
0000
,  // measure 10
1000
0000
0001
0100
0001
0000
0010
0000
,  // measure 11
0100
0000
1000
0100
0010
0000
0001
1000
,  // measure 12
0001
0000
0010
0100
1000
0000
1001
0000
,  // measure 13
1000
0000
0100
0010
0001
0000
0010
0000
,  // measure 14
0100
0000
1000
0100
0001
0000
0100
0000
,  // measure 15
1000
0000
0001
0010
1000
0000
0001
0100
,  // measure 16
1000
0000
0001
1000
0001
0000
1001
0000
,  // measure 17
2000
0000
3100
0010
0001
0000
0010
0000
,  // measure 18
0200
0000
1300
0001
0010
0000
0100
0000
,  // measure 19
2000
0000
3010
0010
0100
0000
0001
0000
,  // measure 20
0002
0000
0103
0010
0100
0000
0110
0000
,  // measure 21
2000
0000
3100
0100
0100
0000
0010
0000
,  // measure 22
0002
0000
0103
1000
0100
0000
0010
0000
,  // measure 23
2000
0000
3100
0010
0100
0000
1000
0000
,  // measure 24
0020
0000
0130
0001
0010
0000
1001
0000
,  // measure 25
0000
0000
1000
0000
0000
0000
0000
0000
1000
0000
0000
1000
0000
0000
1000
0000
0000
0000
0100
0000
0000
0000
0000
0000
0100
0000
0000
0100
0000
0000
0100
0000
,  // measure 26
0000
0000
0010
0000
0000
0000
0000
0000
0010
0000
0000
0010
0000
0000
0010
0000
0000
0000
0001
0000
0000
0000
0000
0000
0001
0000
0000
0001
0000
0000
0001
0000
,  // measure 27
1000
0110
0001
0110
,  // measure 28
1000
1000
1000
1000
1000
1000
1000
0000
,  // measure 29
1000
0100
0001
0000
0100
0000
0100
0000
,  // measure 30
1000
0010
0001
0000
0010
0000
0010
0000
,  // measure 31
1000
1000
0100
0000
0010
0001
0010
0000
,  // measure 32
0001
1000
0001
0000
0100
0010
0100
0000
,  // measure 33
0010
1000
0100
0000
0010
0000
0010
0000
,  // measure 34
0100
1000
0001
0000
0010
0000
0010
0000
,  // measure 35
0020
0000
0000
0000
,  // measure 36
0000
0000
0000
0030
,  // measure 37
1000
0000
0100
0010
0001
0000
0010
0000
,  // measure 38
0100
0000
1000
0001
1000
0000
0100
0000
,  // measure 39
0010
0000
0001
1000
0001
0000
0010
0010
,  // measure 40
0100
0000
1000
0001
1000
0000
1001
0000
,  // measure 41
1000
1000
1000
0000
0001
0001
0001
0000
,  // measure 42
0100
0100
0100
0000
0010
0010
0010
0000
,  // measure 43
1000
1000
1000
0000
0001
0001
0001
0000
,  // measure 44
1000
0100
0010
0001
0010
0100
1000
0000
,  // measure 45
1000
1000
1000
1000
,  // measure 46
1000
1000
1000
1000
,  // measure 47
1000
0001
1000
0001
1000
0001
1000
0001
,  // measure 48
2002
0000
0000
3003
,  // measure 49
1000
0100
0010
0000
0010
0001
0100
0000
,  // measure 50
0100
0010
1000
0100
0010
0000
0010
0000
,  // measure 51
0010
0001
0100
0000
0100
0010
1000
0000
,  // measure 52
1000
0100
0010
0001
0010
0000
0010
0000
,  // measure 53
0100
1000
0010
0000
0100
0001
0010
0000
,  // measure 54
0100
1000
0010
0100
0001
0000
1000
0000
,  // measure 55
0001
1000
0001
0000
1000
0001
1000
0000
,  // measure 56
0001
1000
0001
1000
0001
0000
1000
0000
,  // measure 57
0001
0001
0001
0001
1000
1000
1000
1000
,  // measure 58
0001
0010
0100
1000
1000
0000
1001
0000
,  // measure 59
1000
0100
0010
0000
0001
0010
0100
0000
,  // measure 60
1000
0001
1000
0001
1000
0000
0010
0000
,  // measure 61
0100
0001
0010
0000
0100
1000
0001
0000
,  // measure 62
1000
0001
1000
0001
1000
0000
0001
0000
,  // measure 63
1000
0100
0010
0001
1000
0100
0010
0001
,  // measure 64
1000
0001
0100
0010
1000
0001
0100
0000
,  // measure 65
0110
0000
0000
0000
;

//---------------dance-single - ----------------
#NOTES:
     dance-single:
     :
     Hard:
     8:
     0.637,0.560,0.154,0.062,0.088:
0000
0000
0000
0000
,
0000
0000
0000
0000
,
0001
0010
0100
1000
0001
0010
0100
1000
0001
1000
0000
0000
,
0001
1000
0001
1000
0000
0001
1000
0000
0000
0000
0000
0000
,
1000
1000
1000
1000
,
1000
1000
1000
1000
,
1000
0001
1000
0001
1000
0001
1000
0001
,
2002
0000
0000
3003
,
1000
0001
1000
0001
1000
0000
0001
0010
,
0100
0010
0001
0100
1000
0000
0001
0010
,
1000
0001
1000
0000
0100
0010
0001
0000
,
0001
0001
0100
0100
0010
0000
0110
0000
,
0010
0100
0010
1000
0100
0000
0010
0001
,
0100
0010
0010
1000
0100
0000
0010
0001
,
0100
0100
0010
0000
1000
1000
0001
0000
,
0001
0100
1000
0100
0001
0000
1001
0000
,
1000
0100
1000
0010
0100
0001
0010
0100
,
1000
0100
0001
0100
1000
0010
0001
0010
,
1000
1000
1000
0100
0001
0001
0001
0100
,
1000
0100
0010
0001
0001
0000
1001
0000
,
0001
0001
0001
0010
0100
0100
0100
1000
,
0010
0010
0010
0100
0001
0001
0001
0010
,
1000
0100
0001
1000
0010
0001
1000
0001
,
0100
0010
1000
0001
0100
0000
0110
0000
,
0000
0000
0001
0000
0000
0001
0000
0000
0001
0000
0000
0000
0000
0000
0000
0000
0000
0000
1000
0000
0000
1000
0000
0000
1000
0000
0000
0000
0000
0000
0000
0000
,
0000
0000
0010
0000
0000
0010
0000
0000
0010
0000
0000
0000
0000
0000
0000
0000
0000
0000
0100
0000
0000
0100
0000
0000
0100
0000
0000
0000
0000
0000
0000
0000
,
1010
1010
1001
1001
,
0001
0010
0100
1000
2002
0000
3003
0000
,
1000
0000
0001
0000
1000
0100
0010
0001
,
1000
0000
0001
0000
1000
0001
1000
0001
,
0100
0000
0010
0000
1000
0100
0001
0100
,
1000
1000
0010
0000
0100
0001
0010
0100
,
1000
0000
0001
0000
0010
0010
0100
1000
,
0010
0000
0100
0000
0001
0010
0001
0100
,
0010
0000
1000
0000
0100
0010
0100
1000
,
0001
0001
0001
1000
0100
0010
0001
0000
,
1000
0001
1000
0001
1000
0000
0001
0010
,
0100
0001
0100
1000
1000
0000
0010
0100
,
0010
1000
0100
0010
1000
0010
0001
0100
,
0010
0100
0010
1000
0001
0000
0110
0000
,
1000
1000
1000
1000
0001
0001
0001
0001
,
1000
1000
1000
1000
0001
0001
0001
0001
,
0100
0010
0100
0010
1000
0001
1000
0001
,
1000
0100
0010
1001
,
1000
1000
1000
1000
,
1000
1000
1000
1000
,
1000
0001
1000
0001
1000
0001
1000
0001
,
2002
0000
0000
3003
,
0001
1000
0001
0010
0100
1000
0001
0010
,
0001
0010
0100
1000
0001
0000
1000
0100
,
0010
0100
1000
0001
0010
0100
0010
0001
,
1000
0100
0001
0100
1000
1000
0001
0001
,
1000
0001
1000
0001
0100
0010
0100
0010
,
0001
0010
1000
0001
0100
0000
0010
1000
,
0001
0001
0010
0100
1000
1000
0001
0010
,
0100
0010
0100
0010
0100
1000
1000
0000
,
0001
0001
0001
0010
0100
0100
0100
1000
,
0001
0001
0001
0010
0100
0000
1001
0000
,
0001
0010
0001
0100
0010
1000
0010
0100
,
0001
0010
0001
0100
0010
0100
0010
0100
,
1000
0100
0010
0001
1000
0100
0001
1000
,
0010
0001
0010
0100
1000
0001
0010
0001
,
0100
0010
0100
0010
0100
0010
0100
0010
,
1000
0100
0001
0010
1000
0001
1000
0000
,
1001
0000
0000
0000
;

//---------------dance-single - ----------------
#NOTES:
     dance-single:
     :
     Challenge:
     10:
     0.788,0.791,0.278,0.041,0.448:
0000
0000
0000
0000
,
0000
0000
0000
0000
,
0011
0010
0001
0101
0001
0100
0110
0010
0100
1010
0000
0000
,
0101
0001
0100
0011
0000
1000
1001
0000
0000
0000
0000
0000
,
1000
1000
1000
1000
,
1000
1000
1000
1000
,
1000
0001
1000
0001
1000
0001
1000
0001
,
2002
0000
0000
3003
,
1000
0010
0001
1000
0100
0001
0010
1000
,
0001
0100
1000
0010
0100
0000
0100
0010
,
1000
0100
1000
0010
0100
0001
0010
0100
,
1000
0000
0010
0100
0001
0000
0010
0000
0100
0000
0000
0000
0001
0000
0001
0000
,
0100
1000
0010
0100
0001
0001
0100
0010
,
1000
0001
0010
0100
0010
0001
0100
0001
,
0010
0100
0001
0100
1000
0010
0100
0001
,
0010
0000
0100
1000
0001
0000
0100
0000
0010
0000
0000
0000
1001
0000
0000
0000
,
0001
0000
0010
0000
0100
0000
1000
0010
0100
0000
0001
0000
0100
0000
0010
0000
,
1000
0000
0100
0000
0010
0000
0001
1000
0010
0000
0010
0000
1000
0000
0100
0000
,
1000
0000
0010
0100
0001
0000
0010
0000
0100
0000
1000
0010
0100
0000
0010
0000
,
0010
0010
0100
0100
0010
0000
0110
0000
,
0010
0000
0100
0010
1000
0000
0100
0000
0010
0000
0001
0000
0100
0000
0010
0000
,
1000
0000
0100
0010
0001
0000
0010
0000
0100
0000
1000
0000
0001
0000
1000
0000
,
0001
0000
0010
0100
1000
0000
0100
0000
0010
0000
0001
0010
0001
0000
0100
0000
,
0001
0000
1000
0001
1000
0000
0001
0000
1001
0000
0000
0000
1001
0000
0000
0000
,
0000
0000
0100
0000
0000
0010
0000
0000
0100
0000
0000
0010
0000
0000
0100
0000
0000
0000
0001
0000
0000
0010
0000
0000
0001
0000
0000
0100
0000
0000
0010
0000
,
0000
0000
1000
0000
0000
0100
0000
0000
0001
0000
0000
0100
0000
0000
1000
0000
0000
0000
0010
0000
0000
0100
0000
0000
0010
0000
0000
1000
0000
0000
0001
0000
,
1001
1000
1001
0001
1001
1000
1001
0001
,
1001
0001
0011
0001
0101
0001
1001
0000
,
1000
0000
0100
0000
0010
0001
0010
0000
0001
0000
0001
1000
0000
0001
1000
0000
,
0010
0000
0100
0000
0010
0100
0001
0000
0010
0000
0100
1000
0000
1000
0100
0000
,
0010
0000
0001
0000
0100
0010
1000
0000
0001
0000
0100
0001
0000
0100
0001
0000
,
1000
0000
0100
0010
0000
0001
0010
0000
0100
0000
1000
0001
0000
0001
1000
0000
,
0001
0000
0010
0000
0100
1000
0001
0000
0100
0000
0010
1000
0000
0010
0100
0000
,
0010
0000
1000
0000
0001
0100
1000
0000
0100
0000
0001
0010
0000
0001
0010
0000
,
1000
0000
0001
1000
0000
0001
1000
0000
0001
0000
1000
0001
0000
1000
0001
0000
,
0010
0000
0100
0010
0000
0100
0010
0000
0100
0000
0010
0100
0000
0010
0100
0000
,
1001
0001
0010
0100
1000
1000
1000
0001
,
0100
0010
1000
0100
0010
0000
0100
0001
,
0100
0010
1000
0100
1000
0010
0100
0001
,
0010
0000
0100
1000
0010
0000
0100
0000
0001
0000
0000
0000
1001
0000
0000
0000
,
1000
1000
1000
1000
0100
0100
0100
0100
,
0010
0010
0010
0010
0001
0001
0001
0001
,
1000
0000
1000
0001
1000
0000
1000
0000
0001
0000
0001
0000
0001
0000
0001
0000
,
0100
0100
0100
0100
0010
0010
0010
0000
,
1000
1000
1000
1000
,
1000
1000
1000
1000
,
1000
0001
1000
0001
1000
0001
1000
0001
,
2002
0000
0000
3003
,
0100
0000
0010
1000
0100
0000
1000
0000
0010
0000
0100
0000
0001
0000
0010
0000
,
0100
0000
1000
0001
0100
0000
0010
0000
0010
0000
0000
0000
0010
0000
1000
0000
,
0001
0000
0100
0010
1000
0000
0100
0000
0010
0000
0100
0000
1000
0000
0010
0000
,
0100
0000
0001
0010
0100
0000
1000
0000
0010
0000
0100
0010
0100
0000
0010
0000
,
1000
0000
0100
0010
0100
0000
1000
0000
0010
0000
0100
0010
1000
0000
0010
0000
,
0100
0000
0001
1000
0100
0000
0010
0000
0001
0000
1000
0001
1000
0000
0001
0000
,
0010
0000
0001
0100
1000
0000
0100
0000
0001
0000
0010
0100
0001
0000
0100
0000
,
1000
1000
0001
0001
1000
1000
1001
0000
,
1000
1000
0100
0010
0001
0001
0100
0010
,
1000
0100
0010
0001
0100
0000
1001
1000
,
0001
0000
0010
0100
1000
0000
0010
0000
0100
0000
0001
0010
0100
0000
1000
0000
,
0010
0000
0100
0001
0010
0000
0100
0000
1000
0000
0001
1000
0001
0000
0001
0000
,
1000
0000
1000
0001
0010
0000
0001
0000
0100
0000
0010
1000
0100
0000
0010
0000
,
0010
0000
0100
1000
0010
0000
0100
0000
0100
0000
0001
0000
0001
0000
1000
0000
,
0001
0000
0010
0100
1000
0000
0001
0010
0100
0000
1000
0001
0010
0000
0100
1000
,
0001
1000
0001
1000
0001
1000
1001
0000
,
0110
0000
0000
0000
;
