#TITLE:Almagest;
#SUBTITLE:;
#ARTIST:Galdeira;
#TITLETRANSLIT:;
#SUBTITLETRANSLIT:;
#ARTISTTRANSLIT:;
#CREDIT:;
#BANNER:Almagest.png;
#BACKGROUND:Almagest BG.png;
#LYRICSPATH:;
#CDTITLE:;
#MUSIC:Almagest.mp3;
#OFFSET:-0.398;
#SAMPLESTART:63.364;
#SAMPLELENGTH:11.320;
#SELECTABLE:YES;
#BPMS:0.000=178.020;
#STOPS:;
#BGCHANGES:;

//---------------dance-single - ----------------
#NOTES:
     dance-single:
     :
     Hard:
     10:
     0.749,0.860,0.716,0.597,0.259: // measure 1
0000
0000
0000
0000
,  // measure 2
0000
0000
0000
0000
,  // measure 3
0000
0000
0000
0000
,  // measure 4
0000
0000
0000
0000
,  // measure 5
0000
0000
0000
0000
,  // measure 6
0000
0000
0000
0000
,  // measure 7
1000
0100
0001
0100
1000
0100
0010
0001
,  // measure 8
0100
0010
1000
0100
0010
0001
1000
0001
,  // measure 9
0100
0010
0001
0010
0100
1000
0100
1000
,  // measure 10
0200
0000
0000
0020
0000
0000
0330
0000
,  // measure 11
1000
1000
0100
0100
0010
0010
0100
0100
,  // measure 12
1000
0100
1000
0000
0001
0100
0001
0000
0010
1000
0000
0010
0000
0011
0000
0000
,  // measure 13
2100
0001
0000
0010
0000
0100
0000
3010
,  // measure 14
0120
0100
0000
1000
0000
0001
0000
0130
,  // measure 15
1200
1000
0000
0010
0000
1000
0000
0301
,  // measure 16
0000
1000
0100
0000
0000
0100
0010
0000
0000
0010
0001
0000
0000
0001
0010
0000
,  // measure 17
2100
0100
0000
0001
0000
0010
0000
3100
,  // measure 18
0102
0010
0000
1000
0000
0100
0000
1003
,  // measure 19
0210
0010
0000
1000
0000
0001
0000
0310
,  // measure 20
1100
1100
0000
0101
0000
0110
1010
0011
,  // measure 21
1200
1000
0000
1000
0000
0010
0000
1300
,  // measure 22
0120
0100
0000
1000
0000
0100
0000
0031
,  // measure 23
2010
0010
0000
0100
0000
0001
3000
0101
,  // measure 24
0000
0110
0000
1010
0000
0101
0000
1001
,  // measure 25
1200
1000
0000
0001
0000
1000
0000
0310
,  // measure 26
0102
0100
0000
0010
0000
1000
0000
0103
,  // measure 27
1100
0100
0010
0001
0101
0001
0010
0100
,  // measure 28
2200
0000
0000
3300
,  // measure 29
2000
0000
0000
0200
0000
3000
0020
0330
,  // measure 30
1100
1100
1000
0100
1000
0100
0001
0100
,  // measure 31
0001
0000
0101
0000
0000
0100
1000
0000
1000
0100
0010
0000
0110
0000
0000
0000
,  // measure 32
1001
1001
0001
0100
1000
0100
0001
0010
,  // measure 33
0200
0000
0000
0000
0320
0000
0000
0000
0031
0010
1000
0000
0001
0000
0001
0000
,  // measure 34
1100
1100
0100
0001
0100
1000
0100
0010
,  // measure 35
0001
0100
0001
0000
0001
1000
0001
0000
1000
0010
1000
0000
1000
0001
1000
0000
,  // measure 36
1000
0000
0100
0000
0010
0000
0001
0010
0000
0010
0001
0000
0022
0000
0033
0000
,  // measure 37
2000
0000
0200
3020
0000
0300
0002
0033
,  // measure 38
1100
1010
1000
0100
1000
0100
0010
0001
,  // measure 39
0100
0000
1000
0000
0000
0100
1000
0000
0100
1000
0100
0000
0110
0000
0000
0000
,  // measure 40
0101
0011
1000
0001
0100
0010
1000
0010
,  // measure 41
0200
0000
0000
0000
2000
0000
0300
0000
3001
0010
1000
0000
0011
0000
0011
0000
,  // measure 42
1010
1010
1000
0010
1000
0010
0001
0010
,  // measure 43
1100
0100
1000
0100
0001
0001
0100
1000
,  // measure 44
0101
0001
0100
1000
1100
0100
0010
1000
,  // measure 45
1000
0100
1000
0100
1000
0010
1000
0010
1000
0001
1000
0001
1000
0010
1000
0010
,  // measure 46
2000
0200
0000
0000
0000
0000
0000
3300
,  // measure 47
1000
0100
0010
0001
0100
0010
1000
0100
0010
0001
1000
0001
0100
0010
0100
0000
,  // measure 48
2200
0000
0000
0000
0000
0000
0000
3300
,  // measure 49
2020
0000
0000
0000
0000
0000
0000
3030
,  // measure 50
0220
0000
0000
0000
0000
0000
0000
0330
,  // measure 51
2200
0000
0000
3300
0220
0000
0000
0330
,  // measure 52
2002
0000
0000
0000
0000
0000
0000
3003
,  // measure 53
2200
0000
0000
0000
0000
0000
0000
3300
,  // measure 54
0022
0000
0000
0000
0000
0000
0000
0033
,  // measure 55
1100
0000
0101
0000
0000
0000
1100
0000
1000
0100
1000
0000
0001
0100
0001
0000
,  // measure 56
2020
0000
0000
0000
0000
0000
0000
3030
,  // measure 57
0202
0000
0000
0000
0000
0000
0000
0303
,  // measure 58
0220
0000
0000
0000
0000
0000
0330
1100
,  // measure 59
0000
1010
0000
0110
0000
0101
0000
1001
,  // measure 60
2200
0000
0000
0000
0000
0000
0000
3300
,  // measure 61
2002
0000
0000
0000
0000
0000
0000
3003
,  // measure 62
1100
0100
0010
0001
0101
0001
0010
0100
,  // measure 63
2200
0000
0000
0000
0000
0000
0000
3300
,  // measure 64
1000
0100
1000
0100
0001
0100
0010
0001
,  // measure 65
0100
0000
0001
0000
0100
0000
1000
0000
0100
0001
0010
0001
0010
0100
1000
0000
,  // measure 66
0100
0001
0100
1000
0100
0001
0100
0010
,  // measure 67
0100
0000
0010
0000
0001
0000
0010
0000
0100
1000
0100
1000
0100
1000
0100
1000
,  // measure 68
0100
0010
0100
1000
0100
0001
0100
1000
,  // measure 69
0010
0000
0001
0000
0010
0000
1000
0000
0100
0010
0100
0010
0100
0010
0100
0010
,  // measure 70
0100
0010
0001
0010
0100
1000
0010
0100
,  // measure 71
0001
0000
0010
0000
0100
0000
1000
0000
0100
0010
0001
0010
0100
0010
0001
0000
,  // measure 72
2002
0000
0000
0000
,  // measure 73
3003
0000
0000
0000
;

//---------------dance-single - ----------------
#NOTES:
     dance-single:
     :
     Medium:
     7:
     0.540,0.645,0.448,0.249,0.035:
0000
0000
0000
0000
,
0000
0000
0000
0000
,
0000
0000
0000
0000
,
0000
0000
0000
0000
,
0000
0000
0000
0000
,
0000
0000
0000
0000
,
1000
0100
0010
0001
1000
0100
0010
0001
,
1000
0001
0100
0010
1000
0001
0100
0010
,
1000
1000
0100
0100
1000
1000
0010
0010
,
0200
0000
0000
0300
,
1100
0011
1010
0101
,
1001
0000
0000
0000
0011
0000
0000
0000
1000
0100
0000
0010
0000
0010
0000
0000
,
1000
0100
0000
0010
0000
0100
0000
1000
,
0000
0001
0000
0100
0000
0010
0000
1000
,
0000
0100
0000
0001
0000
0100
0000
1000
,
0000
1100
0000
0110
0000
1010
0000
0011
,
0000
1000
0000
0100
0000
1000
0000
0001
,
0000
0100
0000
1000
0000
0100
0000
0001
,
0000
0010
0000
0100
0000
1000
0000
0100
,
1100
1100
0000
0110
0000
1100
0000
0101
,
1000
0100
0000
1000
0000
0001
0000
0100
,
0000
1000
0000
0010
0000
0100
0000
0001
,
0000
0100
0000
0010
0000
1000
0000
0110
,
0000
0101
0000
0011
0000
1001
0000
1100
,
0000
0010
0000
1000
0000
0001
0000
0100
,
0000
0010
0000
0001
0000
1000
0000
0100
,
1000
0100
1000
0100
1000
0010
1000
0010
,
1000
0100
0010
0001
1000
0100
0010
0001
,
2002
0000
0000
3003
,
1100
0101
1000
0100
,
0001
0000
0010
0000
1000
0100
0001
0000
,
0011
0101
0010
1000
,
0101
0000
0110
0000
1000
0100
0010
0100
,
0101
1010
0100
0001
,
0010
0010
0100
0100
1000
0100
0010
0001
,
1000
0110
0001
1100
,
2000
3200
0320
0031
,
1100
0000
0011
0000
1000
0100
0001
0000
,
0010
0100
0001
0000
0010
1000
0010
0000
,
0110
0000
1001
0000
1000
0001
0100
0000
,
0010
1000
0010
0000
0100
0001
1000
0000
,
0011
0000
0011
0000
1000
0100
1000
0000
,
0100
0100
0010
0000
0001
0001
1000
0000
,
1000
1000
1000
1000
0100
0100
0100
0100
,
0010
0100
1000
0100
0010
0100
1000
0100
,
0220
0000
0000
0330
,
1000
0100
1000
0000
1000
0100
1000
0000
1000
0100
1000
0000
1000
0100
1000
0000
,
2000
0000
0000
0000
0000
0000
0000
3000
,
0200
0000
0000
0000
0000
0000
0000
0300
,
0020
0000
0000
0000
0000
0000
0000
0030
,
2000
0000
0000
3000
0002
0000
0000
0003
,
0200
0000
0000
0000
0000
0000
0000
0300
,
0020
0000
0000
0000
0000
0000
0000
0030
,
0200
0000
0000
0000
0000
0000
0000
0300
,
1100
0000
0101
0000
1000
0100
0010
0001
,
2000
0000
0000
0000
0000
0000
0000
3000
,
0002
0000
0000
0000
0000
0000
0000
0003
,
0200
0000
0000
0000
0000
0000
0300
0110
,
0000
1100
0000
0110
0000
0000
0100
0100
,
0200
0000
0000
0000
0000
0000
0000
0300
,
0002
0000
0000
0000
0000
0000
0000
0003
,
1000
0100
0010
0001
1000
0100
0010
0001
,
2002
0000
0000
0000
0000
0000
0000
3003
,
1000
0100
0010
0001
0100
0010
1000
0100
,
0010
0001
1000
0001
0100
0010
1000
0001
,
0100
0010
1000
0100
1000
0100
1000
0100
,
0010
0001
0010
0001
0010
0100
1000
0100
,
0010
0001
0010
0100
1000
0010
0100
0001
,
0010
0100
1000
0100
0010
0100
1000
0100
,
0010
0100
0010
0100
1000
0100
0010
0001
,
0010
0100
0010
0001
0010
1000
0010
0001
,
2002
0000
0000
0000
,
3003
0000
0000
0000
;

//---------------dance-single - ----------------
#NOTES:
     dance-single:
     :
     Easy:
     4:
     0.279,0.393,0.099,0.259,0.000:
0000
0000
0000
0000
,
0000
0000
0000
0000
,
0000
0000
0000
0000
,
0000
0000
0000
0000
,
0000
0000
0000
0000
,
0000
0000
0000
0000
,
1000
0000
1000
0000
,
0001
0000
0001
0000
,
1000
0000
0100
0000
,
0010
0000
0001
0000
,
2002
0000
0000
0000
,
0000
0000
0000
3003
,
1000
0000
0010
0000
,
0100
0000
1000
0000
,
0010
0000
0100
0000
,
0000
0001
0000
0010
0000
0100
0000
1000
,
0000
0000
1000
0000
,
0100
0000
0010
0000
,
1000
0000
0001
0000
,
0010
0010
0100
0100
,
1000
0000
0100
0000
,
1000
0000
0010
0000
,
0100
0000
0001
0000
,
0100
0100
0100
0100
,
0010
0000
1000
0000
,
0100
0000
0100
0000
,
0100
0010
0100
0010
,
0100
0000
0000
0000
,
2002
0000
0000
3003
,
1001
0100
0100
0100
,
0100
0100
0100
0100
,
1001
0010
0010
0010
,
0010
0010
0010
0010
,
1001
1000
1000
1000
,
1000
1000
1000
1000
,
1001
0001
0010
0100
,
2002
0000
0000
3003
,
1000
0000
0100
0000
,
1000
0100
0010
0001
,
0100
0000
0010
0000
,
1000
0100
1000
0010
,
0100
0000
0001
0000
,
0100
0000
1000
0000
,
1000
0000
0100
0000
,
0001
0010
0100
1000
,
2002
0000
0000
0000
,
0000
0000
0000
3003
,
2000
0000
0000
3000
,
0200
0000
0000
0300
,
0020
0000
0000
0030
,
0002
0003
0020
0030
,
0200
0000
0000
0300
,
2000
0000
0000
3000
,
0200
0000
0000
0300
,
0010
0010
0010
0010
,
0002
0000
0000
0003
,
0020
0000
0000
0030
,
0200
0000
0000
0300
,
1000
0100
0010
0001
,
0020
0000
0000
0030
,
0200
0000
0000
0300
,
2000
0000
0000
3000
,
2002
0000
0000
3003
,
1000
1000
0001
0001
,
1000
0000
1000
0000
0001
1000
0001
0000
,
0001
0001
1000
1000
,
0001
0000
0001
0000
1000
0001
1000
0000
,
0100
0100
0010
0010
,
0100
0000
0100
0000
0010
0100
0010
0000
,
0010
0010
0100
0100
,
0010
0000
0010
0000
0100
0010
0100
0000
,
0220
0000
0000
0330
;

//---------------dance-single - ----------------
#NOTES:
     dance-single:
     :
     Beginner:
     1:
     0.094,0.214,0.010,0.109,0.000:
0000
0000
0000
0000
,
0000
0000
0000
0000
,
0000
0000
0000
0000
,
0000
0000
0000
0000
,
0000
0000
0000
0000
,
0000
0000
0000
0000
,
1000
0000
0000
0000
,
1000
0000
0000
0000
,
0010
0000
0000
0000
,
0010
0000
0000
0000
,
2000
0000
0000
0000
,
0000
0000
0000
3000
,
1000
0000
0000
0000
,
0000
0000
0000
0000
,
0100
0000
0000
0000
,
0000
0000
0000
0000
,
0010
0000
0000
0000
,
0000
0000
0000
0000
,
0001
0000
0000
0000
,
0000
0000
0000
0000
,
1000
0000
0000
0000
,
0001
0000
0000
0000
,
0100
0000
0000
0000
,
0010
0000
0000
0000
,
1000
0000
0000
0000
,
0001
0000
0000
0000
,
1000
0000
0000
0000
,
0001
0000
0000
0000
,
0200
0000
0000
0300
,
0010
0000
0000
0000
,
0000
0000
0000
0000
,
1000
0000
0000
0000
,
0000
0000
0000
0000
,
0001
0000
0000
0000
,
0100
0000
0000
0000
,
0001
0000
0000
0000
,
0001
0000
0000
0000
,
1000
0000
0000
0000
,
0100
0000
0000
0000
,
0100
0000
0000
0000
,
0010
0000
0000
0000
,
0010
0000
0000
0000
,
1000
0000
0000
0000
,
0001
0000
0000
0000
,
0001
0000
0000
0000
,
0200
0000
0000
0300
,
2000
0000
0000
3000
,
0200
0000
0000
0000
,
0000
0000
0000
0000
,
0000
0000
0000
0000
,
0000
0000
0000
0300
,
0020
0000
0000
0000
,
0000
0000
0000
0000
,
0000
0000
0000
0030
,
0000
0000
0000
0000
,
0200
0000
0000
0000
,
0000
0000
0000
0000
,
0000
0000
0000
0300
,
0000
0000
0000
0000
,
0002
0000
0000
0000
,
0000
0000
0000
0003
,
1000
1000
0001
0001
,
0200
0000
0000
0300
,
0010
0000
0000
0000
,
0100
0000
0000
0000
,
1000
0000
0000
0000
,
0001
0000
0000
0000
,
0100
0000
0000
0000
,
0010
0000
0000
0000
,
1000
0000
0010
0000
,
0001
0000
0010
0000
,
2002
0000
0000
3003
;
