#VERSION:0.83;
#TITLE:seven o'clock;
#SUBTITLE:;
#ARTIST:HIRO rmx by FUKUYAMA;
#TITLETRANSLIT:;
#SUBTITLETRANSLIT:;
#ARTISTTRANSLIT:;
#GENRE:V.R.D.J skills;
#CREDIT:tikal.;
#MUSIC:7oc.ogg;
#BANNER:bn.png;
#BACKGROUND:bg.png;
#CDTITLE:;
#SAMPLESTART:42.547;
#SAMPLELENGTH:19.200;
#SELECTABLE:YES;
#OFFSET:-0.173;
#BPMS:0.000=125.000
,244.000=104.000
,246.000=93.000
,248.000=83.000
,250.000=76.000
,251.000=49.000
,252.000=47.500
;
#STOPS:;
#DISPLAYBPM:49.000:125.000;
#BGCHANGES:;
#FGCHANGES:;

//--------------- dance-single - tikal. ----------------
#NOTEDATA:;
#STEPSTYPE:dance-single;
#DESCRIPTION:tikal.;
#DIFFICULTY:Hard;
#METER:8;
#RADARVALUES:0,0,0,0,0;
#NOTES:
0000
0000
0000
1001
,
2000
0000
0000
3002
0100
0000
0000
0000
0023
0000
0000
0230
1000
0000
0310
0000
,
0020
0000
0000
0031
1000
0002
0000
0000
1003
0000
1000
0000
0010
0100
0000
0000
,
0002
0000
0000
2003
0100
0000
0000
0000
3020
0000
0000
0230
0001
0000
0310
0000
,
0002
1003
0000
1001
,
0220
0000
0000
0330
2002
0000
0000
3003
,
1000
0100
0001
0100
1000
0100
0001
0100
,
0010
0001
0100
0001
0010
0100
1000
0001
,
0011
0100
0000
1010
0100
0000
1001
0000
,
0220
0000
0000
0330
2002
0000
0000
3003
,
0002
0000
0000
0000
0023
0000
0000
0000
0130
0000
1000
0000
0000
1001
0000
0000
,
0001
0000
0001
0000
0100
0010
0000
1000
0001
0000
0000
0000
0000
0000
0000
0000
,
1100
0000
0000
0000
0101
0000
0000
0000
1000
0000
0110
0000
0000
0110
0000
0000
,
0001
1000
0000
0001
1000
0001
0000
1000
0100
0000
0000
0000
0000
0000
0000
0000
,
0110
0000
0000
0000
1000
0000
0000
0000
0001
0100
0010
0000
1000
0001
0000
0000
,
0010
0000
0100
0000
0110
0000
0000
0000
1000
0000
0001
1000
0000
0001
1000
0001
,
0100
0000
0000
0000
0110
0000
0000
0000
1000
0100
0010
0000
0001
1000
0000
0000
,
0020
0000
0000
0000
0000
0000
0030
0110
,
0110
0000
0000
0000
0001
0000
0000
0000
1000
0010
0100
0000
0001
1000
0000
0000
,
0100
0000
0010
0000
0001
0000
0001
1000
0000
1000
0010
0000
0100
0000
0000
0000
,
0110
0001
1000
0000
0110
1000
0001
0000
,
1000
0000
0000
0010
0001
0000
0000
0010
1000
0000
0001
0000
0010
0100
0010
0000
,
0001
0000
0001
0000
1000
0001
0000
0100
0000
0100
0000
0000
0010
0100
0010
0000
,
1000
0000
0001
1000
0000
0001
0000
0010
0000
0100
0000
0000
1000
0001
0000
0000
,
1000
0000
1000
0000
0001
1000
0000
0100
0000
0100
0000
0000
0010
0100
0010
0000
,
2002
0000
0000
3003
0220
0000
0330
0000
,
1000
0000
0100
0000
0010
0001
0000
1000
0000
0001
0000
0000
0010
0000
0000
0000
,
0001
0000
0100
0000
0010
1000
0000
0001
0000
1000
0000
0000
0010
0000
0000
0000
,
1000
0000
1000
0000
0010
1000
0000
1000
0000
0001
0000
0000
0100
0000
0100
0000
,
0001
0000
0001
0000
0010
0001
0000
0001
0000
1000
0000
0000
0100
0000
0100
0000
,
1000
0000
1000
0000
0100
0010
0000
0001
0000
0100
0010
0000
1000
0000
0001
0000
,
0010
0000
0100
0010
0000
0100
0010
0000
0010
0000
0000
0000
0001
0000
0000
0000
,
2000
0000
3020
0000
0031
0010
1000
0001
,
1000
0100
0000
0010
0001
0000
0000
0100
0000
0100
0000
0010
1000
0000
0000
0000
,
0002
0000
0023
0000
1030
0010
0001
1000
,
0001
0100
0000
0010
1000
0001
1000
0001
0000
0010
0000
0000
0100
0000
0000
0000
,
2000
0000
3200
0000
0301
0100
1000
0001
,
1000
0010
0000
0100
0001
0000
0000
0010
0000
0010
0000
0100
1000
0001
0000
0000
,
1010
0000
0011
0101
0000
1100
1001
0000
,
0001
0100
0000
0010
2000
0000
0000
3002
1000
0000
0000
0103
0001
0010
0000
0000
,
0220
0000
0000
0330
2002
0000
0000
3003
,
1000
0100
0001
0110
0001
0010
1000
0110
,
0001
0100
1000
0010
0220
0000
0330
2002
,
0000
0000
0000
0000
,
0000
0000
3003
0000
,
0002
0000
0203
0000
0310
0100
0001
0010
,
2000
0000
0000
3020
0100
0000
0032
0000
,
0203
0000
0000
2300
0000
0000
3200
0000
,
0302
0023
0230
2300
,
3002
0000
0000
0000
0100
0000
1003
0100
,
0020
0000
0230
2300
,
3200
0000
0000
0000
0010
2300
0000
0000
,
3002
0000
0000
0000
1003
0001
0000
0000
1001
0000
0000
1000
0001
0100
0000
0010
,
2000
0000
0000
0000
3020
0000
0000
0030
2020
0000
0000
0000
0000
0000
3030
0000
,
1000
0100
0020
0002
0000
0000
0033
1000
,
0100
0020
0000
0031
0100
0020
0000
1030
,
0020
0200
0000
0000
0330
0001
0010
0100
,
2000
0000
0000
3002
0010
0000
1000
0000
,
2003
3010
0002
0103
,
2002
0000
0000
0003
,
0200
0000
3000
0000
0020
0000
0000
0330
,
0002
0023
0230
2300
,
3002
0203
0320
2030
,
0002
0000
0000
0000
,
3003
0000
0000
0000
;

//--------------- dance-single - tikal. ----------------
#NOTEDATA:;
#STEPSTYPE:dance-single;
#DESCRIPTION:tikal.;
#DIFFICULTY:Challenge;
#METER:10;
#RADARVALUES:0,0,0,0,0;
#OFFSET:1.267;
#BPMS:0.000=62.500
,3.000=250.000
,3.500=125.000
,3.750=62.500
,4.000=125.000
,7.000=250.000
,8.000=125.000
,10.500=250.000
,12.000=125.000
,16.000=250.000
,17.000=125.000
,17.625=34.091
,18.000=250.000
,18.500=125.000
,18.750=62.500
,19.000=125.000
,21.000=250.000
,22.500=125.000
,37.000=250.000
,38.500=125.000
,41.000=250.000
,41.500=125.000
,45.000=62.500
,46.000=125.000
,48.000=250.000
,49.750=125.000
,52.000=62.500
,53.000=125.000
,59.500=250.000
,61.000=125.000
,65.000=53.571
,66.500=125.000
,73.500=250.000
,74.000=125.000
,76.250=250.000
,76.750=125.000
,78.250=250.000
,78.750=125.000
,79.500=250.000
,80.000=125.000
,80.500=250.000
,81.000=125.000
,82.000=250.000
,83.000=125.000
,90.000=250.000
,91.000=125.000
,97.000=250.000
,98.000=125.000
,106.500=250.000
,107.000=125.000
,110.000=250.000
,111.000=125.000
,114.000=250.000
,115.000=125.000
,116.000=250.000
,116.250=125.000
,117.250=250.000
,117.500=125.000
,119.000=250.000
,121.000=125.000
,121.250=250.000
,122.000=125.000
,123.000=250.000
,123.500=125.000
,123.750=62.500
,124.000=250.000
,124.375=125.000
,124.563=62.500
,124.750=125.000
,128.750=250.000
,129.750=125.000
,131.000=250.000
,131.500=125.000
,131.750=62.500
,132.000=250.000
,132.375=125.000
,132.563=62.500
,132.750=125.000
,136.000=250.000
,137.250=125.000
,138.250=250.000
,139.000=125.000
,144.750=250.000
,146.000=125.000
,154.250=250.000
,155.000=125.000
,165.000=250.000
,166.500=125.000
,173.000=62.500
,174.000=125.000
,238.000=104.000
,240.000=93.000
,242.000=83.000
,244.000=76.000
,245.000=49.000
,246.000=47.500
;
#STOPS:7.000=0.120
,7.500=0.120
,10.500=0.120
,11.000=0.060
,11.250=0.180
,16.000=0.040
,16.167=0.040
,16.333=0.040
,16.500=0.040
,16.667=0.040
,16.833=0.040
,21.000=0.040
,21.167=0.040
,21.333=0.040
,21.500=0.040
,21.667=0.040
,21.833=0.040
,22.000=0.040
,22.167=0.040
,22.333=0.040
,37.000=0.040
,37.167=0.040
,37.333=0.040
,37.500=0.040
,37.667=0.040
,37.833=0.040
,38.000=0.040
,38.167=0.080
,41.000=0.120
,48.000=0.120
,48.500=0.120
,49.000=0.060
,49.250=0.120
,59.500=0.060
,59.750=0.060
,60.000=0.060
,60.250=0.060
,60.500=0.060
,60.750=0.060
,73.500=0.120
,76.250=0.120
,78.250=0.120
,79.500=0.060
,79.750=0.060
,80.500=0.060
,80.750=0.060
,82.000=0.060
,82.250=0.060
,82.500=0.060
,82.750=0.060
,90.000=0.060
,90.250=0.180
,97.000=0.040
,97.167=0.040
,97.333=0.040
,97.500=0.040
,97.667=0.040
,97.833=0.040
,106.500=0.120
,110.000=0.120
,110.500=0.120
,114.000=0.120
,114.500=0.120
,116.000=0.060
,117.250=0.060
,119.000=0.120
,119.500=0.060
,119.750=0.120
,120.250=0.060
,120.500=0.120
,121.250=0.180
,128.750=0.120
,129.250=0.120
,136.000=0.060
,136.250=0.060
,136.500=0.060
,136.750=0.120
,138.250=0.180
,144.750=0.120
,145.250=0.120
,145.750=0.060
,154.250=0.180
,165.000=0.040
,165.167=0.040
,165.333=0.040
,165.500=0.040
,165.667=0.040
,165.833=0.040
,166.000=0.120
;
#NOTES:
0000
0000
0000
1001
,
0002
0000
0103
0020
0000
0130
0001
1000
0100
0010
0100
2000
0000
3000
0001
0000
,
0002
0000
0103
0010
1000
0020
0000
1030
0100
0010
0100
0000
1001
1001
0000
0000
,
2000
0000
3100
0020
0000
0130
1000
0001
0100
0010
0100
0002
0000
0003
1000
0001
,
4000
0000
0000
0000
0000
0000
0000
0000
0000
0000
0000
0000
0000
0000
0000
0000
0000
0000
0000
0000
0000
0000
0000
0000
3001
0000
0000
0000
1000
0000
0000
0000
0000
0001
0000
0000
0000
0000
0000
0000
0000
0000
0000
0000
0000
0000
0000
0000
1001
0000
0000
0000
0000
0000
0000
0000
0000
0000
0000
0000
0000
0000
0000
0000
0000
0000
0000
0000
0000
0000
0000
0000
2000
0000
0000
0000
0000
0000
3100
0000
0000
0010
0000
0000
0100
0000
0000
0000
0000
0000
1000
0000
0000
0000
0000
0000
,
0001
0000
0000
0100
0000
0000
0010
0000
0000
1000
0000
0000
0004
0000
4000
0000
0000
0000
0000
0000
0000
0000
0000
0000
0000
0000
0000
0000
0003
0000
3000
0000
0000
0000
0000
0000
0011
0000
0000
0000
0000
0000
1010
0000
0000
0000
0000
0000
,
1000
0000
0000
0000
0000
0000
0000
0000
0100
0000
0000
0000
0010
0000
0000
0000
0000
0000
0100
0000
0000
0000
0000
0000
0001
0000
0000
0000
0000
0000
0100
0000
0000
0000
0000
0000
10M0
0000
0000
00M0
0000
0000
00M1
0000
0000
00M0
0000
0000
01M0
0000
0000
00M0
0000
0000
10M0
0000
0000
00M0
0000
0000
01M0
0000
0000
00M0
0000
0000
00M1
0000
0000
00M0
0000
0000
1000
0000
0000
0000
0000
0000
0000
0000
0000
0000
0000
0000
0001
0000
0000
0000
0000
0000
0010
0000
0000
0000
0000
0000
,
0100
0000
0000
0000
1000
0000
0001
0000
0000
1000
0000
0000
0010
0000
0000
0100
0000
0000
0001
0000
0000
1000
0000
0000
0100
0000
0000
0010
0000
0000
0100
0000
0000
1000
0000
0000
1001
0000
0000
0000
0000
0000
0001
0000
0000
0010
0000
0000
,
0100
1000
1100
0000
1000
0010
0100
0001
0101
0000
1000
0000
0001
0010
000M
0010
,
1000
0000
0000
0100
0000
0000
M000
0000
0000
0100
0000
0000
0004
0000
4000
0000
0000
0000
0000
0000
0000
0000
0000
0000
0003
0000
3000
0000
0000
0000
1001
0000
0000
0000
0000
0000
0002
0000
0000
0000
0000
0000
1003
0000
0000
0010
0000
0000
,
0200
0000
0310
0100
1000
0000
0200
0000
0301
1000
0010
0100
0001
0000
0001
1000
,
0100
0000
0100
0000
0000
0000
0010
0000
0001
0000
M000
0M00
00M0
000M
0M00
00M0
1000
0000
0010
0000
1000
0000
0010
0000
0001
0000
0010
0000
0001
0000
0010
0000
,
1000
0000
0200
0000
0301
0200
0000
1300
0001
0010
000M
0010
1000
0100
M000
0100
,
0002
0000
0000
0003
0011
0000
0010
0001
0100
0000
0000
1000
0100
0001
1000
0000
,
1100
0000
1000
0000
0001
0000
0000
0000
1000
0000
0010
0000
0400
0000
0300
0000
0110
0000
0000
0000
0000
0000
0010
0000
0100
0000
0001
0000
0010
000M
0010
0000
,
1000
0000
0100
M000
0100
0000
0001
0000
0101
0000
0000
0000
0100
0000
0001
0000
0010
0000
0000
0000
0000
0000
1000
0000
0010
0000
0001
0000
1000
0000
0000
0000
,
0010
0000
0000
0000
0100
0000
0000
0000
0000
0000
0000
0000
0000
0000
0000
0000
0004
0000
0000
0000
0000
0000
0000
0000
0000
0000
0000
0000
0000
0003
0000
0000
0000
0000
0000
0000
0000
0000
0000
0000
0011
0000
0000
0000
0000
0000
0000
0000
1010
0000
0000
0000
0000
0000
0000
0000
0010
0000
0000
0000
1000
0000
0000
0000
,
0100
0000
0000
0001
0100
1000
0001
0000
0101
0001
1000
0001
0000
0010
0400
0300
,
1000
0000
0010
0000
1000
0000
0001
0000
0010
0000
0001
0000
0100
0000
0000
0000
0001
0000
0010
000M
0010
0000
1000
0000
2100
0000
0000
0000
3010
0000
0100
0000
,
0001
0000
0000
0000
0000
0000
0000
0000
0102
0000
0000
0000
0013
0000
0100
0000
1000
0000
0000
0000
0000
0000
0000
0000
0010
0000
0000
0000
1000
0000
0010
M000
,
0010
0000
0001
0010
1000
0010
0001
1000
0010
0100
0010
0100
0001
0000
0010
0000
,
0100
0001
0000
0100
0000
1000
0000
0001
0100
0000
0010
0000
1000
0000
0100
1000
,
0000
0001
0000
0100
0000
0010
0000
1000
1001
1001
0000
0000
1000
0000
0010
0000
,
0100
1000
0000
0100
0000
0001
0000
1000
0100
0000
0010
0000
0001
0100
000M
0100
,
1000
0000
0000
0010
0000
0000
M000
0000
0000
0010
0000
0000
0004
0000
4000
0000
0000
0000
0000
0000
0003
0000
3000
0000
0040
0000
0000
0000
0000
0000
0000
0000
0030
0000
0000
0000
1000
0000
0000
0000
0000
0000
0010
0000
0000
0000
0000
0000
,
0100
0001
0000
0010
0000
2000
0000
3010
0200
0000
2300
0000
3001
0000
0010
0000
,
0100
0000
1000
0000
0000
0000
0010
0000
0000
0000
0002
0000
0000
0000
0013
0000
0100
00M0
0100
0000
1000
0000
0000
0000
0001
0000
0000
0000
0001
0000
0000
0000
,
0010
1000
0000
0010
0100
0010
0000
0001
0100
000M
0100
0000
1000
0000
1000
0000
,
0010
0001
0000
0010
0100
0010
0000
1000
0100
M000
0100
0000
0001
0000
0001
0000
,
0010
000M
0010
0000
0000
0000
1000
0000
0000
0000
0100
M000
0100
0000
0000
0000
0001
0000
0000
0000
0001
0000
0000
0000
1000
0000
0000
0000
0001
0000
1000
0000
,
0000
0000
0001
0000
1000
0000
0000
0000
1000
0000
0000
0000
0000
0000
0000
0000
0100
0010
0100
0000
1000
0000
0001
0000
2000
0000
0000
0000
0000
0000
0000
0000
,
3020
0000
0000
0031
0010
1000
0001
0000
0010
0100
0000
1000
0001
0010
0000
0100
,
1000
0001
0100
0010
0000
0010
0000
0100
0001
1000
0100
1000
0002
0000
0000
0000
,
0023
0000
0000
1030
0010
0001
1000
0000
0010
0100
0000
0001
1000
0010
0000
0100
,
0001
1000
0001
1000
0000
0100
0010
0100
1000
0001
0000
0000
1000
0010
0001
1000
,
0100
0001
1000
0200
0000
0310
0002
0000
1003
0001
0020
0000
0031
0100
0000
0010
,
1000
0001
0010
0100
0000
0100
0000
0010
0001
1000
0010
1000
0001
0010
1000
0001
,
0100
1000
0100
0001
1000
0010
0001
0100
0001
0010
1000
0001
0100
1000
0000
0010
,
0100
0000
0001
0020
0100
0000
0000
0031
1000
0001
0000
0000
1000
0010
1000
0010
,
1000
0000
0000
0000
0000
0000
0010
0000
0000
0000
0000
0000
1000
0000
0000
0000
0000
0000
0010
0000
0000
0000
0000
0000
0100
0000
0000
0000
0000
0000
0001
0000
0000
0000
0000
0000
0100
0000
0000
0000
0000
0000
0001
0000
0000
0000
0000
0000
0100
0000
0000
0000
0001
0000
0000
0000
0100
0000
0000
0000
0001
0000
0000
0100
0000
0000
0001
0000
0000
0000
0000
0000
1000
0000
0000
0000
0000
0000
0100
0000
0000
0000
0000
0000
0001
0000
0000
0000
0000
0000
1000
0000
0000
0000
0000
0000
,
0000
0000
0000
0000
0000
0000
0010
0000
0000
0000
0000
0000
0001
0000
0000
0000
0000
0010
0000
0000
0000
0100
0000
0000
1000
0000
0000
0000
0000
0000
0010
0000
0000
0000
0000
0000
0001
0000
0000
0000
0000
0000
1000
0000
0000
0000
0000
0000
0000
0000
0000
0000
0000
0000
0100
0000
0000
0000
0000
0000
0001
0000
0000
0000
0000
0100
0000
0000
0000
0010
0000
0000
1000
0000
0000
0000
0000
0000
0001
0000
0000
0000
0000
0000
0010
0000
0000
0000
0000
0000
0100
0000
0000
0000
0000
0000
,
0000
0000
0000
1000
0000
0000
0010
0000
0000
0100
0000
0000
0004
0000
4000
0000
0000
0000
0000
0000
0000
0000
0003
0000
3000
0000
0000
0000
0000
0000
1001
0000
0000
0000
0000
0000
0000
0000
0000
0000
0000
0000
0000
0000
0000
0000
0000
0000
,
1000
0100
1000
0100
0000
0000
0000
0010
0000
0100
1000
0000
0000
0000
0000
0000
,
0001
0000
0100
0000
0001
0000
0100
0000
0020
0000
0000
0000
2030
0000
0000
3001
0020
0000
0000
0000
0000
0000
0000
0000
0130
0000
1000
0000
0100
0000
1000
0000
,
0001
0000
0000
1000
0000
0001
1000
0010
0200
0000
0000
0000
0310
1000
0010
1000
,
0001
0000
0000
1000
0010
0100
0001
0100
0020
0000
0000
0000
0130
0001
0100
0001
,
1000
0000
0000
0001
0000
1000
0001
0010
0200
0000
0000
0000
0310
0001
0010
0001
,
1000
0000
0000
0001
0010
0100
1000
0100
0020
0000
0000
0000
0031
0100
0001
0100
,
0010
0000
0000
0100
0000
0001
1000
0010
0200
0000
0000
0000
0301
0010
0001
0010
,
0100
0000
0000
1000
0100
0010
0001
1000
0200
0000
0000
0000
1300
0010
1000
0010
,
0100
0000
0000
0010
0000
1000
0001
0100
0020
0000
0000
0000
1030
0001
0000
0000
,
1001
0000
0000
0001
1000
0100
0010
0001
2000
0000
3001
1000
0010
1000
0001
0010
,
0100
0010
0000
0000
0010
0001
1000
0010
0200
0000
0301
1000
0010
1000
0100
0010
,
0001
0100
0000
0000
0100
0001
1000
0100
0020
0000
0031
1000
0100
1000
0001
0100
,
0010
0100
0000
0000
0100
0001
1000
0100
0020
0000
0031
1000
0001
1000
0010
0100
,
0001
1000
0000
0000
0100
0010
0001
1000
0002
0000
1003
0001
0010
0001
1000
0010
,
0100
0010
0000
0000
0010
1000
0001
0010
0200
0000
1300
0001
0010
0001
0100
0010
,
1000
0100
0000
0000
0100
1000
0001
0100
0020
0000
1030
0001
0100
0001
1000
0100
,
0010
0100
0000
0000
0100
1000
0001
0100
0020
0000
1030
0001
1000
0001
0010
0100
,
1000
0001
0000
0000
0100
0010
1000
0001
2000
0000
0000
0000
3200
0000
0000
0000
,
0320
0032
2003
3020
,
0230
0302
2000
0000
,
0000
0000
3003
0000
;
